osu file format v14

[General]
AudioFilename: Undertale Boss Themes.mp3
AudioLeadIn: 0
PreviewTime: 457303
Countdown: 0
SampleSet: None
StackLeniency: 0.5
Mode: 0
LetterboxInBreaks: 0
WidescreenStoryboard: 1

[Editor]
Bookmarks: 614,110322,168865,285198,392798,528499,705582,823087,913089,1004797
DistanceSpacing: 1.2
BeatDivisor: 4
GridSize: 8
TimelineZoom: 0.1

[Metadata]
Title:Undertale Boss Themes (Practice Mapset)
TitleUnicode:Undertale Boss Themes (Practice Mapset)
Artist:toby fox
ArtistUnicode:toby fox
Creator:Pointless
Version:Death By Glamour - Mettaton Ex
Source:UNDERTALE
Tags:bad time spoiler sans papyrus frisk chara flowey determination patience kindness human toriel asgore asriel mount ebott snowdin bravery integrity perserverance justice fallen human genocide alphys mettaton hotland dog soul love exp undyne flowey onionsan onionsama onionchan onion napstablook hope dream annoying demo heroine final battle voli dirai epilepsy ruins core waterfall neutral ending hard mode megalomania Nyeh Heh Heh! temmie idiot baka heart blue indigo purple yellow green orange soulless monster chiptune pixel 2015 spare act fight item heartache bonetrousle spear of justice spider dance death by glamour your best nightmare hopes and dreams megalovania muffet NEO undying omega photoshop raidiation indie hula earthbound belowstory morality marathon incorrigible undermeme
BeatmapID:1297275
BeatmapSetID:615001

[Difficulty]
HPDrainRate:4
CircleSize:3.5
OverallDifficulty:9.3
ApproachRate:9.6
SliderMultiplier:2.1
SliderTickRate:2

[Events]
//Background and Video events
0,0,"SOULS.jpg",0,0
//Break Periods
2,482232,483129
2,508179,509076
//Storyboard Layer 0 (Background)
//Storyboard Layer 1 (Fail)
//Storyboard Layer 2 (Pass)
//Storyboard Layer 3 (Foreground)
//Storyboard Sound Samples

[TimingPoints]
660,251.046025104603,3,2,3,65,1,0
5178,-200,4,2,3,65,0,0
12710,-149.253731343284,4,2,3,65,0,0
23254,-188.679245283019,4,2,3,65,0,0
24760,-175.438596491228,4,2,3,65,0,0
29279,-188.679245283019,4,2,3,65,0,0
30785,-149.253731343284,4,2,3,65,0,0
42835,-166.666666666667,4,2,3,65,0,0
43839,-149.253731343284,4,2,3,65,0,0
51873,-149.253731343284,4,2,3,35,0,0
54885,-149.253731343284,4,2,3,65,0,0
62417,-166.666666666667,4,2,3,65,0,0
63923,-149.253731343284,4,2,3,65,0,0
86517,-200,4,2,3,65,0,0
88024,-142.857142857143,4,2,3,65,0,0
110368,400,4,2,3,65,1,0
118268,-100,4,2,3,25,0,0
118368,-100,4,2,3,65,0,0
119068,-100,4,2,3,25,0,0
119168,-100,4,2,3,65,0,0
120668,-100,4,2,3,25,0,0
120768,-100,4,2,3,65,0,0
122268,-100,4,2,3,25,0,0
122368,-100,4,2,3,65,0,0
127068,-100,4,2,3,25,0,0
127168,-100,4,2,3,65,0,0
131068,-100,4,2,3,25,0,0
131168,-100,4,2,3,65,0,0
131868,-100,4,2,3,25,0,0
131968,-100,4,2,3,65,0,0
133468,-100,4,2,3,25,0,0
133568,-100,4,2,3,65,0,0
135068,-100,4,2,3,25,0,0
135168,-100,4,2,3,65,0,0
137468,-100,4,2,3,25,0,0
137568,-100,4,2,3,65,0,0
138268,-100,4,2,3,25,0,0
138368,-100,4,2,3,65,0,0
139868,-100,4,2,3,25,0,0
139968,-100,4,2,3,65,0,0
142368,-83.3333333333333,4,2,3,65,0,0
144668,-83.3333333333333,4,2,3,25,0,0
144768,-83.3333333333333,4,2,3,65,0,0
151068,-83.3333333333333,4,2,3,25,0,0
151168,-83.3333333333333,4,2,3,65,0,0
154668,-83.3333333333333,4,2,3,25,0,0
154768,-83.3333333333333,4,2,3,65,0,0
157468,-83.3333333333333,4,2,3,25,0,0
157568,-83.3333333333333,4,2,3,65,0,0
161568,-111.111111111111,4,2,3,65,0,0
167168,-111.111111111111,4,2,3,65,0,0
168911,342.211829122227,4,2,3,65,1,0
179861,-83.3333333333333,4,2,3,65,0,0
190812,-76.9230769230769,4,2,3,65,0,0
205527,-111.111111111111,4,2,3,65,0,0
207695,-111.111111111111,4,2,3,25,0,0
207809,-111.111111111111,4,2,3,65,0,0
213170,-111.111111111111,4,2,3,25,0,0
213284,-111.111111111111,4,2,3,45,0,0
216364,-100,4,2,3,65,0,0
216820,-83.3333333333333,4,2,3,65,0,0
260623,-90.9090909090909,4,2,3,65,0,0
285244,260.869565217391,4,2,3,65,1,0
293591,-117.647058823529,4,2,3,65,0,0
299852,-166.666666666667,4,2,3,65,0,0
301939,-117.647058823529,4,2,3,65,0,0
308200,-166.666666666667,4,2,3,65,0,0
310287,-117.647058823529,4,2,3,65,0,0
316548,-200,4,2,3,65,0,0
318635,-100,4,2,3,65,0,0
334809,-117.647058823529,4,2,3,65,0,0
335330,-100,4,2,3,65,0,0
339504,-100,4,2,3,65,0,0
350983,-133.333333333333,4,2,3,65,0,0
351765,-133.333333333333,4,2,3,20,0,0
351896,-133.333333333333,4,2,3,5,0,0
352026,-100,4,2,3,65,0,0
392844,405.405405405405,4,2,3,65,1,0
418789,-76.9230769230769,4,2,3,65,0,0
431762,-58.8235294117647,4,2,3,65,0,0
457708,-50,4,2,3,65,0,0
459330,-40,4,2,3,65,0,0
460141,-28.5714285714286,4,2,3,65,0,0
460952,-50,4,2,3,65,0,0
465816,-40,4,2,3,65,0,0
466627,-28.5714285714286,4,2,3,65,0,0
467438,-50,4,2,3,65,0,0
472303,-40,4,2,3,65,0,0
473114,-28.5714285714286,4,2,3,65,0,0
473925,-50,4,2,3,65,0,0
478789,-40,4,2,3,65,0,0
479600,-28.5714285714286,4,2,3,65,0,0
480411,-50,4,2,3,65,0,0
481931,-100,4,2,3,65,0,0
483654,-50,4,2,3,65,0,0
509600,-66.6666666666667,4,2,3,65,0,0
523384,-80,4,2,3,65,0,0
524195,-100,4,2,3,65,0,0
528545,264.31718061674,4,2,3,65,1,0
549001,261.244394130709,4,2,3,65,1,0
549001,-125,4,2,3,65,0,0
564675,-200,4,2,3,65,0,0
565198,-200,4,2,3,25,0,0
565720,-200,4,2,3,65,0,0
566765,-125,4,2,3,65,0,0
581395,-200,4,2,3,65,0,0
581917,-200,4,2,3,25,0,0
582440,-200,4,2,3,65,0,0
583485,-153.846153846154,4,2,3,65,0,0
600204,-125,4,2,3,65,0,0
640959,-166.666666666667,4,2,3,65,0,0
642004,-111.111111111111,4,2,3,65,0,0
656633,-142.857142857143,4,2,3,65,0,0
658723,-200,4,2,3,65,0,0
662642,-200,4,2,3,35,0,0
662903,-200,4,2,3,65,0,0
666560,-200,4,2,3,35,0,0
667083,-200,4,2,3,65,0,0
675443,-125,4,2,3,65,0,0
698432,-100,4,2,3,65,0,0
705582,317.460317460317,4,2,3,65,1,0
721931,-100,4,2,3,30,0,0
727208,-100,4,2,3,5,0,0
728284,315.789473684211,4,2,3,65,1,0
728284,-62.5,4,2,3,65,0,0
758599,-133.333333333333,4,2,3,20,0,0
759862,-133.333333333333,4,2,3,50,0,0
775020,-133.333333333333,4,2,3,20,0,0
776283,-133.333333333333,4,2,3,50,0,0
791441,-133.333333333333,4,2,3,20,0,0
792705,-62.5,4,2,3,65,0,0
820494,-62.5,4,2,3,20,0,0
823097,351.535036325287,4,2,3,65,1,0
868093,-133.333333333333,4,2,3,65,0,0
889185,-200,4,2,3,55,0,0
890591,-100,4,2,3,45,0,0
1000270,-200,4,2,3,65,0,0
1002028,-200,4,2,3,5,0,0
1004800,250,4,3,3,65,1,0
1020800,-83.3333333333333,4,3,3,65,0,0
1100800,-100,4,3,3,65,0,0
1116800,-83.3333333333333,4,3,3,65,0,0
1148800,-200,4,2,3,55,0,0
1158800,-133.333333333333,4,3,3,65,0,0

[Colours]
Combo1 : 255,148,40
Combo2 : 0,0,255
Combo3 : 0,244,0
Combo4 : 196,0,196
Combo5 : 255,23,23
Combo6 : 230,230,0
Combo7 : 0,255,255

[HitObjects]
154,183,412303,5,2,0:2:0:0:
305,168,412506,1,0,0:0:0:0:
220,46,412709,1,2,0:2:0:0:
424,73,412912,1,0,0:0:0:0:
428,112,413013,1,0,0:0:0:0:
432,151,413114,1,2,0:2:0:0:
437,190,413216,1,0,0:0:0:0:
441,229,413317,1,0,0:0:0:0:
236,188,413520,2,0,P|220:138|227:86,1,105,2|0,0:2|0:0,0:0:0:0:
353,263,413925,5,2,0:2:0:0:
159,309,414128,1,0,0:0:0:0:
226,42,414330,1,2,0:2:0:0:
269,266,414533,1,0,0:0:0:0:
231,277,414635,1,0,0:0:0:0:
192,278,414736,1,2,0:2:0:0:
154,268,414837,1,0,0:0:0:0:
121,247,414939,1,0,0:0:0:0:
240,121,415141,1,2,0:2:0:0:
290,135,415243,1,0,0:0:0:0:
342,134,415344,1,0,0:0:0:0:
392,117,415445,1,0,0:0:0:0:
434,87,415547,6,0,L|446:203,1,105,2|0,0:2|0:0,0:0:0:0:
241,327,415952,1,2,0:2:0:0:
135,92,416155,1,0,0:0:0:0:
123,129,416256,1,0,0:0:0:0:
119,168,416358,1,2,0:2:0:0:
122,208,416459,1,0,0:0:0:0:
131,246,416560,1,0,0:0:0:0:
243,72,416763,2,0,L|366:58,1,105,2|0,0:2|0:0,0:0:0:0:
431,310,417168,5,2,0:2:0:0:
253,227,417371,1,0,0:0:0:0:
456,198,417574,1,2,0:2:0:0:
208,348,417776,1,0,0:0:0:0:
168,342,417878,1,0,0:0:0:0:
129,337,417979,1,2,0:2:0:0:
90,332,418080,1,0,0:0:0:0:
51,327,418182,1,0,0:0:0:0:
49,110,418385,6,0,L|52:78,2,26.25,2|2|2,0:2|0:0|0:0,0:0:0:0:
103,169,418587,1,2,0:2:0:0:
200,130,418689,1,2,0:0:0:0:
306,195,418790,6,0,P|364:189|416:135,1,136.499993751526,4|0,0:3|0:0,0:0:0:0:
200,179,419196,2,0,P|142:185|90:239,1,136.499993751526,8|0,0:2|0:0,0:0:0:0:
235,353,419601,2,0,L|376:341,1,136.499993751526,4|0,0:3|0:0,0:0:0:0:
353,253,419905,1,0,0:0:0:0:
353,253,420006,2,0,L|280:259,2,68.2499968757631,8|0|0,0:2|0:0|0:0,0:0:0:0:
140,55,420412,5,4,0:3:0:0:
56,244,420614,2,0,L|64:316,1,68.2499968757631,0|0,0:0|0:0,0:0:0:0:
152,260,420817,2,0,P|208:288|296:272,1,136.499993751526,8|0,0:2|0:0,0:0:0:0:
312,56,421223,2,0,L|168:64,1,136.499993751526,4|0,0:3|0:0,0:0:0:0:
256,152,421527,1,0,0:0:0:0:
260,156,421627,2,0,P|272:200|272:236,1,68.2499968757631,8|0,0:2|0:0,0:0:0:0:
208,328,421831,1,0,0:0:0:0:
132,372,421931,1,0,0:0:0:0:
44,368,422034,6,0,P|23:307|48:235,1,136.499993751526,4|0,0:3|0:0,0:0:0:0:
259,89,422438,2,0,P|322:109|386:88,1,136.499993751526,8|0,0:2|0:0,0:0:0:0:
468,247,422845,2,0,B|422:302|422:302|389:304|359:318,1,136.499993751526,4|0,0:3|0:0,0:0:0:0:
270,309,423149,1,0,0:0:0:0:
187,339,423250,2,0,L|113:335,2,68.2499968757631,8|0|0,0:2|0:0|0:0,0:0:0:0:
250,172,423654,5,4,0:3:0:0:
103,72,423857,2,0,L|27:76,1,68.2499968757631,0|0,0:0|0:0,0:0:0:0:
90,155,424060,2,0,B|140:152|140:152|166:123|166:123|214:120,1,136.499993751526,8|0,0:2|0:0,0:0:0:0:
449,143,424465,2,0,P|452:218|403:263,1,136.499993751526,4|0,0:3|0:0,0:0:0:0:
324,243,424769,1,0,0:0:0:0:
251,294,424871,2,0,P|196:295|172:279,1,68.2499968757631,8|0,0:2|0:0,0:0:0:0:
120,176,425073,1,0,0:0:0:0:
130,87,425176,1,0,0:0:0:0:
205,41,425276,6,0,L|366:32,1,136.499993751526,4|0,0:3|0:0,0:0:0:0:
442,196,425681,2,0,L|305:188,1,136.499993751526,8|0,0:2|0:0,0:0:0:0:
46,127,426088,2,0,P|36:203|72:244,1,136.499993751526,4|0,0:3|0:0,0:0:0:0:
155,279,426391,1,0,0:0:0:0:
239,251,426492,2,0,L|245:159,2,68.2499968757631,8|0|0,0:2|0:0|0:0,0:0:0:0:
409,304,426898,5,4,0:3:0:0:
351,136,427100,2,0,P|344:102|348:69,1,68.2499968757631,0|0,0:0|0:0,0:0:0:0:
433,98,427303,2,0,L|296:103,1,136.499993751526,8|0,0:2|0:0,0:0:0:0:
122,69,427708,2,0,P|106:128|136:203,1,136.499993751526,4|0,0:3|0:0,0:0:0:0:
212,232,428012,1,0,0:0:0:0:
285,282,428114,2,0,L|288:358,1,68.2499968757631,8|0,0:2|0:0,0:0:0:0:
164,372,428316,1,0,0:0:0:0:
77,350,428418,1,0,0:0:0:0:
35,271,428519,6,0,L|51:114,1,136.499993751526,4|0,0:3|0:0,0:0:0:0:
292,70,428925,2,0,L|276:227,1,136.499993751526,8|0,0:2|0:0,0:0:0:0:
440,353,429330,2,0,P|456:277|435:214,1,136.499993751526,4|0,0:3|0:0,0:0:0:0:
343,288,429634,1,0,0:0:0:0:
339,291,429735,2,0,P|306:301|272:299,2,68.2499968757631,8|0|0,0:2|0:0|0:0,0:0:0:0:
169,62,430141,5,4,0:3:0:0:
65,222,430343,2,0,L|76:294,1,68.2499968757631,0|0,0:0|0:0,0:0:0:0:
170,318,430546,2,0,P|231:292|292:318,1,136.499993751526,8|0,0:2|0:0,0:0:0:0:
451,236,430952,2,0,L|427:77,1,136.499993751526,4|0,0:3|0:0,0:0:0:0:
357,49,431256,1,0,0:0:0:0:
319,127,431357,6,0,L|315:170,2,34.1249984378815,8|2|2,0:2|0:0|0:0,0:0:0:0:
242,59,431560,1,2,0:0:0:0:
146,108,431661,1,2,0:0:0:0:
24,46,431763,6,0,P|-2:134|33:237,1,178.500003404617,4|0,0:3|0:0,0:0:0:0:
107,292,432067,1,0,0:0:0:0:
211,240,432169,2,0,P|296:219|382:240,1,178.500003404617,8|0,0:2|0:0,0:0:0:0:
232,326,432473,2,0,P|211:240|236:156,1,178.500003404617,2|0,0:2|0:0,0:0:0:0:
340,102,432776,1,0,0:0:0:0:
453,121,432878,1,0,0:0:0:0:
336,98,432979,2,0,L|158:113,1,178.500003404617,8|0,0:2|0:0,0:0:0:0:
138,337,433385,5,4,0:3:0:0:
435,192,433587,1,0,0:0:0:0:
138,47,433790,1,8,0:2:0:0:
182,154,433891,1,0,0:0:0:0:
67,138,433993,1,0,0:0:0:0:
137,47,434094,2,0,P|225:47|288:110,1,178.500003404617,2|0,0:0|0:0,0:0:0:0:
300,225,434398,1,0,0:0:0:0:
75,357,434601,2,0,L|87:178,1,178.500003404617,8|0,0:2|0:0,0:0:0:0:
324,356,435006,6,0,P|370:337|401:309,1,89.2500017023087,4|0,0:3|0:0,0:0:0:0:
424,196,435209,1,0,0:0:0:0:
380,88,435310,1,0,0:0:0:0:
273,43,435412,1,8,0:2:0:0:
57,131,435614,1,0,0:0:0:0:
154,193,435716,2,0,L|172:372,1,178.500003404617,2|0,0:0|0:0,0:0:0:0:
264,299,436020,2,0,L|255:199,1,89.2500017023087,0|0,0:0|0:0,0:0:0:0:
136,191,436223,2,0,L|154:370,1,178.500003404617,8|0,0:2|0:0,0:0:0:0:
372,245,436526,5,0,0:0:0:0:
372,245,436577,1,0,0:0:0:0:
372,245,436628,2,0,P|341:161|350:73,1,178.500003404617,4|0,0:3|0:0,0:0:0:0:
460,32,436932,1,0,0:0:0:0:
506,138,437033,2,0,L|329:163,1,178.500003404617,8|0,0:2|0:0,0:0:0:0:
6,246,437439,2,0,L|183:221,1,178.500003404617,4|0,0:3|0:0,0:0:0:0:
396,344,437844,2,0,L|204:326,1,178.500003404617,8|0,0:2|0:0,0:0:0:0:
30,63,438250,6,0,P|116:88|208:69,1,178.500003404617,4|0,0:3|0:0,0:0:0:0:
308,25,438553,1,0,0:0:0:0:
411,76,438655,2,0,L|425:266,1,178.500003404617,8|0,0:2|0:0,0:0:0:0:
500,342,438959,2,0,L|310:356,1,178.500003404617,2|0,0:0|0:0,0:0:0:0:
215,307,439263,1,0,0:0:0:0:
114,367,439364,1,0,0:0:0:0:
217,301,439466,2,0,P|222:203|151:136,1,178.500003404617,8|0,0:2|0:0,0:0:0:0:
340,40,439871,5,4,0:3:0:0:
345,340,440074,1,0,0:0:0:0:
111,201,440276,1,8,0:2:0:0:
220,165,440378,1,0,0:0:0:0:
250,277,440479,1,0,0:0:0:0:
141,312,440581,2,0,P|53:304|0:234,1,178.500003404617,2|0,0:0|0:0,0:0:0:0:
1,119,440885,1,0,0:0:0:0:
213,25,441087,2,0,L|395:41,1,178.500003404617,8|0,0:2|0:0,0:0:0:0:
472,256,441493,6,0,P|480:316|472:351,1,89.2500017023087,4|0,0:3|0:0,0:0:0:0:
312,344,441695,1,0,0:0:0:0:
288,228,441797,1,0,0:0:0:0:
264,112,441898,1,8,0:2:0:0:
122,291,442101,1,0,0:0:0:0:
223,232,442202,2,0,P|310:246|398:234,1,178.500003404617,2|0,0:0|0:0,0:0:0:0:
359,94,442506,2,0,P|314:87|272:93,1,89.2500017023087,0|0,0:0|0:0,0:0:0:0:
219,254,442709,2,0,P|306:268|394:256,1,178.500003404617,8|0,0:2|0:0,0:0:0:0:
136,157,443013,5,0,0:0:0:0:
136,157,443064,1,0,0:0:0:0:
136,157,443114,2,0,P|140:114|158:173,1,178.500003404617,4|0,0:3|0:0,0:0:0:0:
112,270,443418,1,0,0:0:0:0:
37,171,443520,2,0,P|47:86|122:8,1,178.500003404617,8|0,0:2|0:0,0:0:0:0:
406,17,443925,2,0,P|464:83|475:171,1,178.500003404617,4|0,0:3|0:0,0:0:0:0:
256,319,444331,6,0,L|256:366,2,44.6250008511543,2|2|2,0:0|0:0|0:0,0:0:0:0:
211,239,444533,1,2,0:0:0:0:
318,169,444635,1,2,0:0:0:0:
184,108,444736,5,4,0:3:0:0:
80,321,444939,1,2,0:0:0:0:
80,321,445040,1,2,0:0:0:0:
79,320,445141,2,0,L|256:344,1,178.500003404617,8|2,0:2|0:0,0:0:0:0:
371,323,445445,1,2,0:0:0:0:
389,91,445648,1,2,0:0:0:0:
282,45,445749,1,2,0:0:0:0:
169,73,445851,1,2,0:0:0:0:
109,173,445952,1,8,0:2:0:0:
403,173,446155,1,2,0:0:0:0:
206,296,446358,6,0,B|117:301|117:301|45:239,1,178.500003404617,4|2,0:3|0:0,0:0:0:0:
215,80,446763,1,10,0:2:0:0:
320,130,446864,1,2,0:0:0:0:
225,196,446966,1,2,0:0:0:0:
330,246,447067,1,2,0:0:0:0:
312,15,447270,1,2,0:0:0:0:
312,15,447371,1,2,0:0:0:0:
159,188,447574,2,0,P|131:122|167:20,1,178.500003404617,8|2,0:2|0:0,0:0:0:0:
381,106,447979,6,0,L|480:93,1,89.2500017023087,4|0,0:3|0:0,0:0:0:0:
281,54,448182,1,2,0:0:0:0:
294,169,448283,1,2,0:0:0:0:
307,283,448385,1,10,0:2:0:0:
78,326,448587,1,2,0:0:0:0:
94,211,448689,2,0,B|111:124|111:124|162:114|185:76,1,178.500003404617,2|2,0:0|0:0,0:0:0:0:
90,7,448993,1,2,0:0:0:0:
231,290,449196,2,0,L|422:299,1,178.500003404617,8|0,0:2|0:0,0:0:0:0:
453,108,449499,5,2,0:0:0:0:
453,108,449550,1,0,0:0:0:0:
453,108,449601,2,0,B|453:18|453:18|421:100,1,178.500003404617,4|2,0:3|0:0,0:0:0:0:
325,166,449905,1,2,0:0:0:0:
209,147,450006,2,0,P|248:73|336:47,1,178.500003404617,10|2,0:2|0:0,0:0:0:0:
303,237,450412,2,0,P|264:311|176:337,1,178.500003404617,4|2,0:3|0:0,0:0:0:0:
45,145,450817,2,0,L|235:99,1,178.500003404617,10|0,0:2|0:0,0:0:0:0:
452,332,451223,6,0,P|400:290|293:325,1,178.500003404617,4|2,0:3|0:0,0:0:0:0:
60,302,451526,1,2,0:0:0:0:
60,302,451628,2,0,P|112:344|219:309,1,178.500003404617,10|0,0:2|0:0,0:0:0:0:
255,208,451932,1,2,0:0:0:0:
146,2,452135,1,2,0:0:0:0:
197,105,452236,1,2,0:0:0:0:
315,105,452337,1,2,0:0:0:0:
366,2,452439,1,10,0:2:0:0:
255,208,452641,1,2,0:0:0:0:
92,43,452844,5,4,0:3:0:0:
420,43,453047,1,2,0:0:0:0:
168,320,453249,1,10,0:2:0:0:
168,232,453351,1,2,0:0:0:0:
256,232,453452,1,2,0:0:0:0:
256,320,453554,2,0,L|256:128,1,178.500003404617,2|2,0:0|0:0,0:0:0:0:
256,59,453857,1,2,0:0:0:0:
447,334,454060,2,0,P|469:256|422:170,1,178.500003404617,8|2,0:2|0:0,0:0:0:0:
155,329,454466,5,4,0:3:0:0:
70,301,454567,1,2,0:0:0:0:
70,212,454668,1,2,0:0:0:0:
155,184,454770,1,2,0:0:0:0:
207,256,454871,1,10,0:2:0:0:
352,340,455276,5,4,0:3:0:0:
452,308,455378,1,2,0:0:0:0:
452,203,455479,1,2,0:0:0:0:
352,171,455580,1,2,0:0:0:0:
291,255,455682,1,10,0:2:0:0:
160,332,456087,5,4,0:3:0:0:
58,298,456189,1,2,0:0:0:0:
58,192,456290,1,2,0:0:0:0:
160,158,456391,1,2,0:0:0:0:
222,245,456493,1,10,0:2:0:0:
376,40,456695,5,2,0:0:0:0:
256,88,456797,1,2,0:0:0:0:
136,40,456898,1,6,0:3:0:0:
326,192,457303,5,2,0:2:0:0:
198,233,457405,1,2,0:2:0:0:
277,124,457506,1,2,0:2:0:0:
277,258,457607,1,2,0:2:0:0:
197,151,457708,6,0,P|99:128|36:205,1,210,4|0,0:2|0:0,0:0:0:0:
315,233,458114,2,0,P|412:255|475:178,1,210,8|0,0:2|0:0,0:0:0:0:
256,121,458418,2,0,L|256:331,1,210,2|0,0:0|0:0,0:0:0:0:
392,364,458722,1,0,0:0:0:0:
120,364,458925,1,8,0:0:0:0:
392,364,459127,1,0,0:0:0:0:
135,47,459330,6,0,P|100:206|256:157,1,393.75,4|0,0:3|0:0,0:0:0:0:
376,47,459735,6,0,P|411:206|255:157,1,393.75,8|0,0:0|0:0,0:0:0:0:
165,137,460141,6,0,P|169:337|256:157,1,551.25000525713,4|0,0:3|0:0,0:0:0:0:
346,137,460546,6,0,P|341:338|256:157,1,551.25000525713,8|0,0:0|0:0,0:0:0:0:
152,259,460952,5,4,0:3:0:0:
362,259,461154,1,0,0:0:0:0:
152,259,461357,2,0,L|362:259,1,210,8|0,0:0|0:0,0:0:0:0:
360,125,461762,5,4,0:3:0:0:
150,125,461964,1,0,0:0:0:0:
360,125,462168,2,0,L|150:125,1,210,8|0,0:0|0:0,0:0:0:0:
334,334,462573,5,4,0:3:0:0:
427,299,462674,1,0,0:0:0:0:
351,235,462775,1,0,0:0:0:0:
185,342,462979,5,8,0:0:0:0:
73,300,463080,1,0,0:0:0:0:
164,224,463181,1,0,0:0:0:0:
331,95,463384,6,0,B|301:91|299:63|299:63|281:71|281:71|274:65|274:65|259:70|255:52|255:52|251:70|237:65|237:65|234:72|234:72|211:63|211:63|209:91|182:94,1,210,4|0,0:3|0:0,0:0:0:0:
326,192,463789,5,2,0:2:0:0:
198,233,463890,1,0,0:0:0:0:
277,124,463992,1,2,0:2:0:0:
277,258,464093,1,2,0:2:0:0:
192,143,464195,6,0,B|138:108|92:130|92:130|88:183|150:210,1,210,4|0,0:2|0:0,0:0:0:0:
320,143,464600,2,0,B|373:108|420:130|420:130|424:183|363:209,1,210,8|0,0:2|0:0,0:0:0:0:
256,256,464904,2,0,L|256:36,1,210,2|0,0:0|0:0,0:0:0:0:
392,20,465208,1,0,0:0:0:0:
120,20,465411,1,8,0:0:0:0:
392,20,465613,1,0,0:0:0:0:
112,267,465816,6,0,B|375:304|375:304|438:188,1,393.75,4|0,0:3|0:0,0:0:0:0:
400,117,466222,6,0,B|137:80|137:80|74:196,1,393.75,8|0,0:0|0:0,0:0:0:0:
73,332,466627,6,0,B|442:309|442:309|414:213|486:144,1,551.25000525713,4|0,0:3|0:0,0:0:0:0:
439,52,467033,6,0,B|70:75|70:75|98:171|25:239,1,551.25000525713,8|0,0:0|0:0,0:0:0:0:
155,332,467438,6,0,P|252:295|354:314,1,210,4|0,0:3|0:0,0:0:0:0:
257,384,467742,1,0,0:0:0:0:
256,383,467843,2,0,P|219:287|256:191,1,210,8|0,0:0|0:0,0:0:0:0:
252,0,468249,6,0,P|290:96|255:193,1,210,4|0,0:3|0:0,0:0:0:0:
188,94,468552,1,0,0:0:0:0:
188,94,468654,2,0,P|318:61|409:119,1,210,8|0,0:2|0:0,0:0:0:0:
123,149,469059,5,4,0:3:0:0:
256,317,469262,1,0,0:0:0:0:
256,192,469363,1,0,0:0:0:0:
256,66,469465,1,8,0:2:0:0:
389,235,469668,5,4,0:3:0:0:
141,219,469870,2,0,L|367:162,1,210,4|0,0:3|0:0,0:0:0:0:
186,192,470276,5,2,0:2:0:0:
314,233,470378,1,2,0:2:0:0:
235,124,470479,1,2,0:2:0:0:
235,258,470580,1,2,0:2:0:0:
310,154,470682,6,0,B|366:139|391:92|391:92|334:87|289:110,1,210,4|0,0:2|0:0,0:0:0:0:
207,241,471087,2,0,B|191:297|220:342|220:342|252:295|255:245,1,210,8|0,0:2|0:0,0:0:0:0:
189,96,471391,2,0,B|148:53|94:56|94:56|119:107|161:135,1,210,2|0,0:0|0:0,0:0:0:0:
233,166,471695,1,0,0:0:0:0:
418,290,471898,1,8,0:2:0:0:
418,94,472100,1,0,0:0:0:0:
172,61,472303,6,0,B|54:121|54:121|185:201|168:338,1,393.75,4|0,0:3|0:0,0:0:0:0:
343,338,472708,6,0,B|326:201|457:121|457:121|339:61,1,393.75,8|0,0:0|0:0,0:0:0:0:
172,61,473114,6,0,B|43:104|3:252|77:361|77:361|161:314|256:343,1,551.25000525713,4|0,0:3|0:0,0:0:0:0:
340,61,473519,6,0,B|468:104|508:252|435:361|435:361|351:314|256:343,1,551.25000525713,8|0,0:0|0:0,0:0:0:0:
256,90,473925,5,4,0:3:0:0:
256,293,474128,1,0,0:0:0:0:
360,192,474331,2,0,L|150:192,1,210,8|0,0:2|0:0,0:0:0:0:
256,90,474736,5,4,0:3:0:0:
256,293,474939,1,0,0:0:0:0:
150,192,475141,2,0,L|360:192,1,210,8|0,0:2|0:0,0:0:0:0:
167,93,475546,5,4,0:3:0:0:
74,128,475647,1,0,0:0:0:0:
150,192,475748,1,0,0:0:0:0:
340,74,475952,5,8,0:0:0:0:
451,116,476053,1,0,0:0:0:0:
360,192,476154,1,0,0:0:0:0:
178,62,476357,6,0,B|191:42|206:47|206:47|209:28|209:28|225:19|238:33|238:33|256:45|256:45|272:33|272:33|285:19|302:28|302:28|304:47|304:47|319:42|333:62,1,210,4|0,0:3|0:0,0:0:0:0:
186,192,476762,5,2,0:2:0:0:
314,151,476863,1,0,0:0:0:0:
235,260,476965,1,2,0:2:0:0:
235,126,477066,1,2,0:2:0:0:
316,235,477168,6,0,B|418:263|418:263|308:260,1,210,4|0,0:2|0:0,0:0:0:0:
196,235,477574,2,0,B|94:263|94:263|204:260,1,210,8|0,0:2|0:0,0:0:0:0:
332,128,477877,2,0,P|248:68|180:128,1,210,2|0,0:0|0:0,0:0:0:0:
256,148,478181,1,0,0:0:0:0:
394,334,478384,1,8,0:0:0:0:
118,334,478587,1,0,0:0:0:0:
459,36,478789,6,0,B|492:297|492:297|444:168,1,393.75,4|0,0:3|0:0,0:0:0:0:
346,82,479195,6,0,B|313:343|313:343|361:214,1,393.75,8|0,0:0|0:0,0:0:0:0:
187,7,479600,6,0,B|233:371|233:371|165:197,1,551.25000525713,4|0,0:3|0:0,0:0:0:0:
60,29,480006,6,0,B|14:393|14:393|81:219,1,551.25000525713,8|0,0:0|0:0,0:0:0:0:
414,282,480411,6,0,L|164:324,1,210,4|0,0:3|0:0,0:0:0:0:
98,102,480816,2,0,L|348:60,1,210,8|0,0:0|0:0,0:0:0:0:
412,354,481222,6,0,L|206:316,1,210,4|0,0:3|0:0,0:0:0:0:
99,29,481627,2,0,L|306:68,1,210,8|0,0:2|0:0,0:0:0:0:
256,192,481931,6,0,L|209:192,2,26.25,0|0|0,0:0|0:0|0:3,0:0:0:0:
327,124,483654,5,2,0:2:0:0:
327,124,483756,2,0,L|103:136,1,210
27,141,484060,1,2,0:0:0:0:
440,28,484262,1,0,0:0:0:0:
440,28,484364,2,0,L|428:252,1,210,2|0,0:2|0:0,0:0:0:0:
420,344,484669,1,2,0:2:0:0:
84,106,484871,1,2,0:0:0:0:
428,106,485073,1,2,0:0:0:0:
180,352,485276,5,2,0:2:0:0:
416,268,485479,1,0,0:0:0:0:
332,32,485682,1,2,0:2:0:0:
96,116,485885,1,0,0:0:0:0:
96,116,485986,2,0,P|130:63|74:110,1,210,2|0,0:0|0:0,0:0:0:0:
50,196,486290,1,0,0:0:0:0:
257,206,486493,2,0,P|341:166|437:246,1,210,2|0,0:2|0:0,0:0:0:0:
112,348,486898,5,2,0:2:0:0:
124,232,487101,1,0,0:0:0:0:
124,232,487202,1,2,0:0:0:0:
216,288,487405,1,0,0:0:0:0:
216,288,487506,1,2,0:0:0:0:
192,112,487709,2,0,L|436:96,1,210,2|0,0:2|0:0,0:0:0:0:
392,308,488114,5,2,0:2:0:0:
120,308,488317,1,0,0:0:0:0:
256,24,488520,2,0,L|256:244,1,210,2|0,0:2|0:0,0:0:0:0:
361,331,488824,2,0,L|151:331,1,210,2|0,0:0|0:0,0:0:0:0:
51,294,489128,1,2,0:0:0:0:
30,84,489331,2,0,P|107:105|195:8,1,210,2|0,0:2|0:0,0:0:0:0:
401,52,489736,1,2,0:2:0:0:
465,252,489939,1,0,0:0:0:0:
256,362,490141,5,2,0:2:0:0:
256,152,490344,1,0,0:0:0:0:
68,248,490547,2,0,P|39:151|95:65,1,210,2|0,0:2|0:0,0:0:0:0:
200,48,490851,2,0,B|355:77|355:77|412:72,1,210,2|0,0:0|0:0,0:0:0:0:
512,56,491155,1,2,0:0:0:0:
432,364,491357,1,2,0:2:0:0:
80,364,491560,1,0,0:0:0:0:
256,96,491763,6,0,B|358:73|358:73|368:123|407:165,1,210,2|0,0:2|0:0,0:0:0:0:
256,288,492168,2,0,B|153:310|153:310|143:260|104:218,1,210,2|0,0:2|0:0,0:0:0:0:
0,224,492473,2,0,L|40:0,1,210,2|0,0:0|0:0,0:0:0:0:
144,0,492777,1,2,0:0:0:0:
392,180,492980,1,2,0:2:0:0:
120,204,493182,1,0,0:0:0:0:
480,224,493385,6,0,P|472:128|356:88,1,210,2|0,0:2|0:0,0:0:0:0:
293,98,493689,2,0,P|388:59|480:104,1,210,2|0,0:0|0:0,0:0:0:0:
384,188,493993,1,2,0:0:0:0:
212,308,494196,2,0,B|108:300|108:300|28:224,1,210,2|0,0:2|0:0,0:0:0:0:
404,44,494601,1,2,0:2:0:0:
108,44,494803,1,0,0:0:0:0:
300,308,495006,6,0,B|404:300|404:300|484:224,1,210,2|0,0:2|0:0,0:0:0:0:
496,124,495310,1,2,0:0:0:0:
312,24,495513,1,0,0:0:0:0:
312,24,495614,1,2,0:0:0:0:
204,232,495817,2,0,P|268:304|308:232,1,210,2|0,0:2|0:0,0:0:0:0:
140,52,496222,1,2,0:2:0:0:
76,252,496425,1,0,0:0:0:0:
380,328,496628,5,2,0:2:0:0:
380,328,496729,2,0,L|396:96,1,210
321,42,497033,1,2,0:2:0:0:
158,173,497236,1,0,0:0:0:0:
86,93,497337,2,0,P|183:68|258:136,1,210,2|0,0:0|0:0,0:0:0:0:
273,243,497641,1,2,0:0:0:0:
63,301,497844,2,0,L|86:93,1,210,2|0,0:2|0:0,0:0:0:0:
383,34,498249,5,2,0:2:0:0:
383,350,498452,1,0,0:0:0:0:
383,34,498655,1,2,0:2:0:0:
256,192,498857,1,0,0:0:0:0:
256,192,498959,2,0,P|222:81|120:59,1,210,2|0,0:0|0:0,0:0:0:0:
44,67,499263,1,2,0:0:0:0:
30,234,499466,2,0,B|44:338|44:338|116:259,1,210,2|0,0:2|0:0,0:0:0:0:
324,282,499871,5,2,0:2:0:0:
188,102,500074,1,0,0:0:0:0:
188,102,500175,1,2,0:0:0:0:
346,124,500378,1,0,0:0:0:0:
346,124,500479,1,2,0:0:0:0:
166,260,500682,2,0,P|111:228|156:296,1,210,2|0,0:2|0:0,0:0:0:0:
346,260,501088,2,0,P|401:228|356:296,1,210,2|0,0:2|0:0,0:0:0:0:
238,155,501493,6,0,P|308:91|435:83,1,210,2|0,0:2|0:0,0:0:0:0:
503,138,501797,1,2,0:0:0:0:
471,345,502000,1,0,0:0:0:0:
471,345,502101,1,2,0:0:0:0:
274,270,502304,2,0,L|45:252,1,210,2|0,0:2|0:0,0:0:0:0:
238,114,502709,2,0,L|467:132,1,210,2|0,0:2|0:0,0:0:0:0:
377,329,503115,5,2,0:2:0:0:
256,32,503317,1,0,0:0:0:0:
135,329,503520,1,2,0:2:0:0:
392,92,503722,1,0,0:0:0:0:
392,92,503824,1,2,0:0:0:0:
120,92,504026,1,0,0:0:0:0:
120,92,504128,1,2,0:0:0:0:
256,280,504331,2,0,L|256:48,1,210,2|0,0:2|0:0,0:0:0:0:
102,308,504736,5,2,0:2:0:0:
410,76,504939,1,0,0:0:0:0:
158,118,505141,1,2,0:2:0:0:
353,265,505344,1,0,0:0:0:0:
353,265,505446,2,0,P|367:184|320:242,1,210,2|2,0:0|0:0,0:0:0:0:
280,324,505749,1,2,0:0:0:0:
105,294,505952,2,0,P|86:202|146:71,1,210,2|0,0:2|0:0,0:0:0:0:
379,42,506357,5,2,0:2:0:0:
406,315,506560,1,0,0:0:0:0:
406,315,506662,1,2,0:0:0:0:
133,342,506864,1,0,0:0:0:0:
133,342,506966,1,2,0:0:0:0:
106,69,507169,2,0,P|184:99|312:53,1,210,2|0,0:2|0:0,0:0:0:0:
476,192,507574,1,2,0:2:0:0:
344,352,507776,1,0,0:0:0:0:
256,192,507979,5,2,0:2:0:0:
162,108,509601,5,4,0:3:0:0:
368,70,509803,1,0,0:0:0:0:
387,172,509905,1,0,0:0:0:0:
407,275,510006,1,8,0:2:0:0:
144,314,510209,1,0,0:0:0:0:
125,212,510310,1,0,0:0:0:0:
225,239,510412,2,0,P|218:162|162:110,1,157.500006008148,4|0,0:3|0:0,0:0:0:0:
125,212,510716,1,2,0:0:0:0:
311,114,510918,1,0,0:0:0:0:
311,114,511020,1,2,0:0:0:0:
375,314,511222,5,4,0:3:0:0:
137,314,511425,1,0,0:0:0:0:
400,192,511628,5,8,0:2:0:0:
115,192,511830,1,0,0:0:0:0:
422,70,512033,5,4,0:3:0:0:
89,70,512236,1,0,0:0:0:0:
89,70,512337,1,0,0:0:0:0:
89,70,512439,2,0,L|12:24,2,78.7500030040742,8|0|0,0:2|0:0|0:0,0:0:0:0:
388,307,512844,6,0,P|312:328|237:309,1,157.500006008148,4|0,0:3|0:0,0:0:0:0:
311,178,513148,1,0,0:0:0:0:
311,178,513250,2,0,P|366:232|387:307,1,157.500006008148,8|0,0:2|0:0,0:0:0:0:
237,309,513553,1,0,0:0:0:0:
237,309,513655,2,0,P|256:233|310:177,1,157.500006008148,4|0,0:3|0:0,0:0:0:0:
408,140,513959,1,2,0:0:0:0:
256,0,514162,1,0,0:0:0:0:
256,0,514263,1,2,0:0:0:0:
104,140,514466,5,4,0:3:0:0:
204,344,514668,1,0,0:0:0:0:
408,244,514871,1,8,0:2:0:0:
308,40,515074,1,0,0:0:0:0:
72,240,515276,5,4,0:3:0:0:
440,144,515479,1,0,0:0:0:0:
440,144,515580,1,0,0:0:0:0:
440,144,515682,2,0,L|448:60,1,78.7500030040742,8|0,0:2|0:0,0:0:0:0:
348,136,515885,2,0,L|336:32,1,78.7500030040742,0|0,0:0|0:0,0:0:0:0:
208,156,516087,5,4,0:3:0:0:
128,344,516290,1,0,0:0:0:0:
232,332,516391,1,0,0:0:0:0:
332,324,516493,1,8,0:2:0:0:
444,152,516695,1,0,0:0:0:0:
356,100,516797,1,0,0:0:0:0:
358,203,516898,6,0,P|295:186|250:103,1,157.500006008148,4|0,0:3|0:0,0:0:0:0:
237,7,517202,1,2,0:0:0:0:
88,146,517405,1,0,0:0:0:0:
88,146,517506,1,2,0:0:0:0:
214,306,517709,5,4,0:3:0:0:
298,78,517912,1,0,0:0:0:0:
142,150,518114,1,8,0:2:0:0:
370,234,518317,1,0,0:0:0:0:
207,27,518520,5,4,0:3:0:0:
305,357,518722,1,0,0:0:0:0:
305,357,518824,1,0,0:0:0:0:
305,357,518925,2,0,P|364:368|396:360,1,78.7500030040742,8|0,0:2|0:0,0:0:0:0:
414,247,519128,2,0,P|473:237|500:218,1,78.7500030040742
376,85,519331,6,0,L|209:73,1,157.500006008148,4|0,0:3|0:0,0:0:0:0:
184,196,519635,1,0,0:0:0:0:
184,196,519736,2,0,L|351:208,1,157.500006008148,8|0,0:2|0:0,0:0:0:0:
372,331,520040,1,0,0:0:0:0:
372,331,520141,2,0,L|214:319,1,157.500006008148,4|0,0:3|0:0,0:0:0:0:
111,311,520445,1,2,0:0:0:0:
71,74,520648,1,0,0:0:0:0:
71,74,520749,1,2,0:0:0:0:
269,126,520952,5,4,0:3:0:0:
167,337,521155,1,0,0:0:0:0:
426,196,521357,1,8,0:2:0:0:
174,42,521560,1,0,0:0:0:0:
337,341,521763,1,4,0:3:0:0:
82,102,521966,1,0,0:0:0:0:
82,102,522067,1,0,0:0:0:0:
82,102,522168,2,0,L|193:91,1,78.7500030040742,8|0,0:2|0:0,0:0:0:0:
351,94,522371,2,0,L|430:102,1,78.7500030040742,0|0,0:0|0:0,0:0:0:0:
476,316,522574,6,0,B|376:352|264:284|248:163|248:163|235:250|173:296,1,472.500018024445,2|0,0:2|0:0,0:0:0:0:
87,110,523385,6,0,B|136:29|136:29|188:64|188:64|240:32|240:32|328:80|404:18,1,393.75,2|0,0:2|0:0,0:0:0:0:
495,105,524195,5,2,0:2:0:0:
495,105,524297,2,0,L|493:226,1,105
476,260,524601,1,2,0:2:0:0:
328,344,524803,1,0,0:0:0:0:
317,134,525006,5,2,0:2:0:0:
175,168,525209,1,0,0:0:0:0:
275,273,525412,1,2,0:2:0:0:
