osu file format v14

[General]
AudioFilename: Undertale Boss Themes.mp3
AudioLeadIn: 0
PreviewTime: 457303
Countdown: 0
SampleSet: Soft
StackLeniency: 0.5
Mode: 0
LetterboxInBreaks: 0
WidescreenStoryboard: 1

[Editor]
Bookmarks: 614,110322,168865,285198,392798,528499,705582,823087,1004797,1120562
DistanceSpacing: 1
BeatDivisor: 4
GridSize: 32
TimelineZoom: 1.2

[Metadata]
Title:Undertale Boss Themes
TitleUnicode:Undertale Boss Themes
Artist:toby fox
ArtistUnicode:toby fox
Creator:Arphimigon
Version:You must be new here, play me!
Source:UNDERTALE
Tags:bad time spoiler sans papyrus frisk chara flowey determination patience kindness human toriel asgore asriel mount ebott snowdin bravery integrity perserverance justice fallen human genocide alphys mettaton hotland dog soul love exp undyne flowey onionsan onionsama onionchan onion napstablook hope dream annoying demo heroine final battle voli dirai epilepsy ruins core waterfall neutral ending hard mode megalomania Nyeh Heh Heh! temmie idiot baka heart blue indigo purple yellow green orange soulless monster chiptune pixel 2015 spare act fight item heartache bonetrousle spear of justice spider dance death by glamour your best nightmare hopes and dreams megalovania muffet NEO undying omega photoshop raidiation indie hula earthbound belowstory morality marathon incorrigible undermeme
BeatmapID:1005957
BeatmapSetID:389467

[Difficulty]
HPDrainRate:1
CircleSize:3
OverallDifficulty:5
ApproachRate:5
SliderMultiplier:0.799999999999999
SliderTickRate:1

[Events]
//Background and Video events
0,0,"SOULS.jpg",0,0
//Break Periods
2,51882,53996
2,109120,115628
2,167828,178721
2,205445,215680
2,227347,237582
2,249248,259483
2,282785,292451
2,300112,300799
2,308460,309147
2,351764,367582
2,385677,411163
2,525671,547861
2,658657,665943
2,702872,720791
2,822017,844455
2,868353,889451
2,957994,968195
2,991741,996318
2,1002287,1023362
2,1101562,1119362
2,1158562,1176115
2,1241515,1256115
2,1269515,1271115
//Storyboard Layer 0 (Background)
//Storyboard Layer 1 (Fail)
//Storyboard Layer 2 (Pass)
//Storyboard Layer 3 (Foreground)
//Storyboard Sound Samples

[TimingPoints]
720,251.046025104603,3,2,3,65,1,0
5238,-200,4,2,3,65,0,0
12770,-149.253731343284,4,2,3,65,0,1
18669,-149.253731343284,4,2,3,25,0,1
18795,-149.253731343284,4,2,3,65,0,0
23314,-188.679245283019,4,2,3,65,0,0
24820,-175.438596491228,4,2,3,65,0,0
29339,-188.679245283019,4,2,3,65,0,0
30845,-149.253731343284,4,2,3,65,0,1
42895,-166.666666666667,4,2,3,65,0,1
43899,-149.253731343284,4,2,3,65,0,1
51933,-149.253731343284,4,2,3,35,0,0
54945,-149.253731343284,4,2,3,65,0,0
62477,-166.666666666667,4,2,3,65,0,0
63983,-149.253731343284,4,2,3,65,0,0
86577,-200,4,2,3,65,0,0
88084,-142.857142857143,4,2,3,65,0,1
108920,-142.857142857143,4,2,3,65,0,0
110428,400,4,2,3,55,1,0
142428,-83.3333333333333,4,2,3,65,0,1
161628,-111.111111111111,4,2,3,65,0,0
167228,-111.111111111111,4,2,3,65,0,0
167828,-111.111111111111,4,2,3,5,0,0
168971,342.211829122227,4,2,3,65,1,0
179921,-83.3333333333333,4,2,3,65,0,1
190872,-76.9230769230769,4,2,3,65,0,1
205929,-76.9230769230769,4,2,3,65,0,0
216880,-83.3333333333333,4,2,3,65,0,1
227831,-83.3333333333333,4,2,3,65,0,0
260683,-90.9090909090909,4,2,3,65,0,0
285304,260.869565217391,4,2,3,65,1,0
293651,-117.647058823529,4,2,3,65,0,0
299912,-166.666666666667,4,2,3,65,0,0
301999,-117.647058823529,4,2,3,65,0,0
308260,-166.666666666667,4,2,3,65,0,0
310347,-117.647058823529,4,2,3,65,0,0
316608,-200,4,2,3,65,0,0
318695,-100,4,2,3,65,0,1
334869,-117.647058823529,4,2,3,65,0,1
335390,-100,4,2,3,65,0,1
339564,-100,4,2,3,65,0,1
351043,-133.333333333333,4,2,3,65,0,1
351825,-133.333333333333,4,2,3,20,0,1
351956,-133.333333333333,4,2,3,5,0,1
352086,-100,4,2,3,65,0,0
392904,405.405405405405,4,2,3,65,1,0
412363,-66.6666666666667,4,2,3,65,0,0
418849,-58.8235294117647,4,2,3,65,0,0
431822,-55.5555555555556,4,2,3,65,0,0
457768,-50,4,2,3,65,0,1
482093,-50,4,2,3,65,0,0
483714,-58.8235294117647,4,2,3,65,0,0
509660,-66.6666666666667,4,2,3,65,0,1
524255,-100,4,2,3,65,0,0
528605,264.31718061674,4,2,3,65,1,0
549061,261.244394130709,4,2,3,65,1,0
549061,-125,4,2,3,45,0,0
566825,-125,4,2,3,45,0,0
581455,-200,4,2,3,45,0,0
583545,-153.846153846154,4,2,3,45,0,0
600264,-125,4,2,3,65,0,1
633704,-125,4,2,3,45,0,0
641019,-166.666666666667,4,2,3,45,0,0
642064,-111.111111111111,4,2,3,45,0,0
656693,-142.857142857143,4,2,3,45,0,0
658457,-142.857142857143,4,2,3,15,0,0
667143,-200,4,2,3,45,0,0
675503,-125,4,2,3,45,0,0
698492,-100,4,2,3,65,0,1
705642,317.460317460317,4,2,3,65,1,0
721991,-100,4,2,3,30,0,0
727308,-100,4,2,3,5,0,0
728344,315.789473684211,4,2,3,65,1,0
728344,-62.5,4,2,3,65,0,1
759922,-76.9230769230769,4,2,3,50,0,0
775080,-76.9230769230769,4,2,3,20,0,0
776343,-76.9230769230769,4,2,3,50,0,0
791501,-76.9230769230769,4,2,3,20,0,0
792765,-62.5,4,2,3,65,0,1
820554,-62.5,4,2,3,20,0,0
821817,-62.5,4,2,3,10,0,0
823157,351.535036325287,4,2,3,65,1,0
889245,-200,4,2,3,55,0,0
890651,-100,4,2,3,65,0,1
958146,-100,4,2,3,65,0,0
969395,-100,4,2,3,65,0,1
991893,-100,4,2,3,65,0,0
997518,-100,4,2,3,65,0,1
1000330,-100,4,2,3,55,0,0
1002088,-200,4,2,3,5,0,0
1005362,400,4,2,3,5,1,0
1024562,-66.6666666666667,4,2,3,45,0,1
1101362,-66.6666666666667,4,2,3,45,0,0
1161315,250,4,3,3,65,1,0
1177315,-83.3333333333333,4,3,3,85,0,1
1241315,-83.3333333333333,4,3,3,65,0,0
1257315,-100,4,3,3,65,0,0
1273315,-83.3333333333333,4,3,3,65,0,0
1305315,-200,4,2,3,55,0,0
1315315,-133.333333333333,4,3,3,65,0,0

[Colours]
Combo1 : 255,148,40
Combo2 : 0,0,255
Combo3 : 0,244,0
Combo4 : 196,0,196
Combo5 : 255,23,23
Combo6 : 230,230,0
Combo7 : 0,255,255

[HitObjects]
40,276,5238,6,0,L|29:149,1,120,2|2,0:0|0:0,0:0:0:0:
122,80,6745,6,0,P|165:93|240:71,1,120,4|4,0:3|0:3,0:0:0:0:
351,41,8251,2,0,P|394:28|467:47,1,120,4|4,0:3|0:3,0:0:0:0:
470,165,9757,2,0,L|458:290,1,120,4|4,0:3|0:3,0:0:0:0:
347,329,11263,5,2,0:0:0:0:
346,328,12770,6,0,P|306:311|262:319,1,80.3999961968995,4|8,0:0|0:0,0:0:0:0:
175,344,13523,2,0,L|111:346,2,53.5999974645997,4|8|8,0:3|0:0|0:0,0:0:0:0:
198,288,14276,2,0,P|200:244|194:230,1,53.5999974645997,4|0,0:0|0:3,0:0:0:0:
172,173,14778,2,0,P|212:183|281:158,1,107.199994929199,2|2,0:0|0:0,0:0:0:0:
202,64,15782,6,0,L|109:62,1,80.3999961968995,4|8,0:0|0:0,0:0:0:0:
55,131,16535,2,0,L|38:194,2,53.5999974645997,4|8|8,0:3|0:0|0:0,0:0:0:0:
109,157,17289,2,0,P|153:175|207:168,1,80.3999961968995,4|2,0:3|0:0,0:0:0:0:
280,144,18042,2,0,L|343:160,1,53.5999974645997,4|2,0:3|0:0,0:0:0:0:
384,269,18795,6,0,L|397:331,2,53.5999974645997,4|0|0,0:3|0:0|0:3,0:0:0:0:
325,282,19548,2,0,L|316:344,2,53.5999974645997,4|0|0,0:3|0:0|0:0,0:0:0:0:
265,276,20301,6,0,L|235:331,2,53.5999974645997,4|0|0,0:3|0:0|0:0,0:0:0:0:
211,248,21054,2,0,L|163:290,2,53.5999974645997,4|0|0,0:3|0:0|0:0,0:0:0:0:
223,189,21807,6,0,P|223:140|214:123,2,53.5999974645997,4|0|0,0:3|0:0|0:0,0:0:0:0:
283,191,22561,2,0,P|299:144|297:125,2,53.5999974645997,4|0|0,0:3|0:0|0:0,0:0:0:0:
306,225,23314,6,0,P|347:214|388:224,1,84.8000001293944,2|2,0:0|0:0,0:0:0:0:
458,287,24067,1,2,0:0:0:0:
291,355,24820,6,0,L|204:368,2,68.399999165039,2|2|2,0:0|0:0|0:0,0:0:0:0:
176,216,26326,2,0,L|113:223,2,45.5999994433593,2|2|2,0:0|0:0|0:0,0:0:0:0:
222,178,27079,1,4,0:3:0:0:
256,192,27832,12,2,29339,0:0:0:0:
142,78,30845,6,0,P|111:114|112:161,1,80.3999961968995,4|8,0:0|0:0,0:0:0:0:
143,238,31598,2,0,L|137:302,2,53.5999974645997,4|8|8,0:3|0:0|0:0,0:0:0:0:
197,212,32351,2,0,P|229:221|259:218,1,53.5999974645997,4|0,0:0|0:0,0:0:0:0:
306,186,32853,2,0,L|415:208,1,107.199994929199,2|2,0:0|0:0,0:0:0:0:
429,333,33858,6,0,B|382:328|382:339|340:331,1,80.3999961968995,4|8,0:0|0:0,0:0:0:0:
250,317,34611,2,0,L|188:323,2,53.5999974645997,4|8|8,0:3|0:0|0:0,0:0:0:0:
297,279,35364,2,0,P|301:212|291:183,1,80.3999961968995,4|8,0:3|0:0,0:0:0:0:
219,140,36117,2,0,L|207:75,2,53.5999974645997,2|2|2,0:0|0:0|0:0,0:0:0:0:
197,196,36870,6,0,P|141:209|103:196,1,80.3999961968995,4|8,0:0|0:0,0:0:0:0:
39,255,37623,2,0,L|29:318,2,53.5999974645997,4|8|8,0:3|0:0|0:0,0:0:0:0:
15,199,38376,2,0,L|35:77,1,107.199994929199,4|2,0:0|0:0,0:0:0:0:
81,43,39130,2,0,L|150:40,2,53.5999974645997,2|2|2,0:0|0:0|0:0,0:0:0:0:
107,96,39883,6,0,L|204:91,1,80.3999961968995,4|8,0:0|0:0,0:0:0:0:
270,144,40636,2,0,P|276:188|274:206,2,53.5999974645997,4|8|8,0:3|0:0|0:0,0:0:0:0:
290,87,41389,1,4,0:0:0:0:
398,35,41891,1,0,0:0:0:0:
438,79,42142,2,0,L|434:141,2,53.5999974645997,4|4|0,0:3|0:3|0:0,0:0:0:0:
470,129,42895,6,0,L|464:221,1,71.9999978027344,4|8,0:3|0:0,0:0:0:0:
406,286,43648,2,0,L|416:346,2,47.9999985351562,4|8|8,0:3|0:0|0:0,0:0:0:0:
350,261,44402,2,0,P|296:272|234:248,1,107.199994929199,4|2,0:0|0:0,0:0:0:0:
188,214,45155,2,0,L|124:222,2,53.5999974645997,2|2|2,0:0|0:0|0:0,0:0:0:0:
234,175,45908,5,4,0:0:0:0:
192,95,46243,1,8,0:0:0:0:
252,28,46661,2,0,L|314:24,2,53.5999974645997,4|8|8,0:3|0:0|0:0,0:0:0:0:
193,14,47414,2,0,L|100:19,1,80.3999961968995,4|8,0:3|0:0,0:0:0:0:
45,87,48167,2,0,L|44:151,2,53.5999974645997,4|8|8,0:3|0:0|0:0,0:0:0:0:
100,109,48920,6,0,P|147:123|196:121,1,80.3999961968995,2|2,0:0|0:0,0:0:0:0:
277,111,49673,1,2,0:0:0:0:
382,167,50176,1,2,0:0:0:0:
346,215,50427,6,0,L|359:312,1,80.3999961968995,2|2,0:0|0:0,0:0:0:0:
274,337,51180,1,2,0:0:0:0:
256,218,51682,1,2,0:0:0:0:
183,65,55196,5,4,0:3:0:0:
192,171,55699,1,4,0:3:0:0:
201,277,56201,1,4,0:3:0:0:
311,277,56703,5,4,0:3:0:0:
320,171,57205,2,0,L|326:116,2,53.5999974645997,4|4|4,0:3|0:3|0:3,0:0:0:0:
344,218,57958,6,0,P|389:214|425:192,2,80.3999961968995,4|8|4,0:3|0:0|0:3,0:0:0:0:
168,218,59464,2,0,P|123:214|87:192,2,80.3999961968995,4|8|4,0:3|0:0|0:3,0:0:0:0:
256,22,61222,5,4,0:3:0:0:
256,129,61724,1,4,0:3:0:0:
256,236,62226,1,4,0:3:0:0:
256,283,62477,6,0,P|228:301|206:308,2,47.9999985351562,2|2|2,0:0|0:0|0:0,0:0:0:0:
298,304,63230,2,0,P|327:315|390:307,1,95.9999970703125,2|2,0:0|0:0,0:0:0:0:
426,267,63983,6,0,P|437:210|420:159,1,107.199994929199,2|2,0:0|0:0,0:0:0:0:
392,120,64736,1,2,0:0:0:0:
279,234,65489,6,0,L|171:219,1,107.199994929199,2|2,0:0|0:0,0:0:0:0:
119,211,66243,1,2,0:0:0:0:
201,72,66996,6,0,B|242:67|267:84|309:74,1,107.199994929199,2|2,0:0|0:0,0:0:0:0:
361,73,67749,1,2,0:0:0:0:
480,180,68502,6,0,B|428:191|428:191|375:181,1,107.199994929199,2|2,0:0|0:0,0:0:0:0:
322,169,69255,1,2,0:0:0:0:
161,166,70008,6,0,L|165:277,1,107.199994929199,2|2,0:0|0:0,0:0:0:0:
187,321,70761,2,0,L|298:317,1,107.199994929199,2|2,0:0|0:0,0:0:0:0:
347,318,71514,1,2,0:0:0:0:
421,176,72268,1,2,0:0:0:0:
296,74,73021,1,2,0:0:0:0:
256,39,73272,5,4,0:3:0:0:
204,132,73774,1,4,0:3:0:0:
202,239,74276,1,4,0:3:0:0:
310,239,74778,1,4,0:3:0:0:
308,132,75280,2,0,L|319:76,2,53.5999974645997,4|4|4,0:3|0:3|0:3,0:0:0:0:
350,164,76033,6,0,P|400:167|455:141,1,107.199994929199,2|2,0:0|0:0,0:0:0:0:
489,106,76786,1,2,0:0:0:0:
346,31,77540,6,0,L|231:19,1,107.199994929199,2|2,0:0|0:0,0:0:0:0:
187,34,78293,1,2,0:0:0:0:
82,156,79046,6,0,P|69:204|89:261,1,107.199994929199,2|2,0:0|0:0,0:0:0:0:
121,297,79799,1,2,0:0:0:0:
281,284,80552,6,0,B|276:256|276:256|292:222|279:179,1,107.199994929199,2|2,0:0|0:0,0:0:0:0:
254,131,81305,1,2,0:0:0:0:
94,151,82058,6,0,P|79:113|99:42,1,107.199994929199,2|2,0:0|0:0,0:0:0:0:
141,27,82812,2,0,P|191:42|242:26,1,107.199994929199,2|2,0:0|0:0,0:0:0:0:
293,9,83565,1,2,0:0:0:0:
433,86,84318,1,2,0:0:0:0:
292,164,85071,5,2,0:0:0:0:
198,73,86577,6,0,L|75:85,1,120,2|2,0:0|0:0,0:0:0:0:
43,261,88084,6,0,L|38:363,1,83.9999974365234,4|8,0:0|0:0,0:0:0:0:
123,319,88837,2,0,L|126:259,2,55.9999982910156,4|8|8,0:3|0:0|0:0,0:0:0:0:
159,364,89590,2,0,P|189:371|219:368,1,55.9999982910156,4|0,0:0|0:0,0:0:0:0:
275,347,90092,2,0,L|401:354,1,111.999996582031,2|2,0:0|0:0,0:0:0:0:
482,271,91096,6,0,P|469:243|462:179,1,83.9999974365234,4|8,0:0|0:0,0:0:0:0:
486,98,91849,2,0,P|487:56|480:35,2,55.9999982910156,4|8|8,0:3|0:0|0:0,0:0:0:0:
434,128,92602,1,4,0:3:0:0:
352,89,92979,1,8,0:0:0:0:
280,143,93355,2,0,L|214:152,2,55.9999982910156,2|2|2,0:0|0:0|0:0,0:0:0:0:
325,182,94109,6,0,L|330:281,1,83.9999974365234,4|8,0:0|0:0,0:0:0:0:
271,340,94862,2,0,L|207:348,2,55.9999982910156,4|8|8,0:3|0:0|0:0,0:0:0:0:
230,295,95615,2,0,P|213:245|217:172,1,111.999996582031,4|2,0:0|0:0,0:0:0:0:
242,124,96368,2,0,L|236:58,2,55.9999982910156,2|2|2,0:0|0:0|0:0,0:0:0:0:
285,165,97121,6,0,P|331:174|375:154,1,83.9999974365234,4|8,0:0|0:0,0:0:0:0:
448,201,97874,2,0,L|457:266,2,55.9999982910156,4|8|8,0:3|0:0|0:0,0:0:0:0:
488,156,98627,2,0,P|469:91|418:67,1,111.999996582031,4|2,0:0|0:0,0:0:0:0:
365,70,99381,2,0,L|305:83,2,55.9999982910156,2|2|2,0:0|0:0|0:0,0:0:0:0:
315,35,100134,5,4,0:3:0:0:
225,41,100510,1,8,0:0:0:0:
135,48,100887,2,0,L|76:44,2,55.9999982910156,4|8|8,0:3|0:0|0:0,0:0:0:0:
173,94,101640,6,0,P|189:156|180:214,1,111.999996582031,4|2,0:0|0:0,0:0:0:0:
147,260,102393,2,0,L|80:268,2,55.9999982910156,2|2|2,0:0|0:0|0:0,0:0:0:0:
199,289,103146,5,4,0:0:0:0:
276,334,103523,1,8,0:0:0:0:
360,303,103899,2,0,P|404:300|422:305,2,55.9999982910156,4|8|8,0:3|0:0|0:0,0:0:0:0:
318,259,104653,6,0,P|307:213|317:139,1,111.999996582031,4|2,0:0|0:0,0:0:0:0:
354,95,105406,2,0,L|420:87,2,55.9999982910156,2|2|2,0:0|0:0|0:0,0:0:0:0:
298,72,106159,6,0,L|200:64,1,83.9999974365234,4|8,0:0|0:0,0:0:0:0:
131,112,106912,2,0,L|68:118,2,55.9999982910156,4|8|8,0:3|0:0|0:0,0:0:0:0:
170,156,107665,2,0,P|184:214|179:253,1,83.9999974365234,4|8,0:0|0:0,0:0:0:0:
133,320,108418,2,0,L|71:336,2,55.9999982910156,4|8|8,0:3|0:0|0:0,0:0:0:0:
54,250,116828,6,0,P|49:214|51:152,1,79.9999999999999,4|8,0:3|0:3,0:0:0:0:
136,126,117628,2,0,P|141:162|139:224,1,79.9999999999999,4|8,0:3|0:3,0:0:0:0:
186,297,118428,1,4,0:3:0:0:
276,314,118828,1,8,0:3:0:0:
358,272,119228,2,0,L|411:277,2,40,4|0|8,0:3|0:0|0:3,0:0:0:0:
287,212,120028,6,0,P|271:171|279:106,1,79.9999999999999,4|8,0:3|0:3,0:0:0:0:
339,60,120828,2,0,L|392:65,2,40,4|0|8,0:3|0:0|0:3,0:0:0:0:
251,32,121628,1,4,0:3:0:0:
163,61,122028,1,8,0:3:0:0:
155,152,122428,2,0,L|161:256,1,79.9999999999999,4|8,0:3|0:3,0:0:0:0:
194,329,123228,6,0,P|240:341|284:324,1,79.9999999999999,4|8,0:3|0:3,0:0:0:0:
327,247,124028,2,0,L|318:195,1,40,4|0,0:3|0:0,0:0:0:0:
312,156,124428,1,8,0:3:0:0:
374,88,124828,6,0,P|417:103|470:87,2,79.9999999999999,4|8|4,0:3|0:3|0:3,0:0:0:0:
294,42,126028,1,8,0:3:0:0:
207,74,126428,2,0,L|193:167,1,79.9999999999999,4|8,0:3|0:3,0:0:0:0:
146,244,127228,2,0,L|160:337,1,79.9999999999999,4|8,0:3|0:3,0:0:0:0:
251,339,128028,5,4,0:3:0:0:
323,282,128428,2,0,L|319:233,2,40,8|0|4,0:3|0:0|0:3,0:0:0:0:
402,328,129228,1,8,0:3:0:0:
465,261,129628,6,0,P|476:215|464:170,1,79.9999999999999,4|8,0:3|0:3,0:0:0:0:
380,216,130428,2,0,P|336:229|292:218,1,79.9999999999999,4|8,0:3|0:3,0:0:0:0:
237,145,131228,2,0,L|236:81,2,40,4|0|8,0:3|0:0|0:3,0:0:0:0:
175,213,132028,2,0,L|70:221,1,79.9999999999999,4|8,0:3|0:3,0:0:0:0:
11,161,132828,6,0,L|10:97,2,40,4|0|8,0:3|0:0|0:3,0:0:0:0:
4,252,133628,2,0,P|3:310|16:346,1,79.9999999999999,4|8,0:3|0:3,0:0:0:0:
98,378,134428,1,4,0:3:0:0:
189,368,134828,1,8,0:3:0:0:
280,360,135228,2,0,P|329:345|360:309,1,79.9999999999999,4|8,0:3|0:3,0:0:0:0:
293,248,136028,6,0,L|285:153,1,79.9999999999999,4|8,0:3|0:3,0:0:0:0:
347,88,136828,2,0,L|398:92,1,40,4|0,0:3|0:0,0:0:0:0:
438,99,137228,1,8,0:3:0:0:
490,174,137628,6,0,P|504:229|496:272,1,79.9999999999999,4|8,0:3|0:3,0:0:0:0:
420,310,138428,2,0,L|322:316,1,79.9999999999999,4|8,0:3|0:3,0:0:0:0:
250,266,139228,6,0,L|258:163,2,79.9999999999999,4|8|4,0:3|0:3|0:3,0:0:0:0:
164,300,140428,1,8,0:3:0:0:
101,232,140828,2,0,L|109:129,1,79.9999999999999,4|8,0:3|0:3,0:0:0:0:
171,73,141628,1,4,0:3:0:0:
375,110,142428,5,4,0:3:0:0:
431,197,142828,1,8,0:3:0:0:
373,283,143228,1,4,0:3:0:0:
429,370,143628,1,8,0:3:0:0:
489,285,144028,2,0,L|495:216,2,47.9999985351562,4|0|8,0:3|0:0|0:3,0:0:0:0:
415,211,144828,2,0,L|421:142,2,47.9999985351562,4|0|8,0:3|0:0|0:3,0:0:0:0:
321,257,145628,5,4,0:3:0:0:
223,292,146028,1,8,0:3:0:0:
125,328,146428,2,0,P|89:285|89:231,1,95.9999970703125,4|8,0:3|0:3,0:0:0:0:
147,154,147228,5,4,0:3:0:0:
250,173,147628,1,8,0:3:0:0:
353,191,148028,2,0,P|362:246|335:293,1,95.9999970703125,4|8,0:3|0:3,0:0:0:0:
243,325,148828,6,0,P|178:318|130:324,1,95.9999970703125,4|8,0:3|0:3,0:0:0:0:
192,232,149628,2,0,P|257:239|305:233,1,95.9999970703125,4|8,0:3|0:3,0:0:0:0:
395,200,150428,2,0,L|406:259,2,47.9999985351562,4|0|8,0:3|0:0|0:3,0:0:0:0:
316,268,151228,2,0,L|327:327,2,47.9999985351562,4|0|8,0:3|0:0|0:3,0:0:0:0:
214,245,152028,5,4,0:3:0:0:
111,260,152428,1,8,0:3:0:0:
46,178,152828,1,4,0:3:0:0:
149,163,153228,1,8,0:3:0:0:
251,146,153628,2,0,L|304:138,2,47.9999985351562,4|0|8,0:3|0:0|0:3,0:0:0:0:
170,80,154428,2,0,L|48:68,1,95.9999970703125,4|8,0:3|0:3,0:0:0:0:
21,163,155228,5,4,0:3:0:0:
123,183,155628,1,8,0:3:0:0:
58,264,156028,1,4,0:3:0:0:
160,284,156428,1,8,0:3:0:0:
230,207,156828,2,0,L|281:190,2,47.9999985351562,4|0|8,0:3|0:0|0:3,0:0:0:0:
310,272,157628,2,0,L|361:255,2,47.9999985351562,4|0|8,0:3|0:0|0:3,0:0:0:0:
377,351,158428,5,4,0:3:0:0:
460,289,158828,1,8,0:3:0:0:
418,193,159228,2,0,L|423:81,1,95.9999970703125,4|8,0:3|0:3,0:0:0:0:
344,20,160028,5,4,0:3:0:0:
240,30,160428,1,8,0:3:0:0:
136,41,160828,2,0,P|122:96|127:148,1,95.9999970703125,4|8,0:3|0:3,0:0:0:0:
178,202,161628,6,0,P|240:187|274:187,2,71.9999978027344,2|2|2,0:2|0:2|0:2,0:0:0:0:
129,265,162828,1,2,0:2:0:0:
174,330,163228,2,0,L|170:374,2,35.9999989013672,2|0|2,0:2|0:0|0:2,0:0:0:0:
245,293,164028,2,0,P|301:301|331:294,1,71.9999978027344,2|2,0:2|0:2,0:0:0:0:
401,316,164828,6,0,L|405:360,2,35.9999989013672,2|0|2,0:2|0:0|0:2,0:0:0:0:
410,236,165628,1,2,0:2:0:0:
420,156,166028,1,2,0:2:0:0:
443,79,166428,6,0,L|431:27,2,35.9999989013672,2|0|2,0:2|0:0|0:2,0:0:0:0:
499,135,167228,1,2,0:2:0:0:
481,213,167628,1,2,0:2:0:0:
96,80,179921,5,6,0:0:0:0:
191,67,180263,1,2,0:0:0:0:
279,105,180606,2,0,L|371:93,2,63.999998046875,2|2|2,0:0|0:0|0:0,0:0:0:0:
245,159,181290,6,0,P|240:204|251:261,1,95.9999970703125,6|2,0:0|0:0,0:0:0:0:
301,333,181975,2,0,L|372:336,2,63.999998046875,2|2|2,0:0|0:0|0:0,0:0:0:0:
237,333,182659,5,6,0:0:0:0:
143,352,183001,1,2,0:0:0:0:
72,287,183343,2,0,P|57:242|58:221,2,63.999998046875,2|2|2,0:0|0:0|0:0,0:0:0:0:
134,270,184028,6,0,P|179:207|175:133,1,127.99999609375,2|2,0:0|0:0,0:0:0:0:
160,98,184712,2,0,P|211:104|298:66,1,127.99999609375,2|2,0:0|0:0,0:0:0:0:
333,40,185397,5,6,0:0:0:0:
412,93,185739,1,2,0:0:0:0:
376,181,186081,2,0,L|384:247,2,63.999998046875,2|2|2,0:0|0:0|0:0,0:0:0:0:
319,149,186766,6,0,P|244:143|221:154,1,95.9999970703125,6|2,0:0|0:0,0:0:0:0:
168,226,187450,2,0,L|165:296,2,63.999998046875,2|2|2,0:0|0:0|0:0,0:0:0:0:
144,166,188134,5,6,0:0:0:0:
177,75,188477,1,2,0:0:0:0:
90,34,188819,2,0,P|43:34|23:25,2,63.999998046875,2|2|2,0:0|0:0|0:0,0:0:0:0:
150,14,189503,6,0,L|296:25,1,127.99999609375,2|2,0:0|0:0,0:0:0:0:
338,2,190188,2,0,L|356:148,1,127.99999609375,2|2,0:0|0:0,0:0:0:0:
390,187,190872,5,6,0:0:0:0:
385,290,191214,1,2,0:0:0:0:
282,307,191556,2,0,L|187:325,2,69.3333301595053,2|2|2,0:0|0:0|0:0,0:0:0:0:
315,245,192241,6,0,P|320:174|308:142,1,103.999995239258,6|2,0:0|0:0,0:0:0:0:
224,84,192925,2,0,P|220:45|231:12,2,69.3333301595053,2|2|2,0:0|0:0|0:0,0:0:0:0:
194,147,193610,5,6,0:0:0:0:
228,245,193952,1,2,0:0:0:0:
176,335,194294,2,0,L|102:348,2,69.3333301595053,2|2|2,0:0|0:0|0:0,0:0:0:0:
245,340,194979,6,0,P|298:354|378:318,1,138.666660319011,2|2,0:0|0:0,0:0:0:0:
404,261,195663,2,0,L|396:119,1,138.666660319011,2|2,0:0|0:0,0:0:0:0:
392,53,196347,5,6,0:0:0:0:
300,102,196690,1,2,0:0:0:0:
205,58,197032,2,0,L|131:67,2,69.3333301595053,2|2|2,0:0|0:0|0:0,0:0:0:0:
190,125,197716,6,0,P|179:177|196:236,1,103.999995239258,6|2,0:0|0:0,0:0:0:0:
258,304,198401,2,0,P|265:356|261:376,2,69.3333301595053,2|2|2,0:0|0:0|0:0,0:0:0:0:
273,236,199085,5,6,0:0:0:0:
374,257,199427,1,2,0:0:0:0:
466,207,199770,2,0,P|474:174|472:136,2,69.3333301595053,2|2|2,0:0|0:0|0:0,0:0:0:0:
412,163,200454,6,0,L|401:21,1,138.666660319011,2|2,0:0|0:0,0:0:0:0:
334,6,201138,2,0,P|279:46|196:41,1,138.666660319011,2|2,0:0|0:0,0:0:0:0:
148,14,201823,6,0,L|167:159,1,138.666660319011,2|2,0:0|0:0,0:0:0:0:
219,195,202507,2,0,P|135:182|86:236,1,138.666660319011,2|2,0:0|0:0,0:0:0:0:
69,276,203192,6,0,L|212:325,1,138.666660319011,2|2,0:0|0:0,0:0:0:0:
241,376,203876,2,0,P|238:325|311:246,1,138.666660319011,2|2,0:0|0:0,0:0:0:0:
356,252,204561,6,0,L|404:305,2,69.3333301595053,2|2|2,0:0|0:0|0:0,0:0:0:0:
383,188,205245,1,2,0:0:0:0:
49,280,216880,6,0,L|36:166,2,95.9999970703125,4|8|8,0:0|0:0|0:0,0:0:0:0:
223,361,218249,1,2,0:0:0:0:
317,344,218591,1,2,0:0:0:0:
411,327,218933,1,2,0:0:0:0:
332,151,219618,6,0,P|328:87|341:34,2,95.9999970703125,4|8|8,0:0|0:0|0:0,0:0:0:0:
150,213,220987,1,2,0:0:0:0:
59,183,221329,1,2,0:0:0:0:
59,87,221671,1,2,0:0:0:0:
150,58,222013,1,2,0:0:0:0:
207,135,222356,6,0,P|264:139|322:123,2,95.9999970703125,4|8|8,0:0|0:0|0:0,0:0:0:0:
356,14,223724,1,2,0:0:0:0:
450,33,224067,1,2,0:0:0:0:
486,121,224409,1,2,0:0:0:0:
361,266,225093,6,0,L|256:282,2,95.9999970703125,4|8|8,0:0|0:0|0:0,0:0:0:0:
227,127,226462,1,2,0:0:0:0:
131,115,226804,1,2,0:0:0:0:
57,177,227147,1,2,0:0:0:0:
200,330,238782,6,0,L|306:317,2,95.9999970703125,4|8|8,0:0|0:0|0:0,0:0:0:0:
36,229,240151,1,2,0:0:0:0:
60,136,240493,1,2,0:0:0:0:
85,43,240835,1,2,0:0:0:0:
275,20,241519,6,0,P|364:28|387:43,2,95.9999970703125,4|8|8,0:0|0:0|0:0,0:0:0:0:
204,198,242888,1,2,0:0:0:0:
212,294,243230,1,2,0:0:0:0:
308,286,243573,1,2,0:0:0:0:
299,190,243915,1,0,0:0:0:0:
204,198,244257,6,0,P|106:194|86:180,2,95.9999970703125,4|8|8,0:0|0:0|0:0,0:0:0:0:
356,81,245626,1,2,0:0:0:0:
451,84,245968,1,2,0:0:0:0:
467,178,246310,1,2,0:0:0:0:
323,306,246995,6,0,L|222:326,2,95.9999970703125,4|8|8,0:0|0:0|0:0,0:0:0:0:
217,145,248364,1,2,0:0:0:0:
121,157,248706,1,2,0:0:0:0:
26,171,249048,1,2,0:0:0:0:
84,119,260683,6,0,L|80:225,2,88.0000026855468,2|2|2,0:0|0:0|0:0,0:0:0:0:
241,198,262052,6,0,L|237:304,2,88.0000026855468,2|2|2,0:0|0:0|0:0,0:0:0:0:
339,52,263421,5,2,0:0:0:0:
425,37,263763,1,2,0:0:0:0:
478,106,264105,2,0,L|481:169,2,58.6666684570312,2|2|2,0:0|0:0|0:0,0:0:0:0:
433,144,264790,6,0,L|440:252,1,88.0000026855468,2|2,0:0|0:0,0:0:0:0:
441,319,265474,1,2,0:0:0:0:
269,280,266159,6,0,L|166:272,2,88.0000026855468,2|2|2,0:0|0:0|0:0,0:0:0:0:
177,129,267528,6,0,L|74:121,2,88.0000026855468,2|2|2,0:0|0:0|0:0,0:0:0:0:
322,29,268896,5,2,0:0:0:0:
396,76,269239,1,2,0:0:0:0:
385,163,269581,2,0,P|384:194|395:223,2,58.6666684570312,2|2|2,0:0|0:0|0:0,0:0:0:0:
330,142,270265,6,0,P|262:134|235:139,1,88.0000026855468,2|2,0:0|0:0,0:0:0:0:
159,163,270950,1,2,0:0:0:0:
224,326,271634,6,0,P|265:339|313:326,2,88.0000026855468,2|2|2,0:0|0:0|0:0,0:0:0:0:
85,216,273003,6,0,P|43:202|-4:216,2,88.0000026855468,2|2|2,0:0|0:0|0:0,0:0:0:0:
261,212,274372,5,2,0:0:0:0:
254,124,274714,1,2,0:0:0:0:
247,36,275056,2,0,P|218:34|186:42,2,58.6666684570312,2|2|2,0:0|0:0|0:0,0:0:0:0:
304,50,275741,6,0,P|349:59|407:46,1,88.0000026855468,2|2,0:0|0:0,0:0:0:0:
472,22,276425,1,2,0:0:0:0:
437,194,277109,6,0,P|432:236|442:280,2,88.0000026855468,2|2|2,0:0|0:0|0:0,0:0:0:0:
294,91,278478,6,0,P|299:49|289:4,2,88.0000026855468,2|2|2,0:0|0:0|0:0,0:0:0:0:
193,235,279847,5,2,0:0:0:0:
105,240,280189,1,2,0:0:0:0:
38,181,280532,2,0,L|37:103,2,58.6666684570312,2|2|2,0:0|0:0|0:0,0:0:0:0:
3,228,281216,6,0,L|6:333,1,88.0000026855468,2|2,0:0|0:0,0:0:0:0:
84,355,281900,1,2,0:0:0:0:
256,318,282585,5,4,0:0:0:0:
124,260,293651,6,0,L|134:179,1,68.000001296997,4|8,0:3|0:3,0:0:0:0:
141,124,294173,1,4,0:3:0:0:
256,51,294695,1,4,0:3:0:0:
371,124,295217,1,4,0:3:0:0:
398,257,295738,6,0,L|396:328,1,68.000001296997,4|8,0:3|0:3,0:0:0:0:
339,362,296260,2,0,L|268:360,1,68.000001296997,4|8,0:3|0:3,0:0:0:0:
202,357,296782,1,4,0:3:0:0:
101,264,297304,1,4,0:3:0:0:
214,189,297825,6,0,P|229:128|195:49,1,136.000002593994,4|4,0:3|0:3,0:0:0:0:
340,43,298869,2,0,P|325:104|359:183,1,136.000002593994,4|4,0:3|0:3,0:0:0:0:
432,218,299912,1,2,0:0:0:0:
93,333,301999,6,0,P|88:298|90:260,1,68.000001296997,4|8,0:3|0:3,0:0:0:0:
108,199,302521,1,4,0:3:0:0:
190,90,303043,1,4,0:3:0:0:
322,90,303564,1,4,0:3:0:0:
404,199,304086,6,0,P|440:205|473:197,1,68.000001296997,4|8,0:3|0:3,0:0:0:0:
505,139,304608,1,4,0:3:0:0:
380,84,305130,1,4,0:3:0:0:
256,139,305651,1,4,0:3:0:0:
256,275,306173,6,0,P|190:290|123:274,1,136.000002593994,4|4,0:3|0:3,0:0:0:0:
124,137,307217,2,0,P|189:122|257:138,1,136.000002593994,4|4,0:3|0:3,0:0:0:0:
321,207,308260,1,2,0:0:0:0:
491,32,310347,6,0,L|419:38,1,68.000001296997,4|8,0:3|0:3,0:0:0:0:
355,29,310869,1,4,0:3:0:0:
256,122,311390,1,4,0:3:0:0:
157,29,311912,1,4,0:3:0:0:
40,98,312434,6,0,L|25:166,1,68.000001296997,4|8,0:3|0:3,0:0:0:0:
60,223,312956,2,0,L|75:290,1,68.000001296997,4|8,0:3|0:3,0:0:0:0:
122,337,313477,1,4,0:3:0:0:
256,363,313999,1,4,0:3:0:0:
373,294,314521,6,0,L|365:155,1,136.000002593994,4|4,0:3|0:3,0:0:0:0:
237,112,315564,2,0,L|245:251,1,136.000002593994,4|4,0:3|0:3,0:0:0:0:
134,327,316608,1,4,0:3:0:0:
64,233,318695,5,4,0:3:0:0:
75,153,318956,1,8,0:3:0:0:
87,73,319217,1,4,0:3:0:0:
241,31,319738,2,0,P|316:47|384:30,2,120,4|8|8,0:3|0:3|0:3,0:0:0:0:
183,87,320782,6,0,L|195:259,1,160,4|4,0:3|0:3,0:0:0:0:
327,335,321825,2,0,L|338:175,1,160,4|4,0:3|0:3,0:0:0:0:
453,63,322869,5,4,0:3:0:0:
378,32,323130,1,8,0:3:0:0:
301,53,323390,1,4,0:3:0:0:
145,91,323912,2,0,P|83:96|24:57,2,120,4|8|8,0:3|0:3|0:3,0:0:0:0:
218,58,324956,6,0,P|191:131|231:209,1,160,4|4,0:3|0:3,0:0:0:0:
366,274,325999,2,0,P|393:201|353:123,1,160,4|4,0:3|0:3,0:0:0:0:
218,58,327043,5,4,0:3:0:0:
138,59,327303,1,8,0:3:0:0:
57,60,327564,1,4,0:3:0:0:
76,218,328086,2,0,P|144:222|181:261,2,120,4|8|8,0:3|0:3|0:3,0:0:0:0:
19,274,329130,6,0,L|42:103,1,160,4|4,0:3|0:3,0:0:0:0:
177,32,330173,2,0,L|348:55,1,160,4|4,0:3|0:3,0:0:0:0:
466,146,331217,5,4,0:3:0:0:
473,225,331477,1,8,0:3:0:0:
421,286,331738,1,4,0:3:0:0:
262,304,332260,1,4,0:3:0:0:
326,158,332781,1,4,0:3:0:0:
191,71,333303,6,0,P|104:70|55:135,1,160,4|4,0:3|0:3,0:0:0:0:
79,279,334347,1,2,0:0:0:0:
153,307,334608,1,2,0:0:0:0:
228,285,334869,1,2,0:0:0:0:
309,147,335390,6,0,L|400:137,1,79.9999999999999,4|8,0:3|0:3,0:0:0:0:
460,102,335912,1,4,0:3:0:0:
313,38,336434,2,0,P|226:65|151:36,1,160,4|4,0:3|0:3,0:0:0:0:
25,126,337477,6,0,L|20:213,1,79.9999999999999,4|8,0:3|0:3,0:0:0:0:
74,265,337999,2,0,L|161:270,1,79.9999999999999,4|4,0:3|0:3,0:0:0:0:
207,329,338521,2,0,P|282:312|368:331,1,160,4|4,0:3|0:3,0:0:0:0:
387,170,339564,6,0,L|382:77,1,79.9999999999999,4|8,0:3|0:3,0:0:0:0:
302,82,340086,2,0,L|297:-11,1,79.9999999999999,4|8,0:3|0:3,0:0:0:0:
214,2,340608,2,0,L|210:82,1,79.9999999999999,4|8,0:3|0:3,0:0:0:0:
129,90,341130,2,0,L|125:170,1,79.9999999999999,4|8,0:3|0:3,0:0:0:0:
63,221,341651,6,0,P|139:240|177:312,1,160,4|4,0:3|0:3,0:0:0:0:
335,307,342695,2,0,P|373:239|449:221,1,160,4|4,0:3|0:3,0:0:0:0:
455,61,343738,6,0,L|366:80,1,79.9999999999999,4|8,0:3|0:3,0:0:0:0:
296,69,344260,1,4,0:3:0:0:
192,190,344782,2,0,P|127:197|71:120,1,160,4|4,0:3|0:3,0:0:0:0:
232,120,345825,6,0,P|270:172|231:259,1,160,4|4,0:3|0:3,0:0:0:0:
152,121,346869,2,0,P|178:61|273:51,1,160,4|4,0:3|0:3,0:0:0:0:
422,76,347912,6,0,L|502:64,1,79.9999999999999,4|8,0:3|0:3,0:0:0:0:
509,144,348434,2,0,L|501:225,1,79.9999999999999,4|8,0:3|0:3,0:0:0:0:
479,300,348956,2,0,P|407:280|304:321,1,160,4|4,0:3|0:3,0:0:0:0:
183,373,349999,5,2,0:2:0:0:
256,61,351043,1,2,0:2:0:0:
256,220,351564,1,2,0:2:0:0:
128,99,368782,5,4,0:3:0:0:
256,34,369303,1,4,0:3:0:0:
384,99,369825,1,4,0:3:0:0:
256,166,370347,1,4,0:3:0:0:
329,289,370869,6,0,P|375:267|316:210,1,160,4|4,0:3|0:3,0:0:0:0:
192,208,371912,2,0,P|132:242|183:289,1,160,4|4,0:3|0:3,0:0:0:0:
256,164,372956,5,4,0:3:0:0:
327,40,373477,1,4,0:3:0:0:
185,40,373999,1,4,0:3:0:0:
256,164,374521,1,4,0:3:0:0:
329,289,375043,6,0,B|399:248|399:248|329:212,1,160,4|4,0:3|0:3,0:0:0:0:
183,212,376086,2,0,B|113:248|113:248|183:289,1,160,4|4,0:3|0:3,0:0:0:0:
256,166,377130,5,4,0:3:0:0:
128,99,377652,1,4,0:3:0:0:
256,34,378174,1,4,0:3:0:0:
384,99,378695,1,4,0:3:0:0:
256,166,379217,6,0,L|256:335,1,160,4|4,0:3|0:3,0:0:0:0:
155,206,380260,2,0,P|147:129|204:65,1,160,4|4,0:3|0:3,0:0:0:0:
328,76,381303,5,4,0:3:0:0:
400,192,381825,1,4,0:3:0:0:
328,307,382347,1,4,0:3:0:0:
256,192,382869,1,4,0:3:0:0:
149,288,383390,6,0,L|64:296,2,79.9999999999999,4|8|4,0:3|0:3|0:3,0:0:0:0:
256,192,384434,1,4,0:3:0:0:
363,288,384956,1,4,0:3:0:0:
393,147,385477,5,4,0:3:0:0:
66,304,412363,6,0,L|60:228,1,60.0000022888184,2|0,0:2|0:0,0:0:0:0:
57,184,412768,1,2,0:2:0:0:
133,91,413174,2,0,P|210:106|264:86,1,120.000004577637,2|2,0:2|0:2,0:0:0:0:
365,68,413985,6,0,L|446:74,2,60.0000022888184,2|0|2,0:2|0:0|0:2,0:0:0:0:
337,184,414795,2,0,L|348:311,1,120.000004577637,2|2,0:2|0:2,0:0:0:0:
237,351,415606,6,0,L|168:355,1,60.0000022888184,2|0,0:2|0:0,0:0:0:0:
121,330,416012,1,2,0:2:0:0:
35,246,416417,2,0,P|75:162|68:118,1,120.000004577637,2|2,0:2|0:2,0:0:0:0:
62,18,417228,6,0,L|-3:10,2,60.0000022888184,2|0|2,0:2|0:0|0:2,0:0:0:0:
171,66,418039,1,2,0:2:0:0:
290,55,418444,1,2,0:2:0:0:
412,112,418849,6,0,P|434:179|377:180,1,136.000002593994,4|8,0:3|0:2,0:0:0:0:
255,155,419660,2,0,L|104:179,1,136.000002593994,4|8,0:3|0:2,0:0:0:0:
53,189,420268,1,0,0:0:0:0:
80,322,420674,5,0,0:0:0:0:
138,288,420876,2,0,P|198:284|223:289,1,68.000001296997,8|0,0:2|0:0,0:0:0:0:
249,337,421282,2,0,P|304:295|327:343,1,136.000002593994,4|8,0:3|0:2,0:0:0:0:
450,277,422093,6,0,P|453:190|429:106,1,170.000003242493,4|8,0:3|0:2,0:0:0:0:
320,83,422904,2,0,P|211:105|166:90,1,136.000002593994,4|8,0:3|0:2,0:0:0:0:
129,66,423512,1,0,0:0:0:0:
37,166,423917,5,0,0:0:0:0:
87,211,424120,2,0,P|92:251|89:284,1,68.000001296997,8|0,0:2|0:0,0:0:0:0:
43,328,424525,2,0,B|109:308|109:308|174:332,1,136.000002593994,4|8,0:3|0:2,0:0:0:0:
308,331,425336,6,0,B|284:259|319:269|299:193,1,136.000002593994,4|8,0:3|0:2,0:0:0:0:
184,125,426147,2,0,P|123:152|63:125,1,136.000002593994,4|8,0:3|0:2,0:0:0:0:
35,63,426755,1,0,0:0:0:0:
162,17,427160,5,0,0:0:0:0:
222,47,427363,2,0,L|314:32,1,68.000001296997,8|0,0:2|0:0,0:0:0:0:
347,0,427768,2,0,L|375:153,1,136.000002593994,4|8,0:3|0:2,0:0:0:0:
435,253,428579,6,0,P|356:250|318:312,1,136.000002593994,4|8,0:3|0:2,0:0:0:0:
187,289,429390,2,0,P|140:243|75:253,1,136.000002593994,4|8,0:3|0:2,0:0:0:0:
16,288,429998,1,0,0:0:0:0:
33,153,430403,5,0,0:0:0:0:
60,90,430606,2,0,P|125:89|143:93,1,68.000001296997,8|0,0:2|0:0,0:0:0:0:
164,146,431012,2,0,L|228:12,1,136.000002593994,4|8,0:3|0:2,0:0:0:0:
366,19,431822,6,0,P|408:87|403:153,1,143.999995605469,4|8,0:3|0:2,0:0:0:0:
299,247,432633,1,4,0:3:0:0:
435,294,433039,1,8,0:2:0:0:
300,344,433444,6,0,L|147:354,1,143.999995605469,4|8,0:3|0:2,0:0:0:0:
46,259,434255,2,0,L|56:106,1,143.999995605469,4|8,0:3|0:2,0:0:0:0:
193,72,435066,6,0,L|184:-6,2,71.9999978027344,4|0|8,0:3|0:0|0:2,0:0:0:0:
327,121,435876,2,0,P|423:113|470:141,1,143.999995605469,4|8,0:3|0:2,0:0:0:0:
506,271,436687,5,4,0:3:0:0:
363,295,437093,1,8,0:2:0:0:
221,320,437498,1,4,0:3:0:0:
79,345,437903,1,8,0:2:0:0:
4,221,438309,6,0,P|7:142|51:95,1,143.999995605469,4|8,0:3|0:2,0:0:0:0:
185,51,439120,2,0,B|255:74|255:74|323:52,1,143.999995605469,4|8,0:3|0:2,0:0:0:0:
461,96,439931,6,0,P|506:150|506:221,1,143.999995605469,4|8,0:3|0:2,0:0:0:0:
381,293,440741,1,4,0:3:0:0:
255,221,441147,1,8,0:2:0:0:
129,293,441552,6,0,L|50:289,2,71.9999978027344,4|0|8,0:3|0:0|0:2,0:0:0:0:
255,363,442363,2,0,B|241:275|270:310|255:219,1,143.999995605469,4|8,0:3|0:2,0:0:0:0:
155,116,443174,5,4,0:3:0:0:
255,13,443579,1,8,0:2:0:0:
355,116,443985,1,4,0:3:0:0:
255,220,444390,1,2,0:0:0:0:
155,116,444795,6,0,P|70:131|39:186,1,143.999995605469,4|8,0:3|0:2,0:0:0:0:
132,287,445606,1,4,0:3:0:0:
255,213,446012,1,8,0:2:0:0:
378,287,446417,6,0,L|457:280,2,71.9999978027344,4|2|10,0:3|0:0|0:2,0:0:0:0:
255,213,447228,1,4,0:3:0:0:
378,140,447633,1,8,0:2:0:0:
252,67,448039,6,0,P|183:82|113:66,1,143.999995605469,4|10,0:3|0:2,0:0:0:0:
54,197,448849,2,0,P|69:266|53:336,1,143.999995605469,4|8,0:3|0:2,0:0:0:0:
196,351,449660,5,4,0:3:0:0:
314,268,450066,1,10,0:2:0:0:
196,186,450471,1,4,0:3:0:0:
314,103,450877,1,10,0:2:0:0:
196,21,451282,6,0,L|52:21,1,143.999995605469,4|10,0:3|0:2,0:0:0:0:
52,165,452093,1,4,0:3:0:0:
52,308,452498,1,10,0:2:0:0:
195,308,452903,6,0,L|267:308,2,71.9999978027344,4|0|10,0:3|0:0|0:2,0:0:0:0:
255,176,453714,2,0,L|399:176,1,143.999995605469,4|8,0:3|0:2,0:0:0:0:
383,32,454525,6,0,L|300:32,2,71.9999978027344,4|2|8,0:3|0:0|0:2,0:0:0:0:
255,104,455336,6,0,L|255:176,2,71.9999978027344,4|2|8,0:3|0:0|0:2,0:0:0:0:
127,32,456147,6,0,L|199:32,2,71.9999978027344,4|2|8,0:3|0:0|0:2,0:0:0:0:
29,138,456958,5,6,0:3:0:0:
255,363,457768,6,0,P|280:258|175:229,1,240,4|0,0:2|0:0,0:0:0:0:
122,169,458579,6,0,P|222:140|348:215,1,240,4|0,0:3|0:0,0:0:0:0:
391,258,459390,5,4,0:3:0:0:
444,107,459795,1,8,0:2:0:0:
307,22,460201,1,4,0:3:0:0:
255,173,460606,1,8,0:0:0:0:
203,22,461012,6,0,P|79:26|81:127,1,240,4|0,0:3|0:0,0:0:0:0:
143,75,461822,6,0,P|153:138|4:159,1,240,4|0,0:3|0:0,0:0:0:0:
74,118,462633,5,4,0:3:0:0:
255,53,463039,1,8,0:0:0:0:
435,118,463444,1,4,0:3:0:0:
346,251,463849,2,0,L|358:336,1,79.9999999999999,2|2,0:2|0:2,0:0:0:0:
280,356,464255,6,0,B|157:338|166:372|42:356,1,240,4|0,0:2|0:0,0:0:0:0:
46,275,465066,6,0,B|170:291|161:257|284:275,1,240,4|0,0:3|0:0,0:0:0:0:
357,243,465876,5,4,0:3:0:0:
255,119,466282,1,8,0:2:0:0:
412,92,466687,1,4,0:3:0:0:
357,243,467093,1,8,0:2:0:0:
255,119,467498,6,0,B|94:126|94:126|97:216,1,240,4|0,0:3|0:0,0:0:0:0:
98,284,468309,6,0,B|259:277|259:277|256:198,1,240,4|0,0:3|0:0,0:0:0:0:
255,119,469120,5,4,0:3:0:0:
421,23,469525,1,8,0:2:0:0:
421,215,469931,1,4,0:3:0:0:
255,119,470336,1,2,0:2:0:0:
89,23,470741,6,0,L|70:264,1,240,4|0,0:2|0:0,0:0:0:0:
150,267,471552,6,0,L|169:26,1,240,4|0,0:3|0:0,0:0:0:0:
247,14,472363,5,4,0:3:0:0:
373,111,472768,1,8,0:0:0:0:
373,271,473174,1,4,0:3:0:0:
247,368,473579,1,8,0:0:0:0:
170,226,473985,6,0,P|117:207|159:302,1,240,4|0,0:3|0:0,0:0:0:0:
229,281,474795,6,0,B|357:259|340:304|467:280,1,240,4|0,0:3|0:0,0:0:0:0:
501,207,475606,5,4,0:3:0:0:
388,52,476012,1,8,0:0:0:0:
255,191,476417,1,4,0:3:0:0:
122,52,476822,1,2,0:2:0:0:
9,207,477228,6,0,B|23:365|23:365|115:355,1,240,4|0,0:2|0:0,0:0:0:0:
181,336,478039,6,0,B|172:255|172:255|330:241,1,240,4|0,0:3|0:0,0:0:0:0:
409,231,478849,5,4,0:3:0:0:
337,87,479255,1,8,0:2:0:0:
173,87,479660,1,4,0:3:0:0:
101,231,480066,1,8,0:2:0:0:
255,272,480471,6,0,L|255:33,1,240,4|0,0:3|0:0,0:0:0:0:
335,33,481282,6,0,L|335:272,1,240,4|0,0:3|0:0,0:0:0:0:
335,353,482093,5,0,0:3:0:0:
64,103,483714,6,0,P|46:171|84:256,2,136.000002593994,2|2|2,0:2|0:2|0:2,0:0:0:0:
177,27,484931,1,2,0:2:0:0:
303,76,485336,6,0,L|450:60,1,136.000002593994,2|2,0:2|0:2,0:0:0:0:
493,185,486147,2,0,L|509:332,1,136.000002593994,2|2,0:0|0:2,0:0:0:0:
377,360,486958,6,0,B|301:347|311:373|243:360,2,136.000002593994,2|2|2,0:2|0:0|0:2,0:0:0:0:
349,226,488174,1,2,0:2:0:0:
213,235,488579,6,0,P|109:226|79:188,1,136.000002593994,2|2,0:2|0:0,0:0:0:0:
119,74,489390,2,0,P|223:83|253:121,1,136.000002593994,2|2,0:2|0:2,0:0:0:0:
341,192,490201,6,0,B|408:185|408:185|472:152,2,136.000002593994,2|2|2,0:2|0:2|0:0,0:0:0:0:
255,86,491417,1,2,0:2:0:0:
169,192,491822,6,0,B|102:185|102:185|38:152,2,136.000002593994,2|2|2,0:2|0:2|0:0,0:0:0:0:
255,86,493039,1,2,0:2:0:0:
341,192,493444,6,0,P|341:288|309:336,1,136.000002593994,2|2,0:2|0:0,0:0:0:0:
187,320,494255,2,0,P|161:258|169:192,1,136.000002593994,2|2,0:2|0:2,0:0:0:0:
255,86,495066,5,2,0:2:0:0:
125,44,495471,1,2,0:0:0:0:
24,135,495876,2,0,L|32:282,1,136.000002593994,2|2,0:2|0:2,0:0:0:0:
146,343,496687,6,0,B|213:353|213:353|280:344,2,136.000002593994,2|2|2,0:2|0:2|0:0,0:0:0:0:
210,222,497903,1,2,0:2:0:0:
344,240,498309,2,0,B|354:173|354:173|345:106,1,136.000002593994,2|2,0:2|0:2,0:0:0:0:
230,32,499120,2,0,B|163:22|163:22|96:31,1,136.000002593994,2|2,0:0|0:2,0:0:0:0:
26,148,499931,6,0,P|35:215|23:281,1,136.000002593994,2|2,0:2|0:0,0:0:0:0:
143,346,500741,2,0,P|210:336|276:348,1,136.000002593994,2|2,0:2|0:2,0:0:0:0:
408,313,501552,5,2,0:2:0:0:
326,203,501958,1,2,0:0:0:0:
433,120,502363,2,0,P|392:53|321:40,1,136.000002593994,2|2,0:2|0:2,0:0:0:0:
210,80,503174,6,0,L|66:70,2,136.000002593994,2|2|2,0:2|0:2|0:0,0:0:0:0:
288,191,504390,1,2,0:2:0:0:
210,302,504795,6,0,L|66:312,2,136.000002593994,2|2|2,0:2|0:2|0:0,0:0:0:0:
291,193,506012,1,2,0:2:0:0:
410,249,506417,6,0,P|422:183|400:120,1,136.000002593994,2|2,0:2|0:0,0:0:0:0:
271,76,507228,2,0,P|204:88|141:66,1,136.000002593994,2|2,0:2|0:2,0:0:0:0:
27,142,508039,5,2,0:2:0:0:
342,333,509660,6,0,L|339:258,1,60.0000022888184,4|0,0:3|0:0,0:0:0:0:
285,246,510066,2,0,L|282:171,1,60.0000022888184,8|0,0:2|0:0,0:0:0:0:
320,139,510471,2,0,L|314:11,1,120.000004577637,4|8,0:3|0:0,0:0:0:0:
195,21,511282,5,4,0:3:0:0:
98,92,511687,1,8,0:2:0:0:
177,182,512093,2,0,P|189:265|172:312,1,120.000004577637,4|8,0:3|0:2,0:0:0:0:
285,353,512903,6,0,L|359:347,1,60.0000022888184,4|0,0:3|0:0,0:0:0:0:
403,361,513309,2,0,L|421:295,1,60.0000022888184,8|0,0:2|0:0,0:0:0:0:
476,285,513714,2,0,L|436:160,1,120.000004577637,4|8,0:3|0:0,0:0:0:0:
338,105,514525,5,4,0:3:0:0:
228,154,514931,1,8,0:2:0:0:
114,115,515336,2,0,P|51:122|12:175,1,120.000004577637,4|8,0:3|0:2,0:0:0:0:
47,278,516147,6,0,P|106:273|120:268,1,60.0000022888184,4|0,0:3|0:0,0:0:0:0:
166,278,516552,2,0,P|201:289|231:286,1,60.0000022888184,8|0,0:2|0:0,0:0:0:0:
276,258,516958,2,0,P|361:244|415:264,1,120.000004577637,4|8,0:3|0:0,0:0:0:0:
501,302,517768,5,4,0:3:0:0:
459,189,518174,1,8,0:2:0:0:
417,76,518579,2,0,P|337:55|303:87,1,120.000004577637,4|8,0:3|0:2,0:0:0:0:
234,164,519390,6,0,P|187:169|163:164,1,60.0000022888184,4|0,0:3|0:0,0:0:0:0:
118,144,519795,2,0,P|90:152|59:155,1,60.0000022888184,8|0,0:2|0:0,0:0:0:0:
0,145,520201,2,0,P|21:213|6:271,1,120.000004577637,4|8,0:3|0:0,0:0:0:0:
113,323,521012,5,4,0:3:0:0:
228,290,521417,1,8,0:2:0:0:
332,349,521822,2,0,L|477:339,1,120.000004577637,4|8,0:3|0:2,0:0:0:0:
479,222,522633,6,0,P|394:105|353:244,1,360.00001373291,2|0,0:2|0:0,0:0:0:0:
408,185,524255,6,0,L|379:26,1,160,2|2,0:2|0:2,0:0:0:0:
301,6,525471,5,2,0:2:0:0:
76,96,549061,6,0,P|67:139|99:221,1,128,4|4,0:3|0:3,0:0:0:0:
217,250,550105,6,0,P|275:239|345:263,1,128,4|8,0:3|0:3,0:0:0:0:
435,174,551150,2,0,L|453:66,2,95.9999999999999,4|8|8,0:3|0:3|0:3,0:0:0:0:
371,163,552195,2,0,B|289:116|259:172|184:129,1,192,4|0,0:3|0:3,0:0:0:0:
127,103,553240,5,4,0:3:0:0:
73,219,553763,1,4,0:3:0:0:
174,297,554285,2,0,L|305:287,1,128,4|8,0:3|0:3,0:0:0:0:
414,227,555330,2,0,P|430:156|422:124,2,95.9999999999999,4|8|8,0:3|0:3|0:3,0:0:0:0:
349,229,556375,2,0,B|329:94|329:94|309:158,1,192,4|0,0:3|0:0,0:0:0:0:
256,178,557420,6,0,P|218:188|122:181,1,128,4|8,0:3|0:3,0:0:0:0:
102,58,558465,6,0,L|240:55,1,128,6|8,0:3|0:3,0:0:0:0:
291,38,559249,1,0,0:0:0:0:
352,55,559510,2,0,P|423:51|458:34,2,95.9999999999999,4|8|8,0:3|0:3|0:3,0:0:0:0:
306,100,560555,6,0,L|316:240,1,128,4|8,0:3|0:3,0:0:0:0:
338,287,561339,1,0,0:0:0:0:
306,342,561600,2,0,P|230:354|203:344,2,95.9999999999999,4|8|8,0:3|0:3|0:3,0:0:0:0:
370,342,562645,6,0,P|473:323|422:101,1,384,4|8,0:3|0:3,0:0:0:0:
402,223,564735,1,4,0:3:0:0:
110,223,565780,6,0,P|118:175|73:112,1,120,4|4,0:3|0:3,0:0:0:0:
177,36,566825,6,0,L|311:45,1,128,4|8,0:3|0:3,0:0:0:0:
412,114,567870,2,0,P|460:96|506:103,2,95.9999999999999,4|8|8,0:3|0:3|0:3,0:0:0:0:
371,164,568915,2,0,B|380:250|380:250|384:285|374:321|333:336,1,192,4|0,0:3|0:3,0:0:0:0:
272,316,569960,5,4,0:3:0:0:
149,354,570483,1,8,0:3:0:0:
44,280,571005,2,0,B|34:214|65:220|54:154,1,128,4|8,0:3|0:3,0:0:0:0:
95,32,572050,2,0,P|47:26|-4:39,2,95.9999999999999,4|8|8,0:3|0:3|0:3,0:0:0:0:
149,66,573095,2,0,L|349:50,1,192,4|0,0:3|0:3,0:0:0:0:
403,61,574140,6,0,P|393:106|467:116,1,128,4|8,0:3|0:3,0:0:0:0:
483,250,575185,6,0,P|394:256|355:240,1,128,6|8,0:3|0:3,0:0:0:0:
296,228,575969,1,0,0:3:0:0:
256,278,576230,2,0,P|238:336|207:365,2,95.9999999999999,4|8|8,0:3|0:3|0:3,0:0:0:0:
212,230,577275,6,0,P|150:245|85:225,1,128,4|8,0:3|0:3,0:0:0:0:
34,194,578059,1,0,0:3:0:0:
19,131,578320,6,0,L|0:30,2,95.9999999999999,4|8|8,0:3|0:3|0:3,0:0:0:0:
79,151,579365,2,0,B|198:105|198:105|283:148|283:148|373:108|373:108|393:136|428:141,1,384,4|8,0:3|0:3,0:0:0:0:
440,61,581455,5,4,0:3:0:0:
151,360,583545,6,0,P|107:278|151:210,1,181.999991668701,4|4,0:3|0:3,0:0:0:0:
361,360,585635,6,0,P|405:278|361:210,1,181.999991668701,4|4,0:3|0:3,0:0:0:0:
188,52,587725,6,0,L|0:70,1,181.999991668701,4|4,0:3|0:3,0:0:0:0:
6,314,589815,6,0,L|165:331,1,155.999992858887,4|0,0:3|0:0,0:0:0:0:
213,336,590860,5,4,0:3:0:0:
420,348,591905,6,0,P|395:276|471:292,1,181.999991668701,4|4,0:3|0:3,0:0:0:0:
469,96,593995,6,0,P|394:107|420:36,1,181.999991668701,4|4,0:3|0:3,0:0:0:0:
245,192,596084,6,0,B|178:167|137:219|67:190,1,181.999991668701,4|4,0:3|0:3,0:0:0:0:
256,53,598174,5,4,0:3:0:0:
82,328,600264,6,0,L|76:259,1,63.9999999999999,4|0,0:3|0:0,0:0:0:0:
115,212,600787,1,8,0:3:0:0:
61,94,601309,2,0,P|115:65|170:94,1,128,4|8,0:3|0:3,0:0:0:0:
268,174,602354,6,0,L|339:167,1,63.9999999999999,4|0,0:3|0:0,0:0:0:0:
391,143,602877,1,8,0:3:0:0:
426,265,603399,2,0,L|291:256,1,128,4|8,0:3|0:3,0:0:0:0:
179,304,604444,6,0,L|116:297,1,63.9999999999999,4|0,0:3|0:0,0:0:0:0:
53,312,604967,1,8,0:3:0:0:
128,208,605489,2,0,P|135:161|131:80,1,128,4|8,0:3|0:3,0:0:0:0:
253,41,606534,6,0,P|296:110|331:41,1,192,4|0,0:3|0:0,0:0:0:0:
387,11,607579,2,0,B|438:30|482:13|482:13|461:56|482:104,1,192,4|8,0:3|0:3,0:0:0:0:
493,167,608624,6,0,L|491:234,1,63.9999999999999,4|0,0:3|0:0,0:0:0:0:
500,294,609147,1,8,0:3:0:0:
381,245,609669,2,0,P|313:227|252:257,1,128,4|8,0:3|0:3,0:0:0:0:
145,301,610714,6,0,L|76:299,1,63.9999999999999,4|0,0:3|0:0,0:0:0:0:
25,267,611237,1,8,0:3:0:0:
126,188,611759,2,0,L|126:54,1,128,4|8,0:3|0:3,0:0:0:0:
246,15,612804,6,0,P|316:10|320:11,1,63.9999999999999,4|0,0:3|0:0,0:0:0:0:
369,29,613327,1,8,0:3:0:0:
455,123,613849,2,0,P|427:154|434:243,1,128,4|8,0:3|0:3,0:0:0:0:
335,322,614894,6,0,B|311:197|311:197|247:209,1,192,4|0,0:3|0:0,0:0:0:0:
184,221,615939,6,0,B|120:233|120:233|96:108,1,192,4|8,0:3|0:3,0:0:0:0:
134,57,616984,6,0,L|209:52,1,63.9999999999999,4|0,0:3|0:0,0:0:0:0:
259,70,617507,1,8,0:3:0:0:
380,29,618029,2,0,B|363:90|363:90|377:159,1,128,4|8,0:3|0:3,0:0:0:0:
429,269,619074,6,0,P|380:276|360:275,1,63.9999999999999,4|0,0:3|0:0,0:0:0:0:
309,245,619596,1,8,0:3:0:0:
181,237,620119,2,0,P|161:283|180:359,1,128,4|8,0:3|0:3,0:0:0:0:
305,341,621164,6,0,L|370:347,1,63.9999999999999,4|0,0:3|0:0,0:0:0:0:
430,330,621686,1,8,0:3:0:0:
364,219,622209,2,0,P|349:149|362:89,1,128,4|8,0:3|0:3,0:0:0:0:
260,14,623254,6,0,B|132:22|132:22|144:50|133:85,1,192,4|0,0:3|0:0,0:0:0:0:
98,138,624299,2,0,P|106:211|145:149,1,192,4|8,0:3|0:3,0:0:0:0:
189,102,625344,6,0,L|264:94,1,63.9999999999999,4|0,0:3|0:0,0:0:0:0:
305,130,625866,1,8,0:3:0:0:
432,114,626389,2,0,B|425:148|446:176|446:176|435:206|441:237,1,128,4|8,0:3|0:3,0:0:0:0:
355,332,627434,6,0,L|291:320,1,63.9999999999999,4|0,0:3|0:0,0:0:0:0:
228,325,627956,1,8,0:3:0:0:
104,289,628479,2,0,L|92:153,1,128,4|8,0:3|0:3,0:0:0:0:
175,63,629524,6,0,P|218:75|242:72,1,63.9999999999999,4|0,0:3|0:0,0:0:0:0:
294,46,630046,1,8,0:3:0:0:
392,128,630569,2,0,P|364:150|363:239,1,128,4|8,0:3|0:3,0:0:0:0:
431,342,631614,6,0,L|230:318,1,192,4|0,0:3|0:0,0:0:0:0:
183,349,632659,2,0,L|164:149,1,192,4|8,0:3|0:3,0:0:0:0:
139,98,633704,6,0,L|271:85,1,128,4|8,0:3|0:3,0:0:0:0:
298,209,634749,2,0,L|430:196,1,128,4|8,0:3|0:3,0:0:0:0:
361,307,635794,6,0,L|229:289,1,128,4|8,0:3|0:3,0:0:0:0:
231,163,636839,2,0,L|99:145,1,128,4|0,0:3|0:0,0:0:0:0:
167,35,637884,6,0,P|244:55|293:39,1,128,4|8,0:3|0:3,0:0:0:0:
400,103,638929,2,0,P|380:180|396:229,1,128,4|0,0:3|0:0,0:0:0:0:
323,332,639974,6,0,B|258:325|258:325|192:339,1,128,4|8,0:3|0:3,0:0:0:0:
111,293,641019,6,0,B|122:260|110:221|110:221|128:192|121:153,1,143.999995605469,6|0,0:3|0:3,0:0:0:0:
116,80,642064,6,0,P|191:39|228:81,1,143.999995605469,4|8,0:3|0:3,0:0:0:0:
272,206,643108,2,0,L|275:281,1,71.9999978027344,4|0,0:3|0:0,0:0:0:0:
321,333,643631,2,0,L|396:330,1,71.9999978027344,8|0,0:3|0:0,0:0:0:0:
451,288,644153,6,0,L|445:138,1,143.999995605469,4|8,0:3|0:3,0:0:0:0:
335,50,645198,2,0,L|216:43,2,107.999996704102,4|8|8,0:3|0:3|0:3,0:0:0:0:
353,119,646243,6,0,P|271:141|215:123,1,143.999995605469,4|8,0:3|0:3,0:0:0:0:
83,178,647288,2,0,L|69:256,1,71.9999978027344,4|0,0:3|0:0,0:0:0:0:
121,299,647811,2,0,L|199:313,1,71.9999978027344,8|0,0:3|0:0,0:0:0:0:
255,278,648333,6,0,P|330:258|402:283,1,143.999995605469,4|8,0:3|0:3,0:0:0:0:
496,177,649378,2,0,L|489:65,1,107.999996704102,4|8,0:3|0:3,0:0:0:0:
386,35,650162,1,8,0:3:0:0:
321,67,650423,6,0,L|164:57,1,143.999995605469,4|8,0:3|0:3,0:0:0:0:
48,122,651468,2,0,P|39:171|44:194,1,71.9999978027344,4|0,0:3|0:0,0:0:0:0:
107,224,651991,2,0,P|116:273|111:296,1,71.9999978027344,8|0,0:3|0:0,0:0:0:0:
73,355,652513,6,0,P|136:335|215:356,1,143.999995605469,4|8,0:3|0:3,0:0:0:0:
354,357,653558,2,0,L|368:243,2,107.999996704102,4|8|8,0:3|0:3|0:3,0:0:0:0:
282,366,654603,6,0,L|272:210,1,143.999995605469,4|8,0:3|0:3,0:0:0:0:
170,120,655648,6,0,L|160:276,1,143.999995605469,4|8,0:3|0:3,0:0:0:0:
256,192,656693,12,0,658457,0:0:0:0:
86,319,667143,6,0,B|73:254|102:261|88:200,1,120,2|0,0:2|0:0,0:0:0:0:
81,160,668188,2,0,L|88:96,1,59.9999999999999,2|0,0:2|0:0,0:0:0:0:
178,59,669233,6,0,P|206:70|236:70,1,59.9999999999999,2|0,0:2|0:0,0:0:0:0:
329,33,670278,2,0,L|351:156,1,120,2|0,0:2|0:0,0:0:0:0:
372,184,671323,6,0,P|370:207|394:301,1,120,2|0,0:2|0:0,0:0:0:0:
391,339,672368,2,0,L|326:349,1,59.9999999999999,2|0,0:2|0:0,0:0:0:0:
236,317,673413,6,0,L|176:313,1,59.9999999999999,2|0,0:2|0:0,0:0:0:0:
108,247,674458,2,0,P|142:205|149:139,1,120,2|0,0:2|0:0,0:0:0:0:
143,77,675503,6,0,L|151:12,1,63.9999999999999,2|0,0:0|0:0,0:0:0:0:
214,16,676025,2,0,L|279:24,1,63.9999999999999,2|0,0:0|0:0,0:0:0:0:
341,21,676548,2,0,L|347:121,1,95.9999999999999,2|2,0:0|0:0,0:0:0:0:
363,276,677593,6,0,L|292:285,1,63.9999999999999,2|0,0:0|0:0,0:0:0:0:
256,236,678115,2,0,L|185:227,1,63.9999999999999,2|0,0:0|0:0,0:0:0:0:
139,263,678638,2,0,L|68:272,2,63.9999999999999,2|2|2,0:0|0:0|0:0,0:0:0:0:
172,139,679683,6,0,P|187:81|193:73,1,63.9999999999999,2|0,0:0|0:0,0:0:0:0:
252,78,680205,2,0,P|280:91|312:94,1,63.9999999999999,2|0,0:0|0:0,0:0:0:0:
375,80,680728,1,2,0:0:0:0:
459,125,681120,1,2,0:0:0:0:
374,260,681773,6,0,B|338:250|313:270|278:260,2,95.9999999999999,2|2|2,0:0|0:0|0:0,0:0:0:0:
420,304,682818,1,2,0:0:0:0:
363,54,683863,6,0,L|295:63,1,63.9999999999999,2|0,0:0|0:0,0:0:0:0:
236,53,684385,2,0,L|168:62,1,63.9999999999999,2|0,0:0|0:0,0:0:0:0:
116,30,684908,2,0,L|105:138,1,95.9999999999999,2|2,0:0|0:0,0:0:0:0:
198,256,685953,6,0,P|202:290|200:319,1,63.9999999999999,2|0,0:0|0:0,0:0:0:0:
259,342,686475,2,0,P|293:338|322:340,1,63.9999999999999,2|0,0:0|0:0,0:0:0:0:
385,328,686998,2,0,L|390:260,2,63.9999999999999,2|2|2,0:0|0:0|0:0,0:0:0:0:
477,239,688043,6,0,P|479:188|476:173,1,63.9999999999999,2|0,0:0|0:0,0:0:0:0:
412,169,688565,2,0,P|379:176|345:174,1,63.9999999999999,2|0,0:0|0:0,0:0:0:0:
285,165,689087,1,2,0:0:0:0:
224,90,689479,1,2,0:0:0:0:
79,157,690132,6,0,P|70:220|76:262,2,95.9999999999999,2|2|2,0:0|0:0|0:0,0:0:0:0:
101,97,691177,2,0,P|140:60|231:142,1,192,2|2,0:0|0:0,0:0:0:0:
265,183,692222,6,0,P|256:246|262:288,2,95.9999999999999,2|2|2,0:0|0:0|0:0,0:0:0:0:
287,123,693267,2,0,P|326:86|417:168,1,192,2|2,0:0|0:0,0:0:0:0:
395,214,694312,6,0,P|404:277|398:319,2,95.9999999999999,2|2|2,0:0|0:0|0:0,0:0:0:0:
373,154,695357,2,0,P|334:117|243:199,1,192,2|2,0:0|0:0,0:0:0:0:
211,242,696402,6,0,P|220:305|214:347,2,95.9999999999999,2|2|2,0:0|0:0|0:0,0:0:0:0:
189,182,697447,2,0,P|150:145|59:227,1,192,2|2,0:0|0:0,0:0:0:0:
66,293,698492,5,4,0:0:0:0:
166,359,698884,1,4,0:0:0:0:
256,280,699276,1,4,0:0:0:0:
332,301,699537,5,4,0:0:0:0:
281,192,699929,1,4,0:0:0:0:
332,83,700321,1,4,0:0:0:0:
256,56,700582,5,4,0:0:0:0:
141,93,700974,1,4,0:0:0:0:
203,194,701366,1,4,0:0:0:0:
256,255,701627,5,4,0:0:0:0:
256,134,702019,1,4,0:0:0:0:
256,13,702411,1,4,0:0:0:0:
311,74,702672,5,4,0:0:0:0:
256,192,721991,12,0,727308,0:0:0:0:
70,99,728344,6,0,L|202:91,1,128,4|8,0:3|0:2,0:0:0:0:
325,83,728975,2,0,L|457:75,1,128,4|8,0:3|0:2,0:0:0:0:
467,202,729607,2,0,L|66:226,1,384,4|8,0:3|0:2,0:0:0:0:
90,353,730870,2,0,L|490:328,1,384,4|8,0:3|0:2,0:0:0:0:
467,202,732133,6,0,P|455:124|460:68,1,128,4|8,0:3|0:2,0:0:0:0:
340,24,732765,2,0,P|352:102|347:158,1,128,4|8,0:3|0:2,0:0:0:0:
388,272,733396,2,0,P|162:237|0:251,1,384,4|8,0:3|0:2,0:0:0:0:
2,122,734659,2,0,P|227:156|389:142,1,384,4|8,0:3|0:2,0:0:0:0:
472,234,735922,6,0,L|482:363,1,128,4|8,0:3|0:2,0:0:0:0:
354,374,736554,2,0,L|344:245,1,128,4|8,0:3|0:2,0:0:0:0:
207,249,737186,2,0,B|80:260|80:260|72:132|72:132|204:123,1,384,4|8,0:3|0:2,0:0:0:0:
327,111,738449,2,0,B|454:100|454:100|462:228|462:228|334:236,1,384,4|8,0:3|0:2,0:0:0:0:
263,343,739712,6,0,P|313:369|386:356,1,128,4|8,0:3|0:2,0:0:0:0:
334,236,740344,2,0,P|284:210|211:223,1,128,4|8,0:3|0:0,0:0:0:0:
137,322,740975,2,0,P|194:254|78:22,1,384,4|8,0:3|0:2,0:0:0:0:
52,147,742238,2,0,P|120:204|352:88,1,384,4|8,0:3|0:2,0:0:0:0:
462,154,743501,6,0,L|468:288,1,128,4|8,0:3|0:2,0:0:0:0:
360,352,744133,2,0,L|226:358,1,128,4|8,0:3|0:2,0:0:0:0:
119,295,744765,2,0,B|113:168|113:168|375:153,1,384,4|8,0:3|0:2,0:0:0:0:
497,145,746028,2,0,B|487:18|487:18|225:35,1,384,4|8,0:3|0:2,0:0:0:0:
167,146,747291,6,0,P|176:232|167:273,1,128,4|8,0:3|0:2,0:0:0:0:
285,322,747922,2,0,P|276:236|285:195,1,128,4|8,0:3|0:2,0:0:0:0:
399,139,748554,2,0,B|418:265|418:265|518:218|482:70|449:30,1,384,4|8,0:3|0:2,0:0:0:0:
327,26,749817,2,0,B|203:77|78:11|78:11|96:76|80:138,1,384,4|8,0:3|0:2,0:0:0:0:
58,261,751080,6,0,L|190:288,1,128,4|8,0:3|0:2,0:0:0:0:
246,301,751554,1,0,0:0:0:0:
372,318,751870,2,0,L|464:309,2,63.9999999999999,8|8|0,0:0|0:2|0:0,0:0:0:0:
336,264,752344,5,4,0:3:0:0:
381,144,752659,2,0,L|473:135,2,63.9999999999999,8|0|4,0:2|0:0|0:3,0:0:0:0:
316,146,753133,5,8,0:0:0:0:
252,148,753291,1,8,0:2:0:0:
188,151,753449,1,8,0:0:0:0:
124,154,753607,6,0,L|111:300,1,128,4|8,0:3|0:2,0:0:0:0:
104,344,754080,1,0,0:0:0:0:
231,327,754396,2,0,P|234:268|224:236,2,63.9999999999999,8|8|0,0:0|0:2|0:0,0:0:0:0:
270,378,754870,6,0,L|411:364,1,128,4|8,0:3|0:2,0:0:0:0:
460,354,755344,1,0,0:0:0:0:
476,227,755659,5,8,0:0:0:0:
468,163,755817,1,8,0:2:0:0:
426,114,755975,1,8,0:0:0:0:
363,101,756133,6,0,P|299:112|230:99,1,128,4|8,0:3|0:2,0:0:0:0:
180,72,756607,1,0,0:0:0:0:
80,151,756922,2,0,L|78:233,2,63.9999999999999,8|8|0,0:0|0:2|0:0,0:0:0:0:
85,86,757396,6,0,L|88:15,1,63.9999999999999,4|0,0:3|0:0,0:0:0:0:
152,23,757712,2,0,L|223:26,1,63.9999999999999,8|0,0:2|0:0,0:0:0:0:
280,32,758028,2,0,L|275:102,1,63.9999999999999,4|0,0:3|0:0,0:0:0:0:
339,102,758344,2,0,L|409:106,1,63.9999999999999,8|0,0:2|0:0,0:0:0:0:
466,112,758659,6,0,B|482:365|482:365|424:225,1,384
390,149,759922,5,2,0:2:0:0:
299,326,760554,1,2,0:2:0:0:
122,235,761186,1,2,0:2:0:0:
213,58,761818,1,2,0:2:0:0:
390,149,762449,5,2,0:2:0:0:
299,326,763081,1,2,0:2:0:0:
122,235,763713,1,2,0:2:0:0:
213,58,764345,1,2,0:2:0:0:
390,149,764975,6,0,P|400:96|383:39,2,103.999995239258,2|2|2,0:2|0:2|0:2,0:0:0:0:
339,240,765922,1,2,0:2:0:0:
239,209,766238,6,0,P|172:201|127:214,2,103.999995239258,2|2|2,0:2|0:2|0:2,0:0:0:0:
339,240,767186,1,2,0:2:0:0:
405,319,767501,6,0,P|469:339|508:332,2,103.999995239258,2|2|2,0:2|0:2|0:2,0:0:0:0:
339,240,768449,1,2,0:2:0:0:
267,315,768765,6,0,L|57:325,1,207.999990478516,2|2,0:2|0:2,0:0:0:0:
26,119,770028,6,0,L|36:9,2,103.999995239258,2|2|2,0:2|0:2|0:2,0:0:0:0:
82,206,770975,1,2,0:2:0:0:
160,138,771291,6,0,L|171:23,2,103.999995239258,2|2|2,0:2|0:2|0:2,0:0:0:0:
216,225,772238,1,2,0:2:0:0:
292,154,772554,6,0,L|302:44,2,103.999995239258,2|2|2,0:2|0:2|0:2,0:0:0:0:
348,241,773501,1,2,0:2:0:0:
431,179,773817,6,0,P|451:254|365:344,1,207.999990478516,2|2,0:2|0:2,0:0:0:0:
166,298,775080,6,0,B|64:315|64:315|82:107,1,311.999985717774
179,73,776344,5,2,0:2:0:0:
374,115,776975,1,2,0:2:0:0:
332,310,777607,1,2,0:2:0:0:
137,268,778238,1,2,0:0:0:0:
171,61,778870,5,2,0:2:0:0:
385,107,779501,1,2,0:2:0:0:
339,321,780133,1,2,0:0:0:0:
125,275,780765,1,2,0:0:0:0:
179,73,781396,6,0,L|284:72,2,103.999995239258,2|2|2,0:2|0:2|0:2,0:0:0:0:
154,174,782344,1,2,0:2:0:0:
115,270,782659,6,0,L|10:268,1,103.999995239258,2|2,0:2|0:2,0:0:0:0:
37,368,783291,2,0,L|141:369,1,103.999995239258,2|2,0:2|0:2,0:0:0:0:
245,372,783922,6,0,P|331:373|357:361,2,103.999995239258,2|2|2,0:2|0:2|0:2,0:0:0:0:
201,277,784870,1,2,0:2:0:0:
266,195,785186,6,0,B|318:173|370:194|395:215|395:215|425:240|467:238,1,207.999990478516,2|2,0:2|0:2,0:0:0:0:
332,73,786449,6,0,L|228:72,2,103.999995239258,2|2|2,0:2|0:2|0:2,0:0:0:0:
358,174,787397,1,2,0:2:0:0:
397,270,787712,6,0,L|501:268,1,103.999995239258,2|2,0:2|0:2,0:0:0:0:
475,368,788344,2,0,L|370:369,1,103.999995239258,2|2,0:2|0:2,0:0:0:0:
267,372,788975,6,0,P|181:373|155:361,2,103.999995239258,2|2|2,0:2|0:2|0:2,0:0:0:0:
311,277,789923,1,2,0:2:0:0:
259,186,790239,6,0,B|211:156|156:167|128:184|128:184|94:203|53:194,1,207.999990478516,2|2,0:2|0:2,0:0:0:0:
198,40,791501,6,0,B|407:61|407:61|304:82,1,311.999985717774
222,177,792765,6,0,P|215:232|251:296,1,128,4|8,0:3|0:2,0:0:0:0:
374,270,793396,2,0,P|381:215|345:151,1,128,4|8,0:3|0:2,0:0:0:0:
256,61,794028,1,4,0:3:0:0:
130,33,794344,1,8,0:2:0:0:
58,138,794659,1,4,0:3:0:0:
176,365,795291,6,0,L|322:355,1,128,4|8,0:3|0:2,0:0:0:0:
236,247,795922,2,0,L|382:237,1,128,4|8,0:3|0:2,0:0:0:0:
478,179,796554,1,4,0:3:0:0:
379,97,796870,1,8,0:2:0:0:
256,134,797186,1,4,0:3:0:0:
133,97,797501,1,8,0:2:0:0:
34,179,797817,6,0,P|45:241|44:305,1,128,4|8,0:3|0:2,0:0:0:0:
167,344,798449,2,0,P|166:280|178:217,1,128,4|8,0:3|0:2,0:0:0:0:
274,132,799080,1,4,0:3:0:0:
398,161,799396,1,8,0:2:0:0:
361,38,799712,1,4,0:3:0:0:
108,83,800344,6,0,L|90:214,1,128,4|8,0:3|0:2,0:0:0:0:
218,216,800975,2,0,L|236:347,1,128,4|8,0:3|0:2,0:0:0:0:
363,358,801607,1,4,0:3:0:0:
462,278,801922,1,8,0:2:0:0:
367,192,802238,1,4,0:3:0:0:
462,106,802554,1,8,0:2:0:0:
363,26,802870,6,0,P|295:40|229:30,1,128,4|8,0:3|0:2,0:0:0:0:
118,80,803501,2,0,P|110:143|124:205,1,128,4|8,0:3|0:2,0:0:0:0:
170,325,804133,1,4,0:3:0:0:
256,230,804449,1,8,0:2:0:0:
342,325,804765,1,4,0:3:0:0:
448,92,805396,6,0,L|315:82,1,128,4|8,0:3|0:2,0:0:0:0:
191,82,806028,2,0,L|64:92,1,128,4|8,0:3|0:2,0:0:0:0:
51,219,806659,1,4,0:3:0:0:
131,318,806975,1,8,0:2:0:0:
256,342,807291,1,4,0:3:0:0:
381,318,807607,1,8,0:2:0:0:
461,219,807922,6,0,L|446:84,1,128,4|8,0:3|0:2,0:0:0:0:
353,179,808554,2,0,L|338:44,1,128,4|8,0:3|0:2,0:0:0:0:
211,37,809186,1,4,0:3:0:0:
87,69,809501,1,8,0:2:0:0:
48,191,809817,1,4,0:3:0:0:
236,364,810449,6,0,P|304:361|367:330,1,128,4|8,0:3|0:2,0:0:0:0:
315,215,811080,2,0,P|247:212|184:181,1,128,4|8,0:3|0:2,0:0:0:0:
98,100,811712,1,4,0:3:0:0:
194,15,812028,1,8,0:2:0:0:
256,126,812344,1,4,0:3:0:0:
318,15,812659,1,8,0:2:0:0:
414,100,812975,6,0,L|400:235,1,128,4|8,0:3|0:2,0:0:0:0:
390,290,813449,1,0,0:0:0:0:
261,274,813765,2,0,P|230:270|198:277,2,63.9999999999999,8|8|0,0:0|0:2|0:0,0:0:0:0:
318,245,814238,5,4,0:3:0:0:
226,155,814554,2,0,P|194:150|162:157,2,63.9999999999999,8|0|4,0:2|0:0|0:3,0:0:0:0:
282,125,815027,1,8,0:0:0:0:
343,143,815186,1,8,0:2:0:0:
407,141,815344,1,8,0:0:0:0:
468,122,815501,6,0,L|484:261,1,128,4|8,0:3|0:2,0:0:0:0:
472,312,815975,1,0,0:0:0:0:
345,292,816291,2,0,L|264:306,2,63.9999999999999,8|8|0,0:0|0:2|0:0,0:0:0:0:
366,231,816765,5,4,0:3:0:0:
256,165,817080,1,8,0:2:0:0:
192,158,817238,1,0,0:0:0:0:
129,144,817396,1,4,0:3:0:0:
66,128,817554,2,0,L|-13:126,2,63.9999999999999,8|8|8,0:0|0:2|0:0,0:0:0:0:
92,69,818028,6,0,P|167:47|218:61,1,128,4|8,0:3|0:2,0:0:0:0:
268,91,818501,1,0,0:0:0:0:
394,73,818817,2,0,L|469:82,2,63.9999999999999,8|8|0,0:0|0:2|0:0,0:0:0:0:
353,122,819291,6,0,L|361:191,1,63.9999999999999,4|0,0:3|0:0,0:0:0:0:
375,248,819607,2,0,L|444:240,1,63.9999999999999,8|0,0:2|0:0,0:0:0:0:
502,239,819922,2,0,L|494:308,1,63.9999999999999,4|0,0:3|0:0,0:0:0:0:
480,365,820238,2,0,L|411:357,1,63.9999999999999,8|0,0:2|0:0,0:0:0:0:
355,337,820554,6,0,B|97:368|97:368|185:279|185:279|129:243|126:154,1,511.999999999999,0|0,0:0|0:0,0:0:0:0:
193,102,845655,6,0,P|113:108|64:172,1,160,4|4,0:3|0:3,0:0:0:0:
128,313,847061,2,0,P|205:308|255:248,1,160,4|4,0:3|0:3,0:0:0:0:
319,102,848467,6,0,P|399:108|448:172,1,160,4|4,0:3|0:3,0:0:0:0:
384,313,849873,2,0,P|306:308|256:248,1,160,4|4,0:3|0:3,0:0:0:0:
192,101,851279,6,0,B|133:139|58:143|58:143|136:212|124:299,1,320,4|4,0:3|0:3,0:0:0:0:
256,207,853389,1,4,0:3:0:0:
386,298,854092,2,0,L|409:128,1,160,4|4,0:3|0:3,0:0:0:0:
257,84,855498,2,0,L|234:254,1,160,4|4,0:3|0:3,0:0:0:0:
366,334,856904,6,0,P|454:321|482:252,1,160,4|4,0:3|0:3,0:0:0:0:
449,106,858310,2,0,P|372:101|332:35,1,160,4|4,0:3|0:3,0:0:0:0:
179,35,859716,6,0,P|139:101|63:106,1,160,4|4,0:3|0:3,0:0:0:0:
29,263,861122,2,0,P|69:329|146:334,1,160,4|4,0:3|0:3,0:0:0:0:
305,348,862528,6,0,B|313:305|282:276|282:276|311:265|326:238|326:238|282:157|311:58,1,320,4|4,0:3|0:3,0:0:0:0:
157,12,864638,1,4,0:3:0:0:
42,123,865341,6,0,L|53:287,1,160,4|4,0:3|0:3,0:0:0:0:
203,337,866747,2,0,L|213:177,1,160,4|4,0:3|0:3,0:0:0:0:
256,23,868153,5,2,0:0:0:0:
204,67,890651,6,0,L|107:57,1,79.9999999999999,4|8,0:3|0:2,0:0:0:0:
96,152,891354,2,0,L|191:161,1,79.9999999999999,4|8,0:3|0:2,0:0:0:0:
278,202,892057,2,0,L|273:259,2,40,4|0|8,0:3|0:0|0:2,0:0:0:0:
298,158,892585,2,0,P|349:167|398:163,1,79.9999999999999,0|0,0:0|0:0,0:0:0:0:
436,143,893112,1,8,0:2:0:0:
491,221,893464,6,0,L|504:325,1,79.9999999999999,4|8,0:3|0:2,0:0:0:0:
411,345,894167,2,0,L|353:349,2,40,4|0|8,0:3|0:0|0:2,0:0:0:0:
446,377,894694,1,0,0:0:0:0:
350,269,895221,1,8,0:2:0:0:
256,245,895573,1,4,0:3:0:0:
162,269,895924,1,8,0:2:0:0:
75,226,896276,6,0,P|65:157|70:125,1,79.9999999999999,4|8,0:3|0:2,0:0:0:0:
157,94,896979,2,0,P|153:141|164:193,1,79.9999999999999,4|8,0:3|0:2,0:0:0:0:
247,233,897682,2,0,L|303:228,2,40,4|0|8,0:3|0:0|0:2,0:0:0:0:
217,270,898209,2,0,P|256:303|299:317,1,79.9999999999999,0|0,0:0|0:0,0:0:0:0:
340,317,898737,1,8,0:2:0:0:
408,249,899088,6,0,P|417:184|413:147,1,79.9999999999999,4|8,0:3|0:2,0:0:0:0:
335,98,899791,2,0,L|277:93,2,40,4|0|8,0:3|0:0|0:2,0:0:0:0:
374,70,900318,1,0,0:0:0:0:
281,183,900846,1,8,0:2:0:0:
256,275,901197,1,4,0:3:0:0:
232,368,901549,1,8,0:2:0:0:
159,305,901900,6,0,L|57:311,1,79.9999999999999,4|8,0:3|0:2,0:0:0:0:
55,214,902603,2,0,L|49:112,1,79.9999999999999,4|8,0:3|0:2,0:0:0:0:
146,106,903306,2,0,L|242:101,1,79.9999999999999,4|8,0:3|0:2,0:0:0:0:
250,197,904009,2,0,L|256:293,1,79.9999999999999,4|8,0:3|0:2,0:0:0:0:
353,305,904713,6,0,L|455:311,1,79.9999999999999,4|8,0:3|0:2,0:0:0:0:
457,214,905416,2,0,L|463:112,1,79.9999999999999,4|8,0:3|0:2,0:0:0:0:
365,106,906119,2,0,L|270:101,1,79.9999999999999,4|8,0:3|0:2,0:0:0:0:
261,197,906822,2,0,L|256:293,1,79.9999999999999,4|8,0:3|0:2,0:0:0:0:
165,328,907525,6,0,P|118:334|70:330,1,79.9999999999999,4|8,0:3|0:2,0:0:0:0:
17,248,908228,2,0,P|11:201|15:153,1,79.9999999999999,4|8,0:3|0:2,0:0:0:0:
106,118,908931,2,0,P|153:111|201:115,1,79.9999999999999,4|8,0:3|0:2,0:0:0:0:
254,197,909634,2,0,P|260:244|256:292,1,79.9999999999999,4|8,0:3|0:2,0:0:0:0:
346,328,910337,6,0,P|393:334|441:330,1,79.9999999999999,4|8,0:3|0:2,0:0:0:0:
494,248,911040,2,0,P|500:201|496:153,1,79.9999999999999,4|8,0:3|0:2,0:0:0:0:
406,118,911743,2,0,P|358:111|310:115,1,79.9999999999999,4|8,0:3|0:2,0:0:0:0:
258,197,912446,2,0,P|251:244|255:292,1,79.9999999999999,4|8,0:3|0:2,0:0:0:0:
173,343,913149,5,4,0:3:0:0:
111,269,913501,2,0,L|107:208,1,40,8|0,0:2|0:0,0:0:0:0:
74,186,913853,2,0,L|89:79,1,79.9999999999999,4|8,0:3|0:0,0:0:0:0:
174,50,914556,5,4,0:3:0:0:
269,55,914907,2,0,L|331:44,2,40,8|0|4,0:2|0:0|0:3,0:0:0:0:
224,139,915610,1,8,0:2:0:0:
316,164,915962,5,4,0:3:0:0:
403,124,916313,2,0,L|407:70,1,40,8|0,0:2|0:0,0:0:0:0:
441,42,916665,1,4,0:3:0:0:
496,120,917016,1,8,0:0:0:0:
438,197,917368,6,0,P|430:239|441:303,1,79.9999999999999,2|8,0:2|0:2,0:0:0:0:
342,309,918071,2,0,P|350:267|339:203,1,79.9999999999999,2|8,0:2|0:2,0:0:0:0:
253,179,918774,5,4,0:3:0:0:
162,210,919126,2,0,L|99:205,1,40,8|0,0:0|0:0,0:0:0:0:
72,181,919477,2,0,L|80:288,1,79.9999999999999,4|8,0:3|0:0,0:0:0:0:
156,334,920180,5,4,0:3:0:0:
230,272,920532,2,0,L|227:221,2,40,8|0|4,0:0|0:0|0:3,0:0:0:0:
315,316,921235,1,8,0:0:0:0:
402,276,921586,5,4,0:3:0:0:
340,201,921938,2,0,L|347:136,1,40,8|0,0:2|0:0,0:0:0:0:
377,117,922289,1,4,0:3:0:0:
289,76,922641,1,8,0:0:0:0:
224,147,922992,6,0,L|118:154,1,79.9999999999999,2|8,0:0|0:2,0:0:0:0:
90,64,923696,2,0,L|196:57,1,79.9999999999999,2|8,0:0|0:2,0:0:0:0:
275,23,924399,5,4,0:3:0:0:
364,56,924750,2,0,L|416:47,1,40,8|0,0:2|0:0,0:0:0:0:
454,25,925102,2,0,P|436:93|443:124,1,79.9999999999999,4|8,0:3|0:0,0:0:0:0:
478,205,925805,5,4,0:3:0:0:
397,257,926156,2,0,L|390:309,2,40,8|0|4,0:2|0:0|0:3,0:0:0:0:
335,182,926859,1,8,0:0:0:0:
259,241,927211,5,4,0:3:0:0:
188,175,927562,2,0,L|132:172,1,40,8|0,0:2|0:0,0:0:0:0:
95,154,927914,1,4,0:3:0:0:
151,76,928265,1,8,0:0:0:0:
246,61,928617,6,0,P|310:71|353:63,1,79.9999999999999,2|8,0:2|0:0,0:0:0:0:
424,113,929320,2,0,P|414:159|418:207,1,79.9999999999999,2|8,0:2|0:0,0:0:0:0:
474,285,930023,5,4,0:3:0:0:
384,319,930375,2,0,L|318:323,1,40,8|0,0:2|0:0,0:0:0:0:
300,354,930726,2,0,L|200:341,1,79.9999999999999,4|8,0:3|0:0,0:0:0:0:
161,255,931429,5,4,0:3:0:0:
100,180,931781,2,0,L|46:174,2,40,8|0|4,0:2|0:0|0:3,0:0:0:0:
179,126,932484,1,8,0:0:0:0:
256,183,932835,5,4,0:3:0:0:
333,126,933187,2,0,L|400:134,1,40,8|0,0:2|0:0,0:0:0:0:
428,139,933539,1,4,0:3:0:0:
464,227,933890,1,8,0:0:0:0:
412,307,934242,6,0,P|349:296|305:311,1,79.9999999999999,2|8,0:2|0:2,0:0:0:0:
223,317,934945,2,0,P|176:325|129:313,1,79.9999999999999,2|8,0:2|0:2,0:0:0:0:
90,225,935648,5,4,0:3:0:0:
145,146,935999,1,8,0:2:0:0:
107,57,936351,2,0,L|221:45,1,79.9999999999999,4|8,0:3|0:2,0:0:0:0:
294,74,937054,2,0,L|360:80,2,40,4|0|8,0:3|0:0|0:2,0:0:0:0:
263,110,937581,2,0,L|276:214,1,79.9999999999999,0|0,0:0|0:0,0:0:0:0:
279,253,938108,1,8,0:2:0:0:
205,314,938460,6,0,L|107:324,1,79.9999999999999,4|8,0:3|0:2,0:0:0:0:
65,238,939163,2,0,L|60:185,2,40,4|0|8,0:3|0:0|0:2,0:0:0:0:
26,267,939690,1,0,0:0:0:0:
13,123,940218,1,8,0:2:0:0:
106,104,940569,1,4,0:3:0:0:
200,85,940921,1,8,0:2:0:0:
270,150,941272,6,0,P|314:155|377:148,1,79.9999999999999,4|8,0:3|0:2,0:0:0:0:
427,223,941975,2,0,P|421:270|426:318,1,79.9999999999999,4|8,0:3|0:2,0:0:0:0:
339,358,942678,2,0,L|287:363,2,40,4|0|8,0:3|0:0|0:2,0:0:0:0:
311,318,943206,2,0,L|212:323,1,79.9999999999999,0|0,0:0|0:0,0:0:0:0:
167,322,943733,1,8,0:2:0:0:
91,262,944085,5,4,0:3:0:0:
59,171,944436,1,8,0:2:0:0:
126,101,944788,2,0,P|128:78|127:54,1,40,4|0,0:3|0:0,0:0:0:0:
171,34,945139,2,0,P|194:36|218:34,1,40,8|0,0:2|0:0,0:0:0:0:
264,20,945491,2,0,L|371:25,1,79.9999999999999,4|8,0:3|0:2,0:0:0:0:
379,118,946194,2,0,L|272:123,1,79.9999999999999,4|8,0:3|0:2,0:0:0:0:
233,204,946897,5,4,0:3:0:0:
256,296,947248,1,8,0:2:0:0:
177,351,947600,2,0,L|77:342,1,79.9999999999999,4|8,0:3|0:2,0:0:0:0:
37,256,948303,2,0,L|35:194,2,40,4|0|8,0:3|0:0|0:2,0:0:0:0:
81,274,948830,2,0,P|116:221|113:176,1,79.9999999999999,0|0,0:0|0:0,0:0:0:0:
106,142,949358,1,8,0:2:0:0:
176,76,949709,6,0,L|279:65,1,79.9999999999999,4|8,0:3|0:2,0:0:0:0:
366,83,950412,2,0,P|370:39|367:25,2,40,4|0|8,0:3|0:0|0:2,0:0:0:0:
339,123,950939,1,0,0:0:0:0:
376,262,951467,1,8,0:2:0:0:
286,296,951818,1,4,0:3:0:0:
193,268,952170,1,8,0:2:0:0:
161,177,952521,6,0,P|162:114|145:81,1,79.9999999999999,4|8,0:3|0:2,0:0:0:0:
54,105,953224,2,0,P|53:168|70:201,1,79.9999999999999,4|8,0:3|0:2,0:0:0:0:
111,282,953928,2,0,L|102:341,2,40,4|0|8,0:3|0:0|0:2,0:0:0:0:
154,260,954455,2,0,P|213:251|255:266,1,79.9999999999999,0|0,0:0|0:0,0:0:0:0:
289,282,954982,1,8,0:2:0:0:
383,266,955334,5,4,0:3:0:0:
323,190,955685,1,8,0:2:0:0:
418,180,956037,2,0,P|441:181|465:175,1,40,4|0,0:3|0:0,0:0:0:0:
492,136,956388,2,0,P|493:112|487:88,1,40,8|0,0:2|0:0,0:0:0:0:
451,56,956740,2,0,P|376:63|351:56,1,79.9999999999999,4|8,0:3|0:2,0:0:0:0:
261,44,957443,2,0,P|186:37|161:44,1,79.9999999999999,4|8,0:3|0:2,0:0:0:0:
84,284,969395,5,4,0:3:0:0:
178,266,969747,1,8,0:2:0:0:
270,292,970098,1,4,0:3:0:0:
400,230,970625,2,0,P|403:144|365:103,1,120,0|8,0:0|0:2,0:0:0:0:
271,92,971504,2,0,L|173:83,1,79.9999999999999,4|8,0:3|0:2,0:0:0:0:
82,59,972207,6,0,L|98:218,1,160,4|4,0:3|0:3,0:0:0:0:
13,358,973438,2,0,P|94:305|191:320,1,200,0|4,0:0|0:3,0:0:0:0:
405,352,975020,5,4,0:3:0:0:
425,258,975371,1,8,0:2:0:0:
446,164,975723,1,4,0:3:0:0:
335,71,976250,2,0,B|254:56|254:56|210:83,1,120,0|8,0:0|0:2,0:0:0:0:
224,182,977129,2,0,P|228:234|218:283,1,79.9999999999999,4|8,0:3|0:2,0:0:0:0:
133,318,977832,5,4,0:3:0:0:
75,241,978183,1,8,0:2:0:0:
114,153,978535,1,4,0:3:0:0:
56,75,978887,2,0,P|131:57|193:104,1,160,8|8,0:2|0:2,0:0:0:0:
303,131,979941,2,0,P|324:89|361:63,1,79.9999999999999,4|8,0:3|0:2,0:0:0:0:
458,86,980644,5,4,0:3:0:0:
482,178,980996,1,8,0:2:0:0:
440,264,981347,1,4,0:3:0:0:
299,231,981875,2,0,L|150:245,1,120,0|8,0:0|0:2,0:0:0:0:
65,210,982753,2,0,P|81:148|74:104,1,79.9999999999999,4|8,0:3|0:2,0:0:0:0:
80,20,983456,6,0,P|145:51|241:53,1,160,4|4,0:3|0:3,0:0:0:0:
382,60,984687,2,0,B|391:221|391:221|369:185,1,200,0|4,0:0|0:3,0:0:0:0:
213,110,986269,5,4,0:3:0:0:
179,199,986620,1,8,0:2:0:0:
200,292,986972,1,4,0:3:0:0:
335,341,987499,2,0,P|392:341|476:301,1,120,0|8,0:0|0:2,0:0:0:0:
410,230,988378,2,0,L|413:123,1,79.9999999999999,4|8,0:3|0:2,0:0:0:0:
352,58,989081,5,4,0:3:0:0:
266,14,989433,1,8,0:2:0:0:
186,67,989784,1,4,0:3:0:0:
99,23,990136,2,0,P|102:115|182:165,1,160,8|8,0:2|0:2,0:0:0:0:
256,222,991190,2,0,L|256:321,1,79.9999999999999,4|8,0:3|0:2,0:0:0:0:
174,114,997518,6,0,P|244:131|272:126,1,79.9999999999999,4|8,0:3|0:2,0:0:0:0:
364,159,998221,2,0,P|314:212|305:238,1,79.9999999999999,4|8,0:3|0:2,0:0:0:0:
229,302,998924,2,0,P|209:232|190:211,1,79.9999999999999,4|8,0:3|0:2,0:0:0:0:
174,114,999627,1,4,0:3:0:0:
256,64,999979,1,8,0:2:0:0:
338,114,1000330,6,0,B|417:136|495:101|495:101|422:219|482:329,1,399.999999999999,2|0,0:0|0:0,0:0:0:0:
280,76,1024562,6,0,L|370:83,1,90.0000034332276,2|0,0:0|0:0,0:0:0:0:
412,169,1025162,2,0,L|322:176,1,90.0000034332276,2|0,0:0|0:0,0:0:0:0:
256,237,1025762,2,0,L|256:298,1,60.0000022888184,2|0,0:0|0:0,0:0:0:0:
200,320,1026162,6,0,L|110:313,1,90.0000034332276,2|0,0:0|0:0,0:0:0:0:
68,227,1026762,2,0,L|158:220,1,90.0000034332276,2|0,0:0|0:0,0:0:0:0:
224,159,1027362,2,0,L|224:98,1,60.0000022888184,2|0,0:0|0:0,0:0:0:0:
181,54,1027762,6,0,P|137:53|95:69,1,90.0000034332276,2|0,0:0|0:0,0:0:0:0:
55,151,1028362,2,0,P|99:149|141:165,1,90.0000034332276,2|0,0:0|0:0,0:0:0:0:
189,239,1028962,2,0,P|195:288|194:306,1,60.0000022888184,2|0,0:0|0:0,0:0:0:0:
179,356,1029362,5,2,0:0:0:0:
268,368,1029662,1,2,0:0:0:0:
355,345,1029962,1,2,0:0:0:0:
415,278,1030262,1,2,0:0:0:0:
409,188,1030562,1,2,0:0:0:0:
310,119,1030962,6,0,L|206:119,1,90.0000034332276,2|0,0:0|0:0,0:0:0:0:
161,187,1031562,2,0,L|57:187,1,90.0000034332276,2|0,0:0|0:0,0:0:0:0:
53,275,1032162,2,0,L|136:275,1,60.0000022888184,2|0,0:0|0:0,0:0:0:0:
165,305,1032562,6,0,L|269:305,1,90.0000034332276,2|0,0:0|0:0,0:0:0:0:
314,237,1033162,2,0,L|418:237,1,90.0000034332276,2|0,0:0|0:0,0:0:0:0:
422,149,1033762,2,0,L|338:149,1,60.0000022888184,2|0,0:0|0:0,0:0:0:0:
301,146,1034162,6,0,P|242:144|206:128,1,90.0000034332276,2|0,0:0|0:0,0:0:0:0:
158,61,1034762,2,0,P|99:63|63:79,1,90.0000034332276,2|0,0:0|0:0,0:0:0:0:
44,160,1035362,2,0,P|40:208|44:221,1,60.0000022888184,2|0,0:0|0:0,0:0:0:0:
73,270,1035762,5,2,0:0:0:0:
158,297,1036062,1,2,0:0:0:0:
243,324,1036362,1,2,0:0:0:0:
328,295,1036662,1,2,0:0:0:0:
413,266,1036962,1,2,0:0:0:0:
382,149,1037362,6,0,L|376:57,1,90.0000034332276,2|0,0:0|0:0,0:0:0:0:
290,88,1037962,2,0,L|284:180,1,90.0000034332276,2|0,0:0|0:0,0:0:0:0:
203,136,1038562,2,0,L|199:76,1,60.0000022888184,2|0,0:0|0:0,0:0:0:0:
145,49,1038962,6,0,P|96:76|54:77,1,90.0000034332276,2|0,0:0|0:0,0:0:0:0:
14,154,1039562,2,0,P|58:159|96:183,1,90.0000034332276,2|0,0:0|0:0,0:0:0:0:
153,252,1040162,2,0,P|199:260|216:258,1,60.0000022888184,2|0,0:0|0:0,0:0:0:0:
270,244,1040562,6,0,L|280:138,1,90.0000034332276,2|0,0:0|0:0,0:0:0:0:
398,163,1041162,2,0,L|408:57,1,90.0000034332276,2|0,0:0|0:0,0:0:0:0:
493,98,1041762,2,0,L|498:157,1,60.0000022888184,2|0,0:0|0:0,0:0:0:0:
502,217,1042162,5,2,0:0:0:0:
451,289,1042462,1,2,0:0:0:0:
368,321,1042762,1,2,0:0:0:0:
282,301,1043062,1,2,0:0:0:0:
223,235,1043362,1,2,0:0:0:0:
202,116,1043762,6,0,L|104:98,1,90.0000034332276,2|0,0:0|0:0,0:0:0:0:
67,177,1044362,2,0,L|165:195,1,90.0000034332276,2|0,0:0|0:0,0:0:0:0:
113,272,1044962,2,0,L|172:282,1,60.0000022888184,2|0,0:0|0:0,0:0:0:0:
226,308,1045362,6,0,P|287:310|319:302,1,90.0000034332276,2|0,0:0|0:0,0:0:0:0:
374,235,1045962,2,0,P|376:174|368:142,1,90.0000034332276,2|0,0:0|0:0,0:0:0:0:
298,89,1046562,2,0,P|260:85|232:89,1,60.0000022888184,2|0,0:0|0:0,0:0:0:0:
180,105,1046962,6,0,L|158:199,1,90.0000034332276,2|0,0:0|0:0,0:0:0:0:
249,193,1047562,2,0,L|227:287,1,90.0000034332276,2|0,0:0|0:0,0:0:0:0:
318,286,1048162,2,0,L|304:344,1,60.0000022888184,2|0,0:0|0:0,0:0:0:0:
249,368,1048562,5,2,0:0:0:0:
160,371,1048862,1,2,0:0:0:0:
86,323,1049162,1,2,0:0:0:0:
53,240,1049462,1,2,0:0:0:0:
74,154,1049762,1,2,0:0:0:0:
171,84,1050162,6,0,L|267:77,2,90.0000034332276,2|0|0,0:0|0:0|0:0,0:0:0:0:
155,142,1050962,2,0,P|107:221|101:131,2,240.000009155273,2|0|0,0:0|0:0|0:0,0:0:0:0:
260,77,1052962,1,2,0:0:0:0:
303,119,1053162,1,2,0:0:0:0:
326,174,1053362,6,0,B|316:292|316:292|206:352,2,240.000009155273,2|0|0,0:0|0:0|0:0,0:0:0:0:
88,137,1055762,1,2,0:0:0:0:
57,188,1055962,1,2,0:0:0:0:
50,247,1056162,1,2,0:0:0:0:
68,304,1056362,1,2,0:0:0:0:
106,349,1056562,6,0,B|153:359|191:331|191:331|262:366|337:339,3,240.000009155273,2|0|0|0,0:0|0:0|0:0|0:0,0:0:0:0:
474,142,1059762,6,0,P|381:85|256:131,1,240.000009155273,2|0,0:0|0:0,0:0:0:0:
245,241,1060962,1,2,0:0:0:0:
220,359,1061362,2,0,P|133:283|149:169,1,240.000009155273,2|0,0:0|0:0,0:0:0:0:
383,115,1062962,6,0,L|389:15,2,90.0000034332276,2|0|0,0:0|0:0|0:0,0:0:0:0:
330,211,1063762,2,0,P|420:202|342:158,2,240.000009155273,2|0|0,0:0|0:0|0:0,0:0:0:0:
230,204,1065762,1,2,0:0:0:0:
170,209,1065962,1,2,0:0:0:0:
118,178,1066162,6,0,B|83:127|69:66|69:66|58:132|35:179,2,240.000009155273,2|0|0,0:0|0:0|0:0,0:0:0:0:
335,75,1068562,1,2,0:0:0:0:
367,124,1068762,1,2,0:0:0:0:
376,183,1068962,1,2,0:0:0:0:
360,240,1069162,1,2,0:0:0:0:
320,288,1069362,6,0,B|201:258|201:258|93:304,3,240.000009155273,2|0|0|0,0:0|0:0|0:0|0:0,0:0:0:0:
52,192,1072162,1,2,0:0:0:0:
93,79,1072562,6,0,B|201:126|201:126|320:96,1,240.000009155273,2|0,0:0|0:0,0:0:0:0:
487,267,1074162,2,0,B|379:220|379:220|260:250,1,240.000009155273,2|0,0:0|0:0,0:0:0:0:
24,298,1075762,6,0,L|9:203,2,90.0000034332276,2|0|0,0:0|0:0|0:0,0:0:0:0:
67,339,1076562,2,0,P|161:341|261:238,2,240.000009155273,2|0|0,0:0|0:0|0:0,0:0:0:0:
147,249,1078562,1,2,0:0:0:0:
187,204,1078762,1,2,0:0:0:0:
227,160,1078962,6,0,P|196:111|60:177,2,240.000009155273,2|0|0,0:0|0:0|0:0,0:0:0:0:
365,356,1081362,1,2,0:0:0:0:
424,352,1081562,1,2,0:0:0:0:
471,317,1081762,1,2,0:0:0:0:
491,261,1081962,1,2,0:0:0:0:
478,204,1082162,6,0,B|409:181|362:198|362:198|386:159|366:78,3,240.000009155273,2|0|0|0,0:0|0:0|0:0|0:0,0:0:0:0:
126,67,1085362,6,0,P|66:148|126:274,1,240.000009155273,2|0,0:0|0:0,0:0:0:0:
232,289,1086562,1,2,0:0:0:0:
350,270,1086962,2,0,P|400:166|338:70,1,240.000009155273,2|0,0:0|0:0,0:0:0:0:
232,289,1088562,6,0,L|226:194,2,90.0000034332276,2|0|0,0:0|0:0|0:0,0:0:0:0:
196,339,1089362,2,0,B|146:330|111:357|111:357|103:274|22:246,2,240.000009155273,2|0|0,0:0|0:0|0:0,0:0:0:0:
315,325,1091362,1,2,0:0:0:0:
364,291,1091562,1,2,0:0:0:0:
382,234,1091762,6,0,B|381:177|359:116|359:116|401:164|461:190,2,240.000009155273,2|0|0,0:0|0:0|0:0,0:0:0:0:
154,310,1094162,1,2,0:0:0:0:
98,289,1094362,1,2,0:0:0:0:
57,245,1094562,1,2,0:0:0:0:
42,188,1094762,1,2,0:0:0:0:
55,130,1094962,6,0,B|114:120|114:120|172:149|231:119|231:119|288:129,3,240.000009155273,2|0|0|0,0:0|0:0|0:0|0:0,0:0:0:0:
394,186,1097762,1,2,0:0:0:0:
364,302,1098162,6,0,P|256:346|150:297,1,240.000009155273,2|0,0:0|0:0,0:0:0:0:
147,81,1099762,2,0,P|255:37|361:86,1,240.000009155273,2|0,0:0|0:0,0:0:0:0:
256,247,1101362,5,0,0:0:0:0:
150,35,1120562,6,0,L|140:108,1,60.0000022888184,2|0,0:0|0:0,0:0:0:0:
169,148,1120962,2,0,L|242:158,1,60.0000022888184
262,205,1121362,2,0,L|252:278,1,60.0000022888184
246,324,1121762,1,2,0:0:0:0:
365,338,1122162,2,0,L|424:329,1,60.0000022888184
458,281,1122563,2,0,L|449:221,1,60.0000022888184
442,162,1122962,6,0,P|367:139|347:46,1,180.000006866455,2|0,0:0|0:0,0:0:0:0:
165,48,1124162,2,0,P|150:132|70:162,1,180.000006866455,2|0,0:0|0:0,0:0:0:0:
58,341,1125362,6,0,L|139:334,1,60.0000022888184,2|0,0:0|0:0,0:0:0:0:
177,343,1125762,2,0,L|258:336,1,60.0000022888184
296,347,1126162,2,0,L|377:340,1,60.0000022888184
415,347,1126562,1,2,0:0:0:0:
453,233,1126962,2,0,L|372:226,1,60.0000022888184
334,237,1127362,2,0,L|253:230,1,60.0000022888184
215,237,1127762,5,2,0:0:0:0:
256,124,1128162,1,0,0:0:0:0:
137,144,1128562,1,0,0:0:0:0:
95,256,1128962,2,0,P|51:226|70:42,1,240.000009155273,2|0,0:0|0:0,0:0:0:0:
137,144,1130162,6,0,L|213:152,1,60.0000022888184,2|0,0:0|0:0,0:0:0:0:
253,129,1130562,2,0,L|329:121,1,60.0000022888184
356,164,1130962,2,0,L|432:172,1,60.0000022888184
472,150,1131362,1,2,0:0:0:0:
461,280,1131762,2,0,L|385:288,1,60.0000022888184
358,245,1132162,2,0,L|282:237,1,60.0000022888184
242,259,1132562,6,0,P|153:262|61:287,1,180.000006866455,2|0,0:0|0:0,0:0:0:0:
65,98,1133762,2,0,P|152:121|242:124,1,180.000006866455,2|0,0:0|0:0,0:0:0:0:
418,86,1134962,6,0,P|448:177|380:217,1,180.000006866455,2|0,0:0|0:0,0:0:0:0:
329,210,1135762,2,0,L|249:210,1,60.0000022888184
210,196,1136162,1,2,0:0:0:0:
131,286,1136562,1,0,0:0:0:0:
53,377,1136962,1,0,0:0:0:0:
8,265,1137362,6,0,P|7:210|48:75,1,180.000006866455,2|0,0:0|0:0,0:0:0:0:
218,72,1138562,2,0,P|246:157|249:246,1,180.000006866455,2|0,0:0|0:0,0:0:0:0:
391,357,1139762,6,0,L|398:285,1,60.0000022888184,2|0,0:0|0:0,0:0:0:0:
433,250,1140162,2,0,L|426:178,1,60.0000022888184
390,143,1140562,2,0,L|395:83,1,60.0000022888184
403,23,1140962,1,2,0:0:0:0:
263,33,1141362,2,0,L|270:105,1,60.0000022888184
306,140,1141762,2,0,L|300:199,1,60.0000022888184
292,260,1142162,6,0,P|216:303|130:283,1,180.000006866455,2|0,0:0|0:0,0:0:0:0:
130,100,1143362,2,0,P|216:80|293:124,1,180.000006866455,2|0,0:0|0:0,0:0:0:0:
426,245,1144562,6,0,L|353:235,1,60.0000022888184,2|0,0:0|0:0,0:0:0:0:
313,264,1144962,2,0,L|303:337,1,60.0000022888184
256,357,1145362,2,0,L|183:347,1,60.0000022888184
137,341,1145762,1,2,0:0:0:0:
84,232,1146162,2,0,L|94:159,1,60.0000022888184
141,139,1146562,2,0,L|214:149,1,60.0000022888184
260,155,1146962,5,2,0:0:0:0:
378,171,1147362,1,0,0:0:0:0:
305,266,1147762,1,0,0:0:0:0:
423,286,1148162,2,0,P|475:242|461:81,1,240.000009155273,2|0,0:0|0:0,0:0:0:0:
378,171,1149362,6,0,L|309:163,1,60.0000022888184,2|0,0:0|0:0,0:0:0:0:
259,174,1149762,2,0,L|190:166,1,60.0000022888184
148,135,1150162,2,0,L|79:127,1,60.0000022888184
30,143,1150562,1,2,0:0:0:0:
39,262,1150962,2,0,L|108:270,1,60.0000022888184
150,301,1151362,2,0,L|219:309,1,60.0000022888184
268,293,1151762,6,0,P|361:276|458:282,1,180.000006866455,2|0,0:0|0:0,0:0:0:0:
445,104,1152962,2,0,P|356:107|268:91,1,180.000006866455,2|0,0:0|0:0,0:0:0:0:
87,98,1154162,2,0,P|28:159|79:234,1,180.000006866455,2|0,0:0|0:0,0:0:0:0:
129,234,1154962,2,0,L|196:233,1,60.0000022888184
239,200,1155362,1,2,0:0:0:0:
346,254,1155762,1,0,0:0:0:0:
453,308,1156162,1,0,0:0:0:0:
444,188,1156562,6,0,P|430:124|445:-4,1,180.000006866455,2|0,0:0|0:0,0:0:0:0:
271,72,1157762,2,0,P|285:136|270:264,1,180.000006866455,2|0,0:0|0:0,0:0:0:0:
56,243,1177315,6,0,L|53:185,2,47.9999985351562,4|0|8,0:3|0:0|0:3,0:0:0:0:
140,288,1177815,2,0,P|216:268|239:273,1,95.9999970703125,4|8,0:3|0:3,0:0:0:0:
275,289,1178190,1,4,0:3:0:0:
370,286,1178440,1,4,0:3:0:0:
455,241,1178690,2,0,P|467:176|438:87,1,143.999995605469,4|8,0:3|0:3,0:0:0:0:
355,73,1179315,6,0,L|292:65,2,47.9999985351562,4|0|8,0:3|0:0|0:3,0:0:0:0:
296,149,1179815,2,0,L|196:163,1,95.9999970703125,4|8,0:3|0:3,0:0:0:0:
153,169,1180190,1,4,0:3:0:0:
144,264,1180440,1,4,0:3:0:0:
221,321,1180690,2,0,B|299:305|283:334|363:316,1,143.999995605469,4|8,0:3|0:3,0:0:0:0:
433,249,1181315,6,0,L|440:198,2,47.9999985351562,4|0|8,0:3|0:0|0:3,0:0:0:0:
357,188,1181815,2,0,P|343:143|347:84,1,95.9999970703125,4|8,0:3|0:3,0:0:0:0:
358,48,1182190,1,4,0:3:0:0:
267,15,1182440,1,4,0:3:0:0:
179,54,1182690,2,0,P|156:116|169:197,1,143.999995605469,4|8,0:3|0:3,0:0:0:0:
221,270,1183315,6,0,L|284:270,2,47.9999985351562,4|0|8,0:3|0:0|0:3,0:0:0:0:
254,360,1183815,2,0,P|305:356|344:325,1,95.9999970703125,4|8,0:3|0:3,0:0:0:0:
358,285,1184190,1,0,0:0:0:0:
356,237,1184315,1,4,0:2:0:0:
256,132,1184690,1,4,0:2:0:0:
156,237,1185065,1,4,0:2:0:0:
67,199,1185315,6,0,L|11:207,2,47.9999985351562,4|0|8,0:3|0:0|0:3,0:0:0:0:
137,133,1185815,2,0,P|202:122|237:132,1,95.9999970703125,4|8,0:3|0:3,0:0:0:0:
271,152,1186190,1,4,0:3:0:0:
366,152,1186440,1,4,0:3:0:0:
454,114,1186690,2,0,L|442:262,1,143.999995605469,4|8,0:3|0:3,0:0:0:0:
350,287,1187315,6,0,P|345:310|345:334,2,47.9999985351562,4|0|8,0:3|0:0|0:3,0:0:0:0:
298,206,1187815,2,0,L|184:210,1,95.9999970703125,4|8,0:3|0:3,0:0:0:0:
160,234,1188190,1,4,0:3:0:0:
158,138,1188440,1,4,0:3:0:0:
202,53,1188690,2,0,B|298:54|298:54|331:88,1,143.999995605469,4|8,0:3|0:3,0:0:0:0:
352,182,1189315,6,0,L|356:247,2,47.9999985351562,4|0|8,0:3|0:0|0:3,0:0:0:0:
439,221,1189815,2,0,P|434:275|400:309,1,95.9999970703125,4|8,0:3|0:3,0:0:0:0:
362,323,1190190,1,4,0:3:0:0:
267,338,1190440,1,4,0:3:0:0:
172,354,1190690,2,0,B|75:347|75:347|60:299,1,143.999995605469,4|8,0:3|0:3,0:0:0:0:
80,207,1191315,6,0,L|74:141,2,47.9999985351562,4|0|8,0:3|0:0|0:3,0:0:0:0:
173,231,1191815,2,0,L|285:211,1,95.9999970703125,4|8,0:3|0:3,0:0:0:0:
314,204,1192190,1,0,0:0:0:0:
361,194,1192315,1,4,0:2:0:0:
256,95,1192690,1,4,0:2:0:0:
156,193,1193065,1,4,0:2:0:0:
84,124,1193315,6,0,P|58:174|81:260,1,143.999995605469,4|0,0:3|0:0,0:0:0:0:
164,297,1193940,1,0,0:0:0:0:
255,267,1194190,2,0,L|357:278,1,95.9999970703125,0|0,0:0|0:0,0:0:0:0:
413,349,1194690,2,0,P|441:300|420:212,1,143.999995605469,0|8,0:0|0:3,0:0:0:0:
336,179,1195315,5,4,0:3:0:0:
256,124,1195565,1,8,0:3:0:0:
256,124,1195690,1,0,0:0:0:0:
188,56,1195940,1,0,0:0:0:0:
89,77,1196190,2,0,L|84:188,1,95.9999970703125,0|0,0:0|0:0,0:0:0:0:
47,202,1196565,2,0,L|52:266,2,47.9999985351562,8|0|4,0:3|0:0|0:3,0:0:0:0:
6,175,1196940,1,0,0:0:0:0:
0,323,1197315,6,0,L|98:343,1,95.9999970703125,4|8,0:3|0:3,0:0:0:0:
141,351,1197690,2,0,L|248:350,1,95.9999970703125,0|0,0:0|0:0,0:0:0:0:
338,352,1198190,1,0,0:0:0:0:
433,351,1198440,1,0,0:0:0:0:
378,272,1198690,1,0,0:0:0:0:
432,192,1198940,2,0,P|443:152|426:90,1,95.9999970703125,0|0,0:0|0:0,0:0:0:0:
386,83,1199315,5,4,0:3:0:0:
296,49,1199565,1,8,0:3:0:0:
213,98,1199815,2,0,L|207:157,2,47.9999985351562,4|0|8,0:3|0:0|0:3,0:0:0:0:
180,63,1200190,1,0,0:0:0:0:
133,72,1200315,6,0,P|96:121|95:161,1,95.9999970703125,4|8,0:2|0:3,0:0:0:0:
124,191,1200690,2,0,L|129:293,1,95.9999970703125,4|4,0:2|0:3,0:0:0:0:
128,335,1201065,1,4,0:2:0:0:
223,326,1201315,6,0,L|333:335,1,95.9999970703125,4|8,0:3|0:3,0:0:0:0:
392,266,1201815,1,4,0:3:0:0:
392,266,1201940,1,0,0:0:0:0:
455,186,1202190,1,0,0:0:0:0:
397,109,1202440,1,0,0:0:0:0:
332,179,1202690,2,0,P|278:197|188:176,1,143.999995605469,0|8,0:0|0:3,0:0:0:0:
115,124,1203315,5,4,0:3:0:0:
157,37,1203565,1,8,0:3:0:0:
252,26,1203815,1,0,0:0:0:0:
252,26,1203940,1,0,0:0:0:0:
334,76,1204190,2,0,L|341:180,1,95.9999970703125
340,269,1204690,1,0,0:0:0:0:
260,321,1204940,1,0,0:0:0:0:
260,321,1205065,1,8,0:3:0:0:
163,335,1205315,6,0,B|122:304|71:314|71:314|127:220|80:125,1,287.999991210937,4|8,0:3|0:3,0:0:0:0:
23,55,1206315,2,0,B|69:21|137:34|164:81|164:81|217:47|288:63,1,287.999991210937,4|4,0:3|0:3,0:0:0:0:
377,86,1207315,6,0,L|384:188,1,95.9999970703125,4|8,0:3|0:3,0:0:0:0:
377,282,1207815,1,4,0:3:0:0:
377,282,1207940,1,0,0:0:0:0:
290,316,1208190,1,0,0:0:0:0:
290,316,1208315,6,0,P|225:328|191:321,1,95.9999970703125,4|8,0:2|0:3,0:0:0:0:
156,295,1208690,2,0,P|164:257|155:190,1,95.9999970703125,4|4,0:2|0:3,0:0:0:0:
132,159,1209065,1,4,0:2:0:0:
135,63,1209315,6,0,L|239:57,2,95.9999970703125,4|8|0,0:3|0:3|0:0,0:0:0:0:
48,105,1210065,1,0,0:0:0:0:
22,197,1210315,2,0,L|28:263,1,47.9999985351562,4|0,0:3|0:0,0:0:0:0:
66,271,1210565,2,0,L|132:265,1,47.9999985351562,8|0,0:3|0:0,0:0:0:0:
151,237,1210815,2,0,L|146:189,1,47.9999985351562,4|0,0:3|0:0,0:0:0:0:
173,150,1211066,2,0,L|220:145,1,47.9999985351562,8|0,0:3|0:0,0:0:0:0:
265,164,1211315,6,0,P|314:172|362:165,1,95.9999970703125,4|8,0:3|0:3,0:0:0:0:
439,112,1211815,2,0,P|455:159|373:261,2,191.999994140625,4|4|4,0:3|0:3|0:3,0:0:0:0:
399,83,1212940,2,0,L|294:75,1,95.9999970703125,0|0,0:0|0:0,0:0:0:0:
256,66,1213315,5,4,0:3:0:0:
160,79,1213565,2,0,L|100:83,1,47.9999985351562,8|0,0:3|0:0,0:0:0:0:
80,118,1213815,2,0,L|84:178,1,47.9999985351562,4|0,0:3|0:0,0:0:0:0:
108,207,1214065,2,0,L|104:267,1,47.9999985351562,8|0,0:3|0:0,0:0:0:0:
95,302,1214315,5,4,0:3:0:0:
187,325,1214565,1,8,0:3:0:0:
278,296,1214815,1,4,0:3:0:0:
322,210,1215065,1,8,0:3:0:0:
298,115,1215315,2,0,P|252:105|205:114,1,95.9999970703125,4|8,0:3|0:3,0:0:0:0:
148,191,1215815,2,0,L|152:241,2,47.9999985351562,4|0|8,0:3|0:0|0:3,0:0:0:0:
126,148,1216190,1,0,0:0:0:0:
102,106,1216315,6,0,P|125:65|170:52,1,95.9999970703125,4|8,0:2|0:3,0:0:0:0:
210,78,1216690,2,0,B|256:90|256:90|302:78,1,95.9999970703125,4|4,0:2|0:3,0:0:0:0:
341,52,1217065,1,4,0:2:0:0:
407,122,1217315,5,4,0:3:0:0:
364,207,1217565,1,8,0:3:0:0:
445,256,1217815,1,4,0:3:0:0:
402,341,1218065,1,8,0:3:0:0:
309,313,1218315,6,0,P|248:301|208:304,1,95.9999970703125,4|8,0:3|0:3,0:0:0:0:
135,245,1218815,2,0,P|147:184|144:144,1,95.9999970703125,4|8,0:3|0:3,0:0:0:0:
203,71,1219315,6,0,P|264:83|304:80,1,95.9999970703125,4|8,0:3|0:3,0:0:0:0:
377,139,1219815,2,0,P|365:200|368:240,1,95.9999970703125,4|8,0:3|0:3,0:0:0:0:
309,313,1220315,6,0,P|248:301|208:304,1,95.9999970703125,4|8,0:3|0:3,0:0:0:0:
135,245,1220815,2,0,P|147:184|144:144,1,95.9999970703125,4|8,0:3|0:3,0:0:0:0:
128,55,1221315,6,0,B|318:36|318:36|352:130,1,287.999991210937,4|8,0:3|0:3,0:0:0:0:
414,199,1222315,2,0,L|406:261,1,47.9999985351562,4|0,0:3|0:0,0:0:0:0:
408,294,1222565,2,0,L|355:327,1,47.9999985351562,8|0,0:3|0:0,0:0:0:0:
331,351,1222815,2,0,L|271:332,1,47.9999985351562,4|0,0:3|0:0,0:0:0:0:
239,328,1223065,2,0,L|214:270,1,47.9999985351562,8|0,0:3|0:0,0:0:0:0:
172,277,1223315,6,0,L|179:163,2,95.9999970703125,4|8|4,0:3|0:3|0:3,0:0:0:0:
88,323,1224065,1,8,0:3:0:0:
48,235,1224315,6,0,P|51:151|60:124,1,95.9999970703125,4|8,0:2|0:3,0:0:0:0:
86,105,1224690,2,0,P|133:94|187:102,1,95.9999970703125,4|8,0:2|0:3,0:0:0:0:
223,119,1225065,1,4,0:2:0:0:
316,96,1225315,6,0,P|395:91|429:105,1,95.9999970703125,4|8,0:3|0:3,0:0:0:0:
468,172,1225815,1,4,0:3:0:0:
434,262,1226065,1,8,0:3:0:0:
338,252,1226315,2,0,L|278:265,1,47.9999985351562,4|0,0:3|0:0,0:0:0:0:
251,233,1226565,2,0,L|191:220,1,47.9999985351562,8|0,0:3|0:0,0:0:0:0:
165,252,1226815,2,0,L|105:265,1,47.9999985351562,4|0,0:3|0:0,0:0:0:0:
78,233,1227065,2,0,L|18:220,1,47.9999985351562,8|0,0:3|0:0,0:0:0:0:
0,186,1227315,6,0,P|31:157|37:97,1,95.9999970703125,4|8,0:3|0:3,0:0:0:0:
79,18,1227815,2,0,B|271:6,2,191.999994140625,4|4|4,0:3|0:3|0:3,0:0:0:0:
102,60,1228940,2,0,L|213:52,1,95.9999970703125,0|0,0:0|0:0,0:0:0:0:
246,49,1229315,5,4,0:3:0:0:
324,104,1229565,2,0,L|393:114,1,47.9999985351562,8|0,0:3|0:0,0:0:0:0:
394,153,1229815,2,0,L|384:222,1,47.9999985351562,4|0,0:3|0:0,0:0:0:0:
351,233,1230065,2,0,L|282:223,1,47.9999985351562,8|0,0:3|0:0,0:0:0:0:
268,259,1230315,5,4,0:3:0:0:
189,204,1230565,1,8,0:3:0:0:
244,125,1230815,5,4,0:3:0:0:
323,180,1231065,1,8,0:3:0:0:
268,259,1231315,5,4,0:3:0:0:
189,204,1231565,1,8,0:3:0:0:
244,125,1231815,6,0,L|238:56,2,47.9999985351562,4|0|8,0:3|0:0|0:3,0:0:0:0:
284,150,1232190,1,0,0:0:0:0:
324,175,1232315,2,0,L|332:285,1,95.9999970703125,4|8,0:2|0:3,0:0:0:0:
330,318,1232690,2,0,L|220:326,1,95.9999970703125,4|4,0:2|0:3,0:0:0:0:
186,332,1233065,1,4,0:2:0:0:
105,279,1233315,5,4,0:3:0:0:
89,184,1233565,1,8,0:3:0:0:
173,138,1233815,1,4,0:3:0:0:
189,43,1234065,1,8,0:3:0:0:
263,104,1234315,6,0,P|312:112|372:96,1,95.9999970703125,4|8,0:3|0:3,0:0:0:0:
344,199,1234815,2,0,P|336:248|352:308,1,95.9999970703125,4|8,0:3|0:3,0:0:0:0:
249,280,1235315,6,0,P|200:272|140:288,1,95.9999970703125,4|8,0:3|0:3,0:0:0:0:
168,185,1235815,2,0,P|176:136|160:76,1,95.9999970703125,4|8,0:3|0:3,0:0:0:0:
263,104,1236315,6,0,P|312:112|372:96,1,95.9999970703125,4|8,0:3|0:3,0:0:0:0:
344,199,1236815,2,0,P|336:248|352:308,1,95.9999970703125,4|8,0:3|0:3,0:0:0:0:
419,353,1237315,6,0,B|229:325|229:325|178:343|130:331,1,287.999991210937,4|8,0:3|0:3,0:0:0:0:
39,318,1238315,2,0,L|31:259,1,47.9999985351562,4|0,0:3|0:0,0:0:0:0:
57,229,1238565,2,0,L|49:170,1,47.9999985351562,8|0,0:3|0:0,0:0:0:0:
79,143,1238815,2,0,L|71:84,1,47.9999985351562,4|0,0:3|0:0,0:0:0:0:
97,54,1239065,2,0,L|89:-5,1,47.9999985351562,8|0,0:3|0:0,0:0:0:0:
138,3,1239315,6,0,L|338:14,1,191.999994140625,4|4,0:3|0:3,0:0:0:0:
449,163,1240315,2,0,L|458:264,1,95.9999970703125,4|8,0:2|0:3,0:0:0:0:
423,292,1240690,2,0,P|376:274|323:287,1,95.9999970703125,4|4,0:2|0:3,0:0:0:0:
288,303,1241065,1,4,0:2:0:0:
256,212,1241315,5,4,0:3:0:0:
204,106,1257315,6,0,P|160:108|116:134,1,79.9999999999999,4|8,0:3|0:3,0:0:0:0:
65,173,1257815,1,8,0:3:0:0:
106,285,1258190,2,0,L|202:279,1,79.9999999999999,8|8,0:3|0:3,0:0:0:0:
257,316,1258690,2,0,L|380:307,1,120,8|8,0:3|0:3,0:0:0:0:
437,255,1259315,6,0,L|447:172,1,79.9999999999999,4|8,0:3|0:3,0:0:0:0:
458,96,1259815,1,8,0:3:0:0:
338,108,1260190,2,0,P|296:112|255:105,1,79.9999999999999,8|8,0:3|0:3,0:0:0:0:
188,68,1260690,2,0,P|130:56|62:74,1,120,8|8,0:3|0:3,0:0:0:0:
24,134,1261315,6,0,L|22:223,1,79.9999999999999,4|8,0:3|0:3,0:0:0:0:
24,293,1261815,1,8,0:3:0:0:
139,260,1262190,2,0,B|180:254|180:254|218:262,1,79.9999999999999,8|8,0:3|0:3,0:0:0:0:
294,284,1262690,2,0,B|352:295|352:295|412:284,1,120,8|8,0:3|0:3,0:0:0:0:
423,205,1263315,6,0,P|407:159|407:124,1,79.9999999999999,4|8,0:3|0:3,0:0:0:0:
417,48,1263815,1,8,0:3:0:0:
306,93,1264190,2,0,P|244:96|218:92,1,79.9999999999999,8|8,0:3|0:3,0:0:0:0:
159,50,1264690,2,0,P|146:86|183:161,1,120,8|8,0:3|0:3,0:0:0:0:
243,202,1265315,6,0,L|248:289,1,79.9999999999999,4|8,0:3|0:3,0:0:0:0:
219,356,1265815,1,8,0:3:0:0:
101,333,1266190,2,0,L|110:250,1,79.9999999999999,8|8,0:3|0:3,0:0:0:0:
78,179,1266690,2,0,L|94:48,1,120,8|8,0:3|0:3,0:0:0:0:
168,33,1267315,6,0,P|236:18|262:21,1,79.9999999999999,4|8,0:3|0:3,0:0:0:0:
324,33,1267815,1,8,0:3:0:0:
386,135,1268190,2,0,P|376:174|383:218,1,79.9999999999999,8|8,0:3|0:3,0:0:0:0:
445,260,1268690,2,0,P|436:310|368:339,1,120,8|8,0:3|0:3,0:0:0:0:
300,323,1269315,5,4,0:3:0:0:
192,66,1272315,6,0,L|89:74,1,79.9999999999999,4|4,0:2|0:3,0:0:0:0:
78,118,1272690,2,0,L|86:221,1,79.9999999999999,4|4,0:2|0:3,0:0:0:0:
86,262,1273065,1,4,0:2:0:0:
162,320,1273315,5,4,0:3:0:0:
256,304,1273565,1,8,0:3:0:0:
350,320,1273815,2,0,L|404:323,2,47.9999985351562,4|0|8,0:3|0:0|0:3,0:0:0:0:
341,272,1274190,2,0,P|364:231|358:169,1,95.9999970703125,0|0,0:0|0:0,0:0:0:0:
334,144,1274565,2,0,L|282:140,1,47.9999985351562,8|0,0:3|0:0,0:0:0:0:
254,103,1274815,2,0,L|202:99,2,47.9999985351562,4|0|8,0:3|0:0|0:3,0:0:0:0:
341,62,1275315,5,4,0:3:0:0:
256,17,1275565,1,8,0:3:0:0:
160,25,1275815,2,0,L|103:21,2,47.9999985351562,4|0|8,0:3|0:0|0:3,0:0:0:0:
177,69,1276190,2,0,L|189:168,1,95.9999970703125,0|0,0:0|0:0,0:0:0:0:
213,206,1276565,2,0,L|208:255,1,47.9999985351562,8|0,0:3|0:0,0:0:0:0:
229,296,1276815,2,0,L|224:345,2,47.9999985351562,4|0|8,0:3|0:0|0:3,0:0:0:0:
312,249,1277315,5,4,0:3:0:0:
389,192,1277565,1,8,0:3:0:0:
312,135,1277815,2,0,L|315:85,2,47.9999985351562,4|0|8,0:3|0:0|0:3,0:0:0:0:
268,155,1278190,2,0,P|212:167|158:151,1,95.9999970703125,0|0,0:0|0:0,0:0:0:0:
133,134,1278565,2,0,L|76:140,1,47.9999985351562,8|0,0:3|0:0,0:0:0:0:
47,109,1278815,2,0,L|-10:115,2,47.9999985351562,4|0|8,0:3|0:0|0:3,0:0:0:0:
33,204,1279315,5,4,0:3:0:0:
117,250,1279565,1,8,0:3:0:0:
212,238,1279815,2,0,L|272:236,2,47.9999985351562,4|0|8,0:3|0:0|0:3,0:0:0:0:
227,283,1280190,2,0,L|322:278,1,95.9999970703125,0|0,0:0|0:0,0:0:0:0:
370,275,1280565,2,0,L|427:272,1,47.9999985351562,8|0,0:3|0:0,0:0:0:0:
444,232,1280815,2,0,L|501:229,2,47.9999985351562,4|0|8,0:3|0:0|0:3,0:0:0:0:
363,179,1281315,5,4,0:3:0:0:
282,126,1281565,1,8,0:3:0:0:
201,73,1281815,2,0,L|145:76,2,47.9999985351562,4|0|8,0:3|0:0|0:3,0:0:0:0:
225,31,1282190,2,0,L|124:37,1,95.9999970703125,0|0,0:0|0:0,0:0:0:0:
84,54,1282565,2,0,P|73:83|73:108,1,47.9999985351562,8|0,0:3|0:0,0:0:0:0:
85,145,1282815,2,0,P|96:174|96:199,2,47.9999985351562,4|0|8,0:3|0:0|0:3,0:0:0:0:
1,192,1283315,5,4,0:3:0:0:
47,275,1283565,1,8,0:3:0:0:
142,270,1283815,2,0,L|211:274,2,47.9999985351562,4|0|8,0:3|0:0|0:3,0:0:0:0:
158,315,1284190,2,0,P|193:334|258:329,1,95.9999970703125,0|0,0:0|0:0,0:0:0:0:
291,312,1284565,2,0,L|360:308,1,47.9999985351562,8|0,0:3|0:0,0:0:0:0:
374,277,1284815,2,0,L|429:273,2,47.9999985351562,4|0|8,0:3|0:0|0:3,0:0:0:0:
316,200,1285315,5,4,0:3:0:0:
302,104,1285565,1,8,0:3:0:0:
366,32,1285815,2,0,L|424:29,2,47.9999985351562,4|0|8,0:3|0:0|0:3,0:0:0:0:
319,17,1286190,2,0,L|207:22,1,95.9999970703125,0|0,0:0|0:0,0:0:0:0:
182,47,1286565,2,0,L|120:52,1,47.9999985351562,8|0,0:3|0:0,0:0:0:0:
97,19,1286815,2,0,L|43:15,2,47.9999985351562,4|0|0,0:3|0:0|0:0,0:0:0:0:
46,100,1287315,5,4,0:3:0:0:
62,194,1287565,1,8,0:3:0:0:
85,287,1287815,2,0,L|75:346,2,47.9999985351562,4|0|8,0:3|0:0|0:3,0:0:0:0:
123,258,1288190,2,0,P|199:239|223:250,1,95.9999970703125,0|0,0:0|0:0,0:0:0:0:
254,268,1288565,2,0,L|311:272,1,47.9999985351562,8|0,0:3|0:0,0:0:0:0:
342,297,1288815,2,0,L|395:290,2,47.9999985351562,4|0|0,0:3|0:0|0:0,0:0:0:0:
344,200,1289315,5,4,0:3:0:0:
312,109,1289565,1,0,0:0:0:0:
223,147,1289815,2,0,P|178:158|166:155,2,47.9999985351562,4|0|8,0:3|0:0|0:3,0:0:0:0:
232,99,1290190,2,0,P|210:50|172:26,1,95.9999970703125
130,45,1290565,2,0,L|121:101,1,47.9999985351562,8|0,0:0|0:0,0:0:0:0:
90,129,1290815,2,0,L|99:188,2,47.9999985351562,4|0|8,0:0|0:0|0:0,0:0:0:0:
14,187,1291315,5,4,0:0:0:0:
52,276,1291565,1,8,0:0:0:0:
138,321,1291815,2,0,L|198:316,2,47.9999985351562,4|0|8,0:0|0:0|0:0,0:0:0:0:
160,281,1292190,2,0,L|260:275,1,95.9999970703125
301,298,1292565,2,0,P|334:293|351:287,1,47.9999985351562,8|0,0:0|0:0,0:0:0:0:
389,264,1292815,2,0,P|420:261|437:263,2,47.9999985351562,4|0|8,0:0|0:0|0:0,0:0:0:0:
333,185,1293315,5,4,0:0:0:0:
386,104,1293565,1,8,0:0:0:0:
472,146,1293815,2,0,L|478:195,2,47.9999985351562,4|0|8,0:0|0:0|0:0,0:0:0:0:
491,102,1294190,2,0,B|484:54|484:54|444:23,1,95.9999970703125,0|0,0:0|0:0,0:0:0:0:
398,30,1294565,2,0,L|330:36,1,47.9999985351562,8|0,0:0|0:0,0:0:0:0:
303,23,1294815,2,0,L|249:27,2,47.9999985351562,4|0|8,0:0|0:0|0:0,0:0:0:0:
294,118,1295315,5,4,0:0:0:0:
298,213,1295565,1,8,0:0:0:0:
302,308,1295815,2,0,P|307:336|317:356,2,47.9999985351562,4|0|8,0:0|0:0|0:0,0:0:0:0:
256,291,1296190,2,0,P|207:294|175:327,1,95.9999970703125,0|0,0:0|0:0,0:0:0:0:
132,347,1296565,2,0,L|78:354,1,47.9999985351562,8|0,0:0|0:0,0:0:0:0:
37,339,1296815,2,0,L|26:283,2,47.9999985351562,4|0|8,0:0|0:0|0:0,0:0:0:0:
104,271,1297315,5,4,0:0:0:0:
81,177,1297565,1,8,0:0:0:0:
145,106,1297815,2,0,L|200:99,2,47.9999985351562,4|0|8,0:0|0:0|0:0,0:0:0:0:
161,60,1298190,2,0,L|260:47,1,95.9999970703125,0|0,0:0|0:0,0:0:0:0:
304,45,1298565,2,0,L|358:46,1,47.9999985351562,8|0,0:0|0:0,0:0:0:0:
400,48,1298815,2,0,L|456:65,2,47.9999985351562,4|0|8,0:0|0:0|0:0,0:0:0:0:
382,142,1299315,5,4,0:0:0:0:
365,236,1299565,1,8,0:0:0:0:
355,331,1299815,2,0,P|378:334|405:332,2,47.9999985351562,4|0|8,0:0|0:0|0:0,0:0:0:0:
308,316,1300190,2,0,P|258:310|203:321,1,95.9999970703125,0|0,0:0|0:0,0:0:0:0:
166,330,1300565,2,0,P|130:332|109:327,1,47.9999985351562,8|0,0:0|0:0,0:0:0:0:
72,314,1300815,2,0,P|29:311|13:313,2,47.9999985351562,4|0|8,0:0|0:0|0:0,0:0:0:0:
119,230,1301315,6,0,L|122:180,1,47.9999985351562,4|0,0:0|0:0,0:0:0:0:
128,134,1301565,1,8,0:0:0:0:
184,56,1301815,2,0,P|253:82|289:75,1,95.9999970703125,4|8,0:0|0:0,0:0:0:0:
318,64,1302190,1,0,0:0:0:0:
334,158,1302440,1,0,0:0:0:0:
348,252,1302690,2,0,P|391:234|426:142,1,143.999995605469,0|8,0:0|0:0,0:0:0:0:
416,53,1303315,6,0,P|372:45|356:47,1,47.9999985351562,4|0,0:0|0:0,0:0:0:0:
321,49,1303565,1,8,0:0:0:0:
231,83,1303815,2,0,P|179:87|133:72,1,95.9999970703125,4|8,0:0|0:0,0:0:0:0:
92,56,1304190,1,0,0:0:0:0:
41,137,1304440,1,0,0:0:0:0:
55,231,1304690,2,0,L|209:253,1,143.999995605469,0|8,0:0|0:0,0:0:0:0:
306,260,1305315,6,0,P|353:245|451:263,1,140,2|2,0:0|0:0,0:0:0:0:
444,64,1307315,6,0,P|397:79|299:61,1,140,2|2,0:0|0:0,0:0:0:0:
68,64,1309315,6,0,P|137:80|206:64,1,140,2|2,0:0|0:0,0:0:0:0:
205,259,1311315,6,0,P|136:243|67:259,1,140,2|2,0:0|0:0,0:0:0:0:
256,361,1313315,6,0,B|244:290|269:292|255:218,1,140,2|2,0:0|0:0,0:0:0:0:
218,107,1315315,6,0,P|185:110|132:98,1,60.0000022888184,2|2,2:2|2:2,0:0:0:0:
77,49,1315815,1,2,2:2:0:0:
55,166,1316190,2,0,P|63:203|61:232,1,60.0000022888184,2|2,2:2|2:2,0:0:0:0:
109,300,1316690,2,0,P|149:293|199:302,1,90.0000034332276,2|2,2:2|2:0,0:0:0:0:
256,331,1317190,1,2,2:2:0:0:
