osu file format v14

[General]
AudioFilename: audio.mp3
AudioLeadIn: 0
PreviewTime: 27409
Countdown: 0
SampleSet: Normal
StackLeniency: 0.7
Mode: 0
LetterboxInBreaks: 0
WidescreenStoryboard: 0

[Editor]
Bookmarks: 13802,85802,90516,186945
DistanceSpacing: 1.4
BeatDivisor: 4
GridSize: 4
TimelineZoom: 3.299999

[Metadata]
Title:Undertale (Chime Remix)
TitleUnicode:Undertale (Chime Remix)
Artist:toby fox
ArtistUnicode:toby fox
Creator:-[ Snowflake ]-
Version:Undertale
Source:UNDERTALE
Tags:PlaceholderTag
BeatmapID:970461
BeatmapSetID:452444

[Difficulty]
HPDrainRate:7
CircleSize:4.5
OverallDifficulty:8
ApproachRate:9.3
SliderMultiplier:1.6
SliderTickRate:1

[Events]
//Background and Video events
0,0,"undertale_by_w_e_z-better.jpg",0,0
//Break Periods
2,179230,186391
2,219716,222391
//Storyboard Layer 0 (Background)
//Storyboard Layer 1 (Fail)
//Storyboard Layer 2 (Pass)
//Storyboard Layer 3 (Foreground)
//Storyboard Sound Samples

[TimingPoints]
88,428.571428571429,4,2,1,80,1,0
88,-125,4,2,1,80,0,0
6945,-111.111111111111,4,2,1,80,0,0
13802,-100,4,2,1,80,0,0
27730,-83.3333333333333,4,2,1,80,0,0
54945,-200,4,2,1,80,0,0
60088,-350,4,2,1,80,0,0
61802,-200,4,2,1,80,0,0
68659,-133.333333333333,4,2,1,80,0,0
85802,-76.9230769230769,4,1,1,80,0,0
94373,-50,4,2,1,80,0,0
96088,-50,4,1,1,80,0,1
102730,-50,4,2,1,5,0,1
102945,-133.333333333333,4,1,1,80,0,1
103802,-50,4,1,1,80,0,1
104873,-133.333333333333,4,1,1,80,0,1
105516,-50,4,1,1,80,0,1
115802,-100,4,1,1,80,0,1
116659,-50,4,1,1,80,0,1
120945,-133.333333333333,4,1,1,80,0,1
122230,-50,4,1,1,80,0,1
123088,-100,4,1,1,80,0,1
123516,-100,4,2,1,80,0,0
150945,-133.333333333333,4,1,1,80,0,1
151909,-50,4,1,1,80,0,1
152230,-50,4,2,1,5,0,1
152338,-50,4,1,1,80,0,1
152873,-50,4,2,1,5,0,1
152980,-50,4,1,1,80,0,1
153516,-50,4,2,1,5,0,1
153623,-50,4,1,1,80,0,1
154373,-133.333333333333,4,1,1,80,0,1
155230,-50,4,1,1,80,0,1
155659,-50,4,2,1,5,0,1
155766,-50,4,1,1,80,0,1
156302,-50,4,2,1,5,0,1
156409,-50,4,1,1,80,0,1
156945,-50,4,2,1,5,0,1
157052,-50,4,1,1,80,0,1
157802,-133.333333333333,4,1,1,80,0,1
158873,-50,4,1,1,80,0,1
159088,-50,4,2,1,5,0,1
159195,-50,4,1,1,80,0,1
159730,-50,4,2,1,5,0,1
159838,-50,4,1,1,80,0,1
160373,-50,4,2,1,5,0,1
160480,-50,4,1,1,80,0,1
161230,-133.333333333333,4,1,1,80,0,1
162302,-50,4,1,1,80,0,1
162516,-50,4,2,1,5,0,1
162623,-50,4,1,1,80,0,1
163159,-50,4,2,1,5,0,1
163266,-50,4,1,1,80,0,1
163802,-50,4,2,1,5,0,1
163909,-50,4,1,1,80,0,1
164659,-50,4,2,1,80,0,0
165623,-50,4,1,1,80,0,1
165945,-50,4,2,1,5,0,1
166052,-50,4,1,1,80,0,1
166588,-50,4,2,1,5,0,1
166695,-50,4,1,1,80,0,1
167230,-50,4,2,1,5,0,1
167338,-50,4,1,1,80,0,1
167766,-50,4,2,1,5,0,1
167873,-50,4,1,1,80,0,1
168088,-133.333333333333,4,1,1,80,0,1
168945,-50,4,1,1,80,0,1
169373,-50,4,2,1,5,0,1
169480,-50,4,1,1,80,0,1
170016,-50,4,2,1,5,0,1
170123,-50,4,1,1,80,0,1
170659,-50,4,2,1,5,0,1
170766,-50,4,1,1,80,0,1
171516,-133.333333333333,4,1,1,80,0,1
172373,-50,4,1,1,80,0,1
172802,-50,4,2,1,5,0,1
172909,-50,4,1,1,80,0,1
173445,-50,4,2,1,5,0,1
173552,-50,4,1,1,80,0,1
174088,-50,4,2,1,5,0,1
174195,-50,4,1,1,80,0,1
174945,-83.3333333333333,4,2,1,80,0,1
176873,-83.3333333333333,4,1,1,80,0,1
178373,-200,4,2,1,80,0,0
178473,-133.333333333333,4,2,1,80,0,0
192945,-200,4,2,1,80,0,0
205802,-133.333333333333,4,2,1,80,0,0
206659,-200,4,2,1,80,0,0
207730,-133.333333333333,4,2,1,80,0,0
209230,-200,4,2,1,80,0,0
210945,-133.333333333333,4,2,1,80,0,0
213088,-133.333333333333,4,2,1,80,0,0
226373,-133.333333333333,4,1,1,80,0,0
230659,-76.9230769230769,4,2,1,80,0,0
233230,-50,4,1,1,80,0,1
239873,-50,4,2,1,5,0,1
240088,-133.333333333333,4,1,1,80,0,1
240945,-50,4,1,1,80,0,1
242016,-133.333333333333,4,1,1,80,0,1
242659,-50,4,1,1,80,0,1
252945,-100,4,1,1,80,0,1
253802,-50,4,1,1,80,0,1
258088,-133.333333333333,4,1,1,80,0,1
259159,-50,4,1,1,80,0,1
260016,-100,4,1,1,80,0,1
260659,-125,4,2,1,80,0,0
273945,-83.3333333333333,4,2,1,80,0,0
284659,-100,4,2,1,80,0,0
288088,-133.333333333333,4,2,1,80,0,1
288945,-50,4,2,1,80,0,1
289373,-50,4,2,1,5,0,1
289480,-50,4,1,1,80,0,1
290016,-50,4,2,1,5,0,1
290123,-50,4,1,1,80,0,1
290659,-50,4,2,1,5,0,1
290766,-50,4,1,1,80,0,1
291516,-133.333333333333,4,1,1,80,0,1
292373,-50,4,1,1,80,0,1
292802,-50,4,2,1,5,0,1
292909,-50,4,1,1,80,0,1
293445,-50,4,2,1,5,0,1
293552,-50,4,1,1,80,0,1
294088,-50,4,2,1,5,0,1
294195,-50,4,1,1,80,0,1
294945,-133.333333333333,4,1,1,80,0,1
295802,-50,4,1,1,80,0,1
296230,-50,4,2,1,5,0,1
296338,-50,4,1,1,80,0,1
296873,-50,4,2,1,5,0,1
296980,-50,4,1,1,80,0,1
297516,-50,4,2,1,5,0,1
297623,-50,4,2,1,80,0,1
298373,-133.333333333333,4,2,1,80,0,1
299230,-50,4,2,1,80,0,1
299659,-50,4,2,1,5,0,1
299766,-50,4,1,1,80,0,1
300302,-50,4,2,1,5,0,1
300409,-50,4,1,1,80,0,1
300945,-50,4,2,1,5,0,1
301052,-50,4,1,1,80,0,1
301802,-50,4,2,1,80,0,0
302659,-50,4,2,1,80,0,1
303088,-50,4,2,1,5,0,1
303195,-50,4,1,1,80,0,1
303730,-50,4,2,1,5,0,1
303838,-50,4,1,1,80,0,1
304373,-50,4,2,1,5,0,1
304480,-50,4,1,1,80,0,1
305230,-133.333333333333,4,1,1,80,0,1
306088,-50,4,1,1,80,0,1
306516,-50,4,2,1,5,0,1
306623,-50,4,1,1,80,0,1
307159,-50,4,2,1,5,0,1
307266,-50,4,1,1,80,0,1
307802,-50,4,2,1,5,0,1
307909,-50,4,1,1,80,0,1
308659,-133.333333333333,4,1,1,80,0,1
309516,-50,4,1,1,80,0,1
309945,-50,4,2,1,5,0,1
310052,-50,4,1,1,80,0,1
310588,-50,4,2,1,5,0,1
310695,-50,4,1,1,80,0,1
311230,-50,4,2,1,5,0,1
311338,-50,4,1,1,80,0,1
312088,-83.3333333333333,4,2,1,80,0,1
314016,-83.3333333333333,4,1,1,80,0,1
315516,-50,4,2,1,80,0,0
323230,-50,4,2,1,5,0,0

[Colours]
Combo1 : 255,193,224
Combo2 : 128,255,255
Combo3 : 138,138,255
Combo4 : 172,100,91

[HitObjects]
416,208,88,6,0,P|392:232|352:248,1,64
208,152,516,1,0,0:0:0:0:
241,220,730,1,0,0:0:0:0:
304,152,945,2,0,P|288:184|231:224,1,96
80,344,1588,1,4,0:0:0:0:
80,344,2016,6,0,P|120:336|160:304,1,64
192,264,2445,1,0,0:0:0:0:
268,328,2659,2,0,P|292:280|281:224,1,96
224,128,3302,1,4,0:0:0:0:
144,128,3516,6,0,P|152:168|192:192,1,64
316,248,3945,1,0,0:0:0:0:
228,256,4159,1,0,0:0:0:0:
276,336,4373,2,0,P|244:304|228:256,1,96
200,40,5016,1,4,0:0:0:0:
200,40,5445,6,0,P|214:76|247:103,1,64
304,128,5873,1,0,0:0:0:0:
240,168,6088,2,0,P|200:208|184:248,1,96
176,360,6730,1,4,0:0:0:0:
264,376,6945,6,0,P|293:348|304:304,1,71.9999978027344,0|2,0:0|0:0,0:0:0:0:
196,172,7373,1,0,0:0:0:0:
262,225,7588,1,2,0:0:0:0:
200,256,7802,2,0,P|248:240|272:208,1,71.9999978027344,0|2,0:0|0:0,0:0:0:0:
260,160,8123,1,0,0:0:0:0:
400,80,8445,1,6,0:0:0:0:
400,80,8873,6,0,P|392:128|368:152,1,71.9999978027344,2|0,0:0|0:0,0:0:0:0:
232,108,9302,1,2,0:0:0:0:
152,172,9516,1,0,0:0:0:0:
96,256,9730,1,2,0:0:0:0:
96,256,9838,1,0,0:0:0:0:
16,384,10159,1,2,0:0:0:0:
192,344,10373,6,0,P|232:348|284:332,1,71.9999978027344,0|2,0:0|0:0,0:0:0:0:
404,232,10802,1,0,0:0:0:0:
332,268,11016,1,2,0:0:0:0:
388,310,11230,2,0,P|348:286|321:248,1,71.9999978027344,0|2,0:0|0:0,0:0:0:0:
336,200,11552,1,0,0:0:0:0:
248,96,11873,1,6,0:0:0:0:
248,96,12302,6,0,P|228:133|195:158,1,71.9999978027344,2|0,0:0|0:0,0:0:0:0:
56,64,12730,1,2,0:0:0:0:
104,152,12945,1,0,0:0:0:0:
184,208,13159,1,2,0:0:0:0:
184,208,13266,1,0,0:0:0:0:
272,288,13588,1,6,0:0:0:0:
248,88,13802,6,0,P|224:128|224:168,1,80,2|0,0:0|0:0,0:0:0:0:
320,144,14230,2,0,P|344:104|344:64,1,80
316,172,14659,2,0,P|292:212|312:279,1,120,2|0,0:0|0:0,0:0:0:0:
464,344,15302,1,0,0:0:0:0:
368,360,15516,1,6,0:0:0:0:
408,272,15730,6,0,P|416:336|424:376,1,80
488,280,16159,1,0,0:0:0:0:
368,360,16373,2,0,P|320:336|288:264,1,120,2|0,0:0|0:0,0:0:0:0:
248,120,17016,1,6,0:0:0:0:
344,136,17230,6,0,P|368:176|368:216,1,80,2|0,0:0|0:0,0:0:0:0:
273,192,17659,2,0,P|249:152|249:112,1,80
288,216,18088,2,0,P|301:274|262:335,1,120,2|0,0:0|0:0,0:0:0:0:
136,352,18730,1,0,0:0:0:0:
136,256,18945,1,6,0:0:0:0:
216,312,19159,6,0,P|152:312|115:308,1,80
200,384,19588,1,0,0:0:0:0:
136,264,19802,1,2,0:0:0:0:
88,128,20123,2,0,P|104:96|192:72,1,120,0|6,0:0|0:0,0:0:0:0:
256,128,20659,6,0,P|232:168|232:208,1,80,2|0,0:0|0:0,0:0:0:0:
328,192,21088,2,0,P|352:152|352:112,1,80
328,56,21516,1,2,0:0:0:0:
225,158,21838,1,0,0:0:0:0:
88,32,22159,1,4,0:0:0:0:
160,144,22373,5,2,0:0:0:0:
256,120,22588,2,0,P|248:64|264:48,1,80
344,96,23016,2,0,P|352:160|336:176,1,80,0|2,0:0|0:0,0:0:0:0:
243,269,23552,1,0,0:0:0:0:
141,167,23873,1,4,0:0:0:0:
241,197,24088,6,0,P|257:236|233:277,1,80,2|0,0:0|0:0,0:0:0:0:
151,242,24516,2,0,P|135:203|142:164,1,80
209,98,24945,1,2,0:0:0:0:
310,199,25266,1,0,0:0:0:0:
412,96,25588,1,0,0:0:0:0:
412,96,25802,5,8,0:0:0:0:
256,192,25909,12,2,27516,0:0:0:0:
352,216,27730,5,0,0:0:0:0:
248,264,27945,1,0,0:0:0:0:
360,240,28159,1,0,0:0:0:0:
248,240,28373,1,2,0:0:0:0:
396,332,28695,2,0,P|443:279|452:209,1,143.999995605469,0|4,0:0|0:0,0:0:0:0:
384,32,29230,5,2,0:0:0:0:
328,128,29445,2,0,P|296:176|264:208,1,95.9999970703126
160,256,29873,1,0,0:0:0:0:
64,192,30088,1,2,0:0:0:0:
72,152,30409,1,0,0:0:0:0:
80,112,30730,1,4,0:0:0:0:
176,48,30945,5,2,0:0:0:0:
288,80,31159,1,0,0:0:0:0:
184,32,31373,1,0,0:0:0:0:
280,96,31588,1,0,0:0:0:0:
200,8,31802,2,0,P|139:49|128:128,1,143.999995605469,2|0,0:0|0:0,0:0:0:0:
160,288,32445,1,4,0:0:0:0:
56,248,32659,1,2,0:0:0:0:
152,312,32873,6,0,P|208:320|248:312,1,95.9999970703126
344,256,33302,1,0,0:0:0:0:
384,144,33516,1,2,0:0:0:0:
352,128,33838,1,0,0:0:0:0:
320,112,34159,1,4,0:0:0:0:
232,40,34373,5,2,0:0:0:0:
152,120,34588,1,0,0:0:0:0:
256,176,34802,1,0,0:0:0:0:
176,256,35016,1,0,0:0:0:0:
288,296,35230,2,0,P|312:224|280:160,1,143.999995605469,2|0,0:0|0:0,0:0:0:0:
200,16,35873,1,4,0:0:0:0:
136,112,36088,1,2,0:0:0:0:
248,144,36302,5,0,0:0:0:0:
336,224,36516,1,0,0:0:0:0:
232,264,36730,1,0,0:0:0:0:
304,352,36945,1,2,0:0:0:0:
272,344,37266,1,0,0:0:0:0:
240,336,37588,1,0,0:0:0:0:
184,240,37802,5,2,0:0:0:0:
288,200,38016,1,0,0:0:0:0:
184,144,38230,1,0,0:0:0:0:
288,96,38445,1,0,0:0:0:0:
192,40,38659,2,0,P|136:120|160:152,1,143.999995605469,2|0,0:0|0:0,0:0:0:0:
264,272,39302,1,4,0:0:0:0:
232,384,39516,1,2,0:0:0:0:
336,336,39730,6,0,P|376:304|392:264,1,95.9999970703126
392,144,40159,1,0,0:0:0:0:
296,80,40373,1,2,0:0:0:0:
256,96,40695,1,0,0:0:0:0:
224,112,41016,1,4,0:0:0:0:
104,152,41230,5,2,0:0:0:0:
104,264,41445,1,0,0:0:0:0:
200,200,41659,5,8,0:0:0:0:
200,200,41766,1,0,0:0:0:0:
208,312,41873,1,0,0:0:0:0:
296,232,42088,6,0,P|334:202|311:108,1,143.999995605469,2|0,0:0|0:0,0:0:0:0:
296,100,42516,1,8,0:0:0:0:
270,86,42623,1,0,0:0:0:0:
242,79,42730,1,0,0:0:0:0:
354,71,42945,5,2,0:0:0:0:
242,79,43159,2,0,P|226:135|186:167,1,95.9999970703126,0|8,0:0|0:0,0:0:0:0:
182,179,43480,1,0,0:0:0:0:
158,195,43588,1,0,0:0:0:0:
50,239,43802,5,2,0:0:0:0:
66,271,44123,1,0,0:0:0:0:
82,303,44445,1,0,0:0:0:0:
48,160,44659,5,2,0:0:0:0:
160,184,44873,1,0,0:0:0:0:
168,72,45088,5,8,0:0:0:0:
168,72,45195,1,0,0:0:0:0:
272,112,45302,1,0,0:0:0:0:
344,24,45516,5,2,0:0:0:0:
352,136,45730,1,0,0:0:0:0:
464,96,45945,5,8,0:0:0:0:
464,96,46052,1,0,0:0:0:0:
376,184,46159,1,0,0:0:0:0:
400,304,46373,5,2,0:0:0:0:
312,232,46588,1,0,0:0:0:0:
264,336,46802,5,8,0:0:0:0:
264,336,46909,1,0,0:0:0:0:
176,264,47016,1,0,0:0:0:0:
80,336,47230,5,2,0:0:0:0:
64,304,47552,1,0,0:0:0:0:
48,272,47873,1,0,0:0:0:0:
128,184,48088,5,2,0:0:0:0:
200,96,48302,1,0,0:0:0:0:
88,80,48516,5,8,0:0:0:0:
88,80,48623,1,0,0:0:0:0:
128,184,48730,1,0,0:0:0:0:
224,256,48945,5,2,0:0:0:0:
288,160,49159,1,0,0:0:0:0:
336,264,49373,5,8,0:0:0:0:
336,264,49480,1,0,0:0:0:0:
224,256,49588,1,0,0:0:0:0:
136,176,49802,5,2,0:0:0:0:
232,120,50016,1,0,0:0:0:0:
128,64,50230,5,8,0:0:0:0:
128,64,50338,1,0,0:0:0:0:
136,176,50445,1,0,0:0:0:0:
272,232,50659,5,2,0:0:0:0:
256,200,50980,1,0,0:0:0:0:
240,168,51302,1,0,0:0:0:0:
176,16,51516,5,2,0:0:0:0:
112,112,51730,1,0,0:0:0:0:
248,120,51945,5,8,0:0:0:0:
248,120,52052,1,0,0:0:0:0:
176,16,52159,1,0,0:0:0:0:
112,112,52373,5,2,0:0:0:0:
32,192,52588,1,0,0:0:0:0:
144,216,52802,5,8,0:0:0:0:
144,216,52909,1,0,0:0:0:0:
112,112,53016,1,0,0:0:0:0:
200,32,53230,1,0,0:0:0:0:
176,144,53445,5,0,0:0:0:0:
248,104,53659,1,0,0:0:0:0:
184,200,53873,1,0,0:0:0:0:
288,128,54088,1,0,0:0:0:0:
200,240,54302,1,0,0:0:0:0:
328,136,54516,1,0,0:0:0:0:
208,272,54730,1,4,0:0:0:0:
344,208,54945,6,0,P|315:267|249:280,1,120,8|0,0:0|0:0,0:0:0:0:
192,280,55802,2,0,P|176:232|184:200,1,80
280,204,56659,2,0,P|264:156|272:124,1,80
360,160,57516,1,0,0:0:0:0:
208,184,57945,1,4,0:0:0:0:
72,240,58373,6,0,P|106:282|184:304,1,120
152,224,59230,2,0,P|192:184|250:197,1,120
272,224,59980,1,0,0:0:0:0:
300,252,60088,6,0,P|248:288|209:238,1,137.142857142857,4|0,0:0|0:0,0:0:0:0:
320,132,61802,6,0,P|330:197|384:228,1,120
388,160,62659,2,0,P|436:184|460:216,1,80
372,226,63516,2,0,P|324:202|300:170,1,80
280,104,64373,1,0,0:0:0:0:
184,104,64802,1,4,0:0:0:0:
112,168,65230,6,0,P|137:229|200:256,1,120
184,184,66088,2,0,P|247:231|248:277,1,120
200,328,66945,1,0,0:0:0:0:
72,328,67373,1,0,0:0:0:0:
200,328,67802,1,0,0:0:0:0:
72,328,68230,1,4,0:0:0:0:
8,200,68659,6,0,P|56:160|120:168,1,120.000004577637,2|0,0:0|0:0,0:0:0:0:
152,224,69516,2,0,P|216:224|256:184,1,120.000004577637,2|0,0:0|0:0,0:0:0:0:
248,112,70373,2,0,P|296:72|360:80,1,120.000004577637,2|0,0:0|0:0,0:0:0:0:
392,136,71230,2,0,P|456:136|496:96,1,120.000004577637,2|4,0:0|0:0,0:0:0:0:
412,36,72088,6,0,P|435:136|377:206,1,180.000006866455,2|0,0:0|0:0,0:0:0:0:
352,256,72945,2,0,P|296:320|352:384,1,180.000006866455,2|0,0:0|0:0,0:0:0:0:
376,368,73695,1,0,0:0:0:0:
392,336,73802,2,0,P|304:300|208:192,1,240.000009155274,2|2,0:0|0:0,0:0:0:0:
184,72,75088,1,4,0:0:0:0:
328,88,75516,6,0,P|328:152|264:184,1,120.000004577637,2|0,0:0|0:0,0:0:0:0:
256,112,76373,2,0,P|256:48|320:16,1,120.000004577637,2|0,0:0|0:0,0:0:0:0:
328,88,77230,2,0,P|328:152|264:184,1,120.000004577637,2|0,0:0|0:0,0:0:0:0:
216,168,78088,2,0,P|176:224|200:280,1,120.000004577637,2|4,0:0|0:0,0:0:0:0:
256,304,78945,6,0,P|352:288|360:208,1,180.000006866455,2|0,0:0|0:0,0:0:0:0:
288,240,79802,2,0,P|360:320|440:320,1,180.000006866455,2|0,0:0|0:0,0:0:0:0:
472,264,80659,5,2,0:0:0:0:
448,240,81088,1,0,0:0:0:0:
424,216,81516,1,2,0:0:0:0:
400,192,81945,1,0,0:0:0:0:
280,112,82373,5,8,0:0:0:0:
256,192,82480,12,0,85802,0:0:0:0:
360,168,86016,5,0,0:0:0:0:
248,224,86230,2,0,P|200:200|184:152,1,103.999995239258
216,32,86659,1,0,0:0:0:0:
240,56,86980,1,0,0:0:0:0:
264,80,87302,1,4,0:0:0:0:
352,168,87516,5,0,0:0:0:0:
352,168,87623,1,0,0:0:0:0:
352,168,87730,1,0,0:0:0:0:
248,240,87945,2,0,P|200:208|184:160,1,103.999995239258
232,48,88373,1,0,0:0:0:0:
256,72,88695,1,0,0:0:0:0:
280,96,89016,1,4,0:0:0:0:
368,184,89230,5,2,0:0:0:0:
346,209,89337,1,0,0:0:0:0:
317,227,89444,1,0,0:0:0:0:
284,228,89551,1,0,0:0:0:0:
253,214,89658,1,0,0:0:0:0:
222,201,89765,1,0,0:0:0:0:
189,205,89872,1,0,0:0:0:0:
161,222,89979,1,0,0:0:0:0:
136,240,90088,5,2,0:0:0:0:
102,272,90195,1,0,0:0:0:0:
95,316,90302,1,0,0:0:0:0:
124,352,90409,1,0,0:0:0:0:
168,363,90516,1,0,0:0:0:0:
215,360,90623,1,0,0:0:0:0:
258,344,90730,1,0,0:0:0:0:
293,313,90837,1,0,0:0:0:0:
304,264,90945,5,2,0:0:0:0:
286,216,91052,1,0,0:0:0:0:
240,193,91159,1,0,0:0:0:0:
191,208,91266,1,0,0:0:0:0:
144,216,91373,1,0,0:0:0:0:
96,198,91480,1,0,0:0:0:0:
73,152,91587,1,0,0:0:0:0:
88,103,91694,1,0,0:0:0:0:
128,56,91802,5,2,0:0:0:0:
175,26,91909,1,0,0:0:0:0:
229,38,92016,1,0,0:0:0:0:
260,85,92123,1,0,0:0:0:0:
272,144,92230,5,0,0:0:0:0:
280,200,92337,1,0,0:0:0:0:
320,240,92444,1,0,0:0:0:0:
368,224,92551,1,0,0:0:0:0:
392,168,92660,5,2,0:0:0:0:
447,136,92767,1,0,0:0:0:0:
498,173,92874,1,0,0:0:0:0:
484,236,92981,1,0,0:0:0:0:
424,272,93088,1,2,0:0:0:0:
391,326,93195,1,0,0:0:0:0:
433,374,93302,1,0,0:0:0:0:
492,351,93409,1,0,0:0:0:0:
506,283,93516,6,0,L|474:215,1,51.999997619629,2|0,0:0|0:0,0:0:0:0:
424,272,93730,2,0,L|392:220,1,51.999997619629,2|0,0:0|0:0,0:0:0:0:
344,284,93945,2,0,L|296:236,1,51.999997619629,2|0,0:0|0:0,0:0:0:0:
280,320,94159,2,0,L|224:280,1,51.999997619629,2|0,0:0|0:0,0:0:0:0:
168,384,94373,5,2,0:0:0:0:
168,384,94480,1,2,0:0:0:0:
80,216,94695,1,0,0:0:0:0:
106,186,94802,1,0,0:0:0:0:
144,174,94909,1,0,0:0:0:0:
183,181,95016,1,0,0:0:0:0:
213,206,95123,1,4,0:0:0:0:
176,320,95230,5,2,0:0:0:0:
224,232,95338,1,0,0:0:0:0:
250,261,95445,1,0,0:0:0:0:
288,273,95552,1,0,0:0:0:0:
360,208,95659,5,2,0:0:0:0:
368,240,95766,1,2,0:0:0:0:
376,272,95873,1,2,0:0:0:0:
384,304,95980,1,2,0:0:0:0:
304,352,96088,5,2,0:0:0:0:
144,240,96302,2,0,P|184:216|232:216,1,80
312,216,96516,1,0,0:0:0:0:
192,64,96731,2,0,P|227:43|280:48,1,80
360,72,96945,1,2,0:0:0:0:
456,240,97159,2,0,P|439:278|408:304,1,80
152,200,97588,2,0,P|176:168|214:145,1,80,0|4,0:0|0:0,0:0:0:0:
304,128,97802,6,0,L|304:176,4,26.6666666666667
304,184,98016,5,2,0:0:0:0:
480,256,98230,2,0,P|472:304|440:336,1,80
368,376,98445,1,4,0:0:0:0:
160,297,98659,5,0,0:0:0:0:
181,163,98766,1,0,0:0:0:0:
242,284,98873,1,0,0:0:0:0:
121,222,98980,1,0,0:0:0:0:
256,204,99088,2,0,B|287:153|235:115|235:115|308:140|308:140|240:72|344:40,1,320,0|4,0:0|0:0,0:0:0:0:
452,200,99730,1,0,0:0:0:0:
344,356,99945,5,0,0:0:0:0:
236,200,100159,1,0,0:0:0:0:
120,356,100373,1,2,0:0:0:0:
168,168,100588,1,0,0:0:0:0:
248,344,100802,1,0,0:0:0:0:
168,168,101016,1,4,0:0:0:0:
344,88,101230,6,0,L|368:128,1,40
428,248,101338,2,0,L|400:200,1,40
288,160,101445,1,0,0:0:0:0:
252,144,101498,1,0,0:0:0:0:
120,216,101605,1,0,0:0:0:0:
120,256,101659,5,0,0:0:0:0:
251,384,101873,1,0,0:0:0:0:
387,247,102088,2,0,B|347:167|347:167|315:231|267:127|267:127|323:111|331:23|331:23|251:71|195:31|195:31,1,480,0|4,0:0|0:0,0:0:0:0:
196,180,102945,6,2,P|132:268|28:215,1,240.000009155274
116,48,104016,1,0,0:0:0:0:
124,240,104230,1,0,0:0:0:0:
256,40,104445,1,0,0:0:0:0:
320,240,104659,2,0,L|296:272,4,26.6666666666667
288,280,104873,6,0,P|208:312|184:232,1,180.000006866455,2|2,0:0|0:0,0:0:0:0:
288,80,105730,1,0,0:0:0:0:
376,252,105945,1,0,0:0:0:0:
179,241,106159,1,4,0:0:0:0:
352,128,106373,5,4,0:0:0:0:
224,160,106516,1,4,0:0:0:0:
260,36,106659,1,4,0:0:0:0:
352,128,106802,1,4,0:0:0:0:
436,28,106945,1,4,0:0:0:0:
476,148,107088,1,4,0:0:0:0:
380,68,107230,5,4,0:0:0:0:
476,148,107373,1,4,0:0:0:0:
376,224,107516,1,4,0:0:0:0:
296,120,107659,5,4,0:0:0:0:
260,244,107802,1,4,0:0:0:0:
168,156,107945,1,4,0:0:0:0:
296,120,108088,5,4,0:0:0:0:
296,120,108516,5,4,0:0:0:0:
328,240,108659,1,4,0:0:0:0:
440,184,108802,1,4,0:0:0:0:
480,304,108945,1,4,0:0:0:0:
328,240,109088,1,4,0:0:0:0:
296,120,109230,1,4,0:0:0:0:
179,164,109373,6,2,P|147:204|147:252,1,80
256,292,109588,2,2,P|288:252|288:204,1,80
296,120,109802,5,2,0:0:0:0:
144,232,110016,2,0,P|111:198|104:158,1,80
128,72,110230,1,0,0:0:0:0:
312,24,110445,2,0,P|349:49|367:88,1,80
344,176,110659,1,2,0:0:0:0:
184,304,110873,2,0,P|145:274|135:237,1,80
344,48,111302,2,0,P|384:72|404:105,1,80,0|4,0:0|0:0,0:0:0:0:
400,192,111516,6,0,L|384:240,4,26.6666666666667
376,256,111730,1,2,0:0:0:0:
296,368,111945,2,0,P|254:340|232:298,1,80
216,224,112159,1,0,0:0:0:0:
362,70,112373,5,0,0:0:0:0:
362,204,112480,1,0,0:0:0:0:
281,95,112587,1,0,0:0:0:0:
410,134,112695,1,0,0:0:0:0:
292,176,112802,2,0,B|252:184|210:237|210:237|160:183|116:237|116:237|83:187|19:205,1,320,0|6,0:0|0:0,0:0:0:0:
128,352,113445,5,0,0:0:0:0:
312,297,113659,1,0,0:0:0:0:
128,352,113873,1,0,0:0:0:0:
272,224,114088,5,2,0:0:0:0:
432,120,114302,2,0,P|465:150|481:185,1,80
468,276,114516,1,0,0:0:0:0:
296,364,114730,2,0,P|263:334|244:304,1,80,0|4,0:0|0:0,0:0:0:0:
132,200,114945,5,0,0:0:0:0:
116,48,115052,2,0,L|148:96,1,40
216,196,115159,2,0,L|184:152,1,40
220,56,115266,1,0,0:0:0:0:
268,44,115320,1,0,0:0:0:0:
308,64,115373,5,0,0:0:0:0:
424,312,115588,1,0,0:0:0:0:
233,271,115802,2,0,B|209:335|209:335|169:247|153:359|89:263|89:263|97:367|57:359,1,320,2|6,0:0|0:0,0:0:0:0:
268,360,116873,5,0,0:0:0:0:
384,208,117088,1,0,0:0:0:0:
240,80,117302,1,0,0:0:0:0:
424,20,117516,1,2,0:0:0:0:
384,208,117730,1,0,0:0:0:0:
240,80,117945,1,0,0:0:0:0:
184,264,118159,1,4,0:0:0:0:
16,192,118373,6,0,L|-8:224,4,26.6666666666667
60,144,118588,1,2,0:0:0:0:
240,80,118802,2,0,P|320:104|380:160,1,160
464,324,119230,1,6,0:0:0:0:
288,252,119445,1,0,0:0:0:0:
120,348,119659,5,0,0:0:0:0:
192,172,119873,1,0,0:0:0:0:
384,160,120088,1,2,0:0:0:0:
16,64,120516,1,2,0:0:0:0:
344,272,120945,2,2,P|408:240|327:126,1,240.000009155274
32,352,122230,5,2,0:0:0:0:
208,272,122445,1,0,0:0:0:0:
104,112,122659,1,2,0:0:0:0:
296,104,122873,1,4,0:0:0:0:
208,272,123088,2,0,P|211:210|278:243,1,160,0|2,0:0|0:0,0:0:0:0:
336,312,123730,5,0,0:0:0:0:
376,224,123945,2,0,P|384:168|368:136,1,80
328,64,124373,1,2,0:0:0:0:
296,80,124695,1,0,0:0:0:0:
264,96,125016,1,4,0:0:0:0:
352,128,125230,5,2,0:0:0:0:
264,168,125445,6,0,P|232:208|184:208,1,80
120,176,125873,1,0,0:0:0:0:
144,80,126088,1,2,0:0:0:0:
176,96,126409,1,0,0:0:0:0:
208,112,126730,1,4,0:0:0:0:
296,152,126945,6,0,P|304:192|296:232,1,80,2|0,0:0|0:0,0:0:0:0:
208,190,127373,2,0,P|200:150|208:110,1,80
288,56,127802,1,2,0:0:0:0:
312,80,128123,1,0,0:0:0:0:
336,104,128445,1,4,0:0:0:0:
248,136,128659,5,2,0:0:0:0:
328,192,128873,6,0,P|368:152|376:112,1,80
368,32,129302,1,0,0:0:0:0:
280,64,129516,1,2,0:0:0:0:
256,88,129838,1,0,0:0:0:0:
232,112,130159,1,4,0:0:0:0:
168,184,130373,5,2,0:0:0:0:
248,240,130588,1,0,0:0:0:0:
184,168,130802,1,0,0:0:0:0:
224,256,131016,1,0,0:0:0:0:
208,160,131230,2,0,P|256:144|320:192,1,120,2|0,0:0|0:0,0:0:0:0:
384,304,131873,1,4,0:0:0:0:
288,288,132088,5,2,0:0:0:0:
360,224,132302,5,0,0:0:0:0:
360,128,132516,1,0,0:0:0:0:
272,168,132730,1,0,0:0:0:0:
264,72,132945,1,2,0:0:0:0:
232,80,133266,1,0,0:0:0:0:
200,88,133588,1,4,0:0:0:0:
104,112,133802,5,2,0:0:0:0:
128,208,134016,1,0,0:0:0:0:
88,120,134230,1,0,0:0:0:0:
144,200,134445,1,0,0:0:0:0:
56,164,134659,2,0,P|40:212|88:276,1,120,2|0,0:0|0:0,0:0:0:0:
204,332,135302,1,4,0:0:0:0:
108,320,135516,5,2,0:0:0:0:
176,240,135730,5,0,0:0:0:0:
256,192,135945,1,0,0:0:0:0:
296,280,136159,1,0,0:0:0:0:
368,216,136373,1,2,0:0:0:0:
384,184,136695,1,0,0:0:0:0:
400,152,137016,1,4,0:0:0:0:
280,160,137230,5,2,0:0:0:0:
294,182,137337,1,0,0:0:0:0:
308,204,137445,2,0,L|336:248,1,40
232,160,137659,5,8,0:0:0:0:
218,182,137766,1,0,0:0:0:0:
204,204,137874,2,0,L|176:248,1,40
332,132,138088,5,2,0:0:0:0:
346,154,138195,1,0,0:0:0:0:
360,176,138303,2,0,L|388:220,1,40
184,132,138516,5,8,0:0:0:0:
170,154,138623,1,0,0:0:0:0:
156,176,138731,2,0,L|128:220,1,40
280,224,138945,5,2,0:0:0:0:
294,202,139052,1,0,0:0:0:0:
308,180,139160,2,0,L|336:136,1,40
232,224,139374,5,8,0:0:0:0:
218,202,139481,1,0,0:0:0:0:
204,180,139589,2,0,L|176:136,1,40
332,252,139803,5,2,0:0:0:0:
346,230,139910,1,0,0:0:0:0:
360,208,140018,2,0,L|388:164,1,40
184,252,140231,5,8,0:0:0:0:
170,230,140338,1,0,0:0:0:0:
156,208,140446,2,0,L|128:164,1,40
136,216,140659,6,0,L|204:215,1,40,2|0,0:0|0:0,0:0:0:0:
160,264,140873,2,0,L|218:263,1,40
184,304,141088,2,0,L|244:304,1,40,8|0,0:0|0:0,0:0:0:0:
200,344,141302,2,0,L|259:343,1,40
376,216,141516,6,0,L|308:215,1,40,2|0,0:0|0:0,0:0:0:0:
352,264,141730,2,0,L|294:263,1,40
328,304,141945,2,0,L|268:304,1,40,8|0,0:0|0:0,0:0:0:0:
312,344,142159,2,0,L|253:343,1,40
136,168,142373,6,0,L|204:169,1,40,2|0,0:0|0:0,0:0:0:0:
160,120,142587,2,0,L|218:121,1,40
184,80,142802,2,0,L|244:80,1,40,8|0,0:0|0:0,0:0:0:0:
200,40,143016,2,0,L|259:41,1,40
376,168,143230,6,0,L|308:169,1,40,2|0,0:0|0:0,0:0:0:0:
352,120,143444,2,0,L|294:121,1,40
328,80,143659,2,0,L|268:80,1,40,8|0,0:0|0:0,0:0:0:0:
312,40,143873,2,0,L|253:41,1,40
336,104,144088,6,0,L|360:152,3,40,2|0|0|0,0:0|0:0|0:0|0:0,0:0:0:0:
176,104,144516,6,0,L|144:160,3,40,8|0|0|0,0:0|0:0|0:0|0:0,0:0:0:0:
400,88,144945,6,0,L|424:136,3,40,2|0|0|0,0:0|0:0|0:0|0:0,0:0:0:0:
112,88,145373,6,0,L|80:144,3,40,8|0|0|0,0:0|0:0|0:0|0:0,0:0:0:0:
336,280,145802,6,0,L|360:232,3,40,2|0|0|0,0:0|0:0|0:0|0:0,0:0:0:0:
176,280,146230,6,0,L|144:224,3,40,8|0|0|0,0:0|0:0|0:0|0:0,0:0:0:0:
400,296,146659,6,0,L|424:248,3,40,2|0|0|0,0:0|0:0|0:0|0:0,0:0:0:0:
112,296,147087,6,0,L|80:240,3,40,8|0|0|0,0:0|0:0|0:0|0:0,0:0:0:0:
64,176,147516,5,2,0:0:0:0:
121,149,147623,1,0,0:0:0:0:
184,134,147730,1,0,0:0:0:0:
247,142,147837,1,0,0:0:0:0:
300,176,147944,1,2,0:0:0:0:
362,190,148051,1,0,0:0:0:0:
420,166,148158,1,0,0:0:0:0:
467,123,148266,1,0,0:0:0:0:
480,56,148373,5,2,0:0:0:0:
429,17,148480,1,0,0:0:0:0:
366,8,148587,1,0,0:0:0:0:
307,31,148694,1,0,0:0:0:0:
264,80,148802,1,2,0:0:0:0:
263,142,148909,1,0,0:0:0:0:
221,188,149016,1,0,0:0:0:0:
158,193,149123,1,0,0:0:0:0:
112,144,149230,6,0,L|80:192,1,40,2|0,0:0|0:0,0:0:0:0:
160,200,149445,2,0,L|160:256,1,40,2|0,0:0|0:0,0:0:0:0:
232,208,149659,2,0,L|264:248,1,40,2|0,0:0|0:0,0:0:0:0:
288,160,149873,2,0,L|320:184,1,40,2|0,0:0|0:0,0:0:0:0:
352,112,150088,2,0,L|368:160,1,40,2|0,0:0|0:0,0:0:0:0:
432,112,150302,2,0,L|408:160,1,40,2|0,0:0|0:0,0:0:0:0:
480,208,150516,5,2,0:0:0:0:
464,240,150623,1,2,0:0:0:0:
448,272,150730,1,2,0:0:0:0:
432,304,150838,1,2,0:0:0:0:
344,336,150945,6,0,P|216:368|192:272,1,240.000009155274,0|2,0:0|0:0,0:0:0:0:
280,96,152016,6,0,B|312:133|312:133|283:160|314:187|314:187|281:231,1,160
176,338,152445,1,2,0:0:0:0:
84,222,152659,2,0,B|52:185|52:185|81:158|50:131|50:131|83:87,1,160
244,18,153088,1,2,0:0:0:0:
332,150,153302,2,0,B|332:198|332:198|293:200|299:241|299:241|245:254,1,160
100,286,153730,1,2,0:0:0:0:
76,134,153945,2,0,B|75:85|75:85|114:83|108:42|108:42|162:29,1,160
296,58,154373,6,0,P|424:26|448:122,1,240.000009155274,0|2,0:0|0:0,0:0:0:0:
336,304,155445,6,0,B|368:267|368:267|339:240|370:213|370:213|337:169,1,160
232,62,155874,1,2,0:0:0:0:
140,178,156088,2,0,B|108:215|108:215|137:242|106:269|106:269|139:313,1,160
300,382,156517,1,2,0:0:0:0:
388,250,156731,2,0,B|388:202|388:202|349:200|355:159|355:159|301:146,1,160
156,114,157159,1,2,0:0:0:0:
132,266,157374,2,0,B|131:315|131:315|170:317|164:358|164:358|218:371,1,160
316,344,157802,6,0,P|445:318|426:221,1,240.000009155274,0|2,0:0|0:0,0:0:0:0:
264,112,158873,6,0,B|250:159|250:159|288:171|271:208|271:208|320:234,1,160
460,287,159302,1,2,0:0:0:0:
494,143,159516,2,0,B|507:95|507:95|469:83|486:46|486:46|437:20,1,160
263,26,159945,1,2,0:0:0:0:
239,182,160159,2,0,B|259:225|259:225|295:210|307:250|307:250|361:239,1,160
507,208,160587,1,2,0:0:0:0:
464,60,160802,2,0,B|444:15|444:15|408:29|396:-9|396:-9|341:1,1,160
252,44,161230,6,0,P|122:69|141:166,1,240.000009155274,0|2,0:0|0:0,0:0:0:0:
296,276,162302,6,0,B|251:255|251:255|266:219|226:207|226:207|238:154,1,160
287,12,162731,1,2,0:0:0:0:
420,78,162945,2,0,B|464:98|464:98|449:134|489:146|489:146|477:199,1,160
361,331,163374,1,2,0:0:0:0:
226,249,163588,2,0,B|205:205|205:205|240:187|217:152|217:152|260:117,1,160
378,27,164016,1,2,0:0:0:0:
464,155,164231,2,0,B|485:198|485:198|451:217|473:251|473:251|430:286,1,160
256,192,164659,12,0,165516,0:0:0:0:
0,128,165730,6,0,B|40:128|40:128|16:104|-8:80|-8:40|-8:40|24:48,1,160
164,108,166159,1,2,0:0:0:0:
316,172,166373,2,0,B|348:164|348:164|348:204|324:228|300:252|300:252|340:252,1,160
472,316,166802,1,2,0:0:0:0:
412,144,167016,6,0,B|383:172|383:172|383:138|383:104|355:76|355:76|338:104,1,160
224,176,167445,1,2,0:0:0:0:
92,272,167659,2,0,B|63:288|63:288|91:317|125:317|159:317|159:317|131:345,1,160
272,296,168088,6,0,P|385:228|334:143,1,240.000009155274,0|2,0:0|0:0,0:0:0:0:
168,16,169159,6,0,B|167:56|167:56|144:32|120:8|80:8|80:8|88:40,1,160
84,164,169588,1,0,0:0:0:0:
80,308,169802,2,0,B|72:340|72:340|112:340|136:316|160:292|160:292|160:332,1,160
288,384,170230,1,0,0:0:0:0:
404,224,170445,6,0,B|375:195|375:195|375:229|375:263|347:291|347:291|330:263,1,160
216,172,170873,1,0,0:0:0:0:
92,64,171088,2,0,B|63:47|63:47|92:18|125:18|159:18|159:18|131:-9,1,160
216,172,171516,6,0,P|241:301|338:282,1,240.000009155274,0|2,0:0|0:0,0:0:0:0:
480,128,172588,6,0,B|440:128|440:128|464:104|488:80|488:40|488:40|456:48,1,160
316,108,173017,1,2,0:0:0:0:
164,172,173231,2,0,B|132:164|132:164|132:204|156:228|180:252|180:252|140:252,1,160
8,316,173660,1,2,0:0:0:0:
68,144,173874,6,0,B|96:172|96:172|96:138|96:104|124:76|124:76|141:104,1,160
256,176,174303,1,2,0:0:0:0:
388,272,174517,2,0,B|416:288|416:288|388:317|354:317|320:317|320:317|348:345,1,160
496,256,174945,5,2,0:0:0:0:
432,216,175159,1,0,0:0:0:0:
352,216,175373,1,2,0:0:0:0:
288,264,175588,1,0,0:0:0:0:
208,264,175802,1,2,0:0:0:0:
144,216,176016,1,0,0:0:0:0:
64,216,176230,1,0,0:0:0:0:
0,264,176445,1,4,0:0:0:0:
0,264,176873,5,0,0:0:0:0:
179,220,177088,1,2,0:0:0:0:
7,150,177302,1,0,0:0:0:0:
105,308,177516,1,2,0:0:0:0:
118,121,177730,1,0,0:0:0:0:
179,220,177945,1,0,0:0:0:0:
236,120,178159,1,0,0:0:0:0:
297,219,178374,1,0,0:0:0:0:
256,192,186945,12,2,192088,0:0:0:0:
344,232,192516,5,0,0:0:0:0:
288,152,192945,2,0,P|216:152|181:239,1,160,2|0,0:0|0:0,0:0:0:0:
224,304,194016,1,2,0:0:0:0:
224,304,194230,1,2,0:0:0:0:
296,240,194445,1,0,0:0:0:0:
342,255,194659,1,4,0:0:0:0:
342,303,194873,1,0,0:0:0:0:
296,318,195088,1,0,0:0:0:0:
268,279,195302,1,0,0:0:0:0:
280,184,195516,6,0,P|280:112|208:136,1,160,2|2,0:0|0:0,0:0:0:0:
112,288,197230,1,0,0:0:0:0:
208,304,197445,5,2,0:0:0:0:
254,307,197552,1,2,0:0:0:0:
293,279,197659,1,2,0:0:0:0:
336,192,198088,1,4,0:0:0:0:
336,192,198302,1,2,0:0:0:0:
336,192,198945,5,2,0:0:0:0:
328,240,199802,1,2,0:0:0:0:
320,288,200659,1,0,0:0:0:0:
232,336,200873,5,2,0:0:0:0:
232,336,201088,1,2,0:0:0:0:
128,176,201516,1,4,0:0:0:0:
272,48,201945,6,0,P|304:80|312:112,1,80,0|2,0:0|0:0,0:0:0:0:
272,304,203230,1,4,0:0:0:0:
112,200,204088,1,0,0:0:0:0:
160,120,204302,5,2,0:0:0:0:
207,117,204409,1,2,0:0:0:0:
247,141,204516,1,2,0:0:0:0:
320,208,204945,1,4,0:0:0:0:
144,280,205802,6,0,P|115:258|100:225,1,60.0000022888184
176,216,206230,2,0,P|205:238|220:271,1,60.0000022888184
176,320,206659,6,0,P|260:314|269:215,1,200,4|2,0:0|0:0,0:0:0:0:
224,160,207945,1,2,0:0:0:0:
144,280,208373,1,4,0:0:0:0:
352,344,209016,5,0,0:0:0:0:
384,280,209230,2,0,P|384:208|336:192,1,120.000004577637,2|0,0:0|0:0,0:0:0:0:
272,192,210088,2,0,P|221:141|243:95,1,120.000004577637,4|0,0:0|0:0,0:0:0:0:
304,96,210945,6,0,P|336:128|344:152,1,60.0000022888184,0|2,0:0|0:0,0:0:0:0:
336,176,211266,1,2,0:0:0:0:
320,208,211373,1,2,0:0:0:0:
200,288,211802,1,4,0:0:0:0:
136,256,212016,1,2,0:0:0:0:
104,192,212230,1,2,0:0:0:0:
200,88,212659,5,2,0:0:0:0:
336,136,213088,2,0,P|368:184|330:222,1,120.000004577637,0|4,0:0|0:0,0:0:0:0:
184,232,213945,1,0,0:0:0:0:
200,88,214373,1,0,0:0:0:0:
144,132,214588,5,2,0:0:0:0:
144,132,214802,1,2,0:0:0:0:
192,272,215230,1,4,0:0:0:0:
320,208,215659,5,0,0:0:0:0:
192,136,216088,5,2,0:0:0:0:
120,256,216516,1,0,0:0:0:0:
248,320,216945,1,4,0:0:0:0:
312,192,217373,1,0,0:0:0:0:
296,48,217802,1,8,0:0:0:0:
256,192,217909,12,0,219516,0:0:0:0:
256,192,222945,12,0,225945,0:0:0:0:
144,200,226373,5,2,0:0:0:0:
166,175,226480,1,0,0:0:0:0:
195,157,226587,1,0,0:0:0:0:
228,156,226694,1,0,0:0:0:0:
259,170,226801,1,0,0:0:0:0:
290,183,226908,1,0,0:0:0:0:
323,179,227015,1,0,0:0:0:0:
351,162,227122,1,0,0:0:0:0:
376,144,227231,5,2,0:0:0:0:
410,112,227338,1,0,0:0:0:0:
417,68,227445,1,0,0:0:0:0:
388,32,227552,1,0,0:0:0:0:
344,21,227659,1,0,0:0:0:0:
297,24,227766,1,0,0:0:0:0:
254,40,227873,1,0,0:0:0:0:
219,71,227980,1,0,0:0:0:0:
208,120,228088,5,2,0:0:0:0:
226,168,228195,1,0,0:0:0:0:
272,191,228302,1,0,0:0:0:0:
321,176,228409,1,0,0:0:0:0:
368,168,228516,1,0,0:0:0:0:
416,186,228623,1,0,0:0:0:0:
439,232,228730,1,0,0:0:0:0:
424,281,228837,1,0,0:0:0:0:
384,328,228945,5,2,0:0:0:0:
337,358,229052,1,0,0:0:0:0:
283,346,229159,1,0,0:0:0:0:
252,299,229266,1,0,0:0:0:0:
240,240,229373,5,0,0:0:0:0:
232,184,229480,1,0,0:0:0:0:
192,144,229587,1,0,0:0:0:0:
144,160,229694,1,0,0:0:0:0:
120,216,229803,5,2,0:0:0:0:
65,248,229910,1,0,0:0:0:0:
14,211,230017,1,0,0:0:0:0:
28,148,230124,1,0,0:0:0:0:
88,112,230231,1,2,0:0:0:0:
121,58,230338,1,0,0:0:0:0:
79,10,230445,1,0,0:0:0:0:
20,33,230552,1,0,0:0:0:0:
6,101,230659,6,0,L|38:169,1,51.999997619629,2|0,0:0|0:0,0:0:0:0:
88,112,230873,2,0,L|120:164,1,51.999997619629,2|0,0:0|0:0,0:0:0:0:
168,100,231088,2,0,L|216:148,1,51.999997619629,2|0,0:0|0:0,0:0:0:0:
232,64,231302,2,0,L|288:104,1,51.999997619629,2|0,0:0|0:0,0:0:0:0:
344,0,231516,5,2,0:0:0:0:
344,0,231623,1,2,0:0:0:0:
432,168,231838,1,0,0:0:0:0:
406,198,231945,1,0,0:0:0:0:
368,210,232052,1,0,0:0:0:0:
329,203,232159,1,0,0:0:0:0:
299,178,232266,1,4,0:0:0:0:
328,56,232373,5,2,0:0:0:0:
288,152,232481,1,0,0:0:0:0:
262,123,232588,1,0,0:0:0:0:
224,111,232695,1,0,0:0:0:0:
152,176,232802,5,2,0:0:0:0:
144,144,232909,1,2,0:0:0:0:
136,112,233016,1,2,0:0:0:0:
128,80,233123,1,2,0:0:0:0:
208,32,233231,5,2,0:0:0:0:
392,96,233445,2,0,P|376:144|336:168,1,80
272,216,233659,1,0,0:0:0:0:
136,352,233873,2,0,P|87:336|63:296,1,80
72,216,234088,1,2,0:0:0:0:
208,88,234302,6,0,P|256:96|288:128,1,80
136,352,234730,2,0,P|87:336|63:296,1,80
72,208,234945,2,0,L|112:192,4,26.6666666666667
128,184,235159,5,2,0:0:0:0:
280,64,235373,2,0,P|328:72|368:104,1,80
400,176,235588,1,0,0:0:0:0:
312,304,235802,5,0,0:0:0:0:
176,313,235909,1,0,0:0:0:0:
277,223,236016,1,0,0:0:0:0:
250,355,236123,1,0,0:0:0:0:
195,226,236230,2,0,B|226:175|174:137|174:137|247:162|247:162|179:94|283:62,1,320,0|4,0:0|0:0,0:0:0:0:
460,144,236873,5,0,0:0:0:0:
376,320,237088,1,6,0:0:0:0:
244,180,237302,1,0,0:0:0:0:
396,64,237516,1,2,0:0:0:0:
344,248,237730,1,4,0:0:0:0:
200,116,237945,1,0,0:0:0:0:
344,248,238159,1,4,0:0:0:0:
160,296,238373,6,0,L|184:248,1,40
248,140,238480,2,0,L|220:184,1,40
124,208,238588,1,0,0:0:0:0:
100,180,238641,1,0,0:0:0:0:
176,68,238748,1,0,0:0:0:0:
208,88,238802,5,2,0:0:0:0:
324,240,239016,1,0,0:0:0:0:
120,232,239230,2,0,B|160:152|160:152|192:216|240:112|240:112|184:96|176:8|176:8|256:56|312:16|312:16,1,480,4|4,0:0|0:0,0:0:0:0:
300,164,240088,6,2,P|364:252|468:199,1,240.000009155274
376,72,241159,1,0,0:0:0:0:
456,248,241373,1,0,0:0:0:0:
352,88,241588,1,0,0:0:0:0:
472,232,241802,2,0,L|500:267,4,26.6666666666667
512,280,242016,6,2,P|480:352|392:336,1,180.000006866455
344,152,242873,1,0,0:0:0:0:
240,312,243088,1,0,0:0:0:0:
120,160,243302,1,0,0:0:0:0:
280,264,243516,5,2,0:0:0:0:
264,136,243659,1,0,0:0:0:0:
152,200,243802,1,0,0:0:0:0:
152,72,243945,1,2,0:0:0:0:
264,136,244088,1,0,0:0:0:0:
144,184,244230,1,0,0:0:0:0:
256,248,244373,5,4,0:0:0:0:
264,136,244516,1,0,0:0:0:0:
240,264,244659,1,0,0:0:0:0:
352,320,244802,1,0,0:0:0:0:
344,192,244945,1,0,0:0:0:0:
472,192,245088,1,0,0:0:0:0:
408,304,245230,5,0,0:0:0:0:
408,304,245659,5,2,0:0:0:0:
304,224,245802,1,0,0:0:0:0:
208,312,245945,1,0,0:0:0:0:
112,224,246088,1,4,0:0:0:0:
208,136,246230,1,0,0:0:0:0:
112,48,246373,1,0,0:0:0:0:
112,224,246516,5,0,0:0:0:0:
192,280,246623,1,0,0:0:0:0:
136,208,246730,1,0,0:0:0:0:
176,296,246838,1,0,0:0:0:0:
160,200,246945,5,2,0:0:0:0:
96,384,247159,2,0,P|48:360|40:312,1,80
32,240,247373,1,0,0:0:0:0:
176,112,247588,2,0,P|216:120|240:152,1,80
248,248,247802,1,4,0:0:0:0:
64,296,248016,2,0,P|32:264|24:216,1,80
256,56,248445,2,0,P|304:72|320:96,1,80
320,192,248659,2,0,L|344:208,4,26.6666666666667
376,232,248873,5,2,0:0:0:0:
240,368,249088,2,0,P|200:352|176:312,1,80
160,232,249302,1,0,0:0:0:0:
344,112,249517,5,0,0:0:0:0:
402,232,249624,1,0,0:0:0:0:
282,168,249731,1,0,0:0:0:0:
417,149,249838,1,0,0:0:0:0:
320,244,249945,6,0,B|284:224|217:238|217:238|214:164|145:177|145:177|152:118|92:90,1,320,0|6,0:0|0:0,0:0:0:0:
304,56,250588,1,0,0:0:0:0:
304,248,250802,1,2,0:0:0:0:
496,248,251016,1,0,0:0:0:0:
496,56,251230,1,4,0:0:0:0:
328,152,251445,1,0,0:0:0:0:
504,80,251659,1,0,0:0:0:0:
320,120,251873,1,0,0:0:0:0:
496,56,252088,5,0,0:0:0:0:
380,224,252195,2,0,L|392:176,1,40
416,44,252302,2,0,L|408:88,1,40
300,184,252409,1,0,0:0:0:0:
264,152,252463,1,0,0:0:0:0:
216,160,252516,5,2,0:0:0:0:
16,196,252730,1,0,0:0:0:0:
160,352,252945,2,0,B|136:288|136:288|96:376|80:264|16:360|16:360|24:256|-16:264,1,320,4|6,0:0|0:0,0:0:0:0:
72,80,254016,1,0,0:0:0:0:
192,228,254230,1,0,0:0:0:0:
288,80,254445,1,0,0:0:0:0:
192,228,254659,1,4,0:0:0:0:
384,204,254873,1,0,0:0:0:0:
192,228,255088,1,0,0:0:0:0:
332,360,255302,1,0,0:0:0:0:
192,228,255516,6,0,L|168:188,4,26.6666666666667
160,172,255730,1,2,0:0:0:0:
296,36,255945,1,0,0:0:0:0:
356,224,256159,1,0,0:0:0:0:
200,112,256373,1,4,0:0:0:0:
356,224,256588,1,0,0:0:0:0:
172,272,256802,5,0,0:0:0:0:
472,40,257230,1,2,0:0:0:0:
96,128,257659,1,2,0:0:0:0:
404,333,258088,6,0,P|488:280|392:224,1,240.000009155274,4|0,0:0|0:0,0:0:0:0:
24,216,259373,1,2,0:0:0:0:
208,152,259588,1,0,0:0:0:0:
176,344,259802,1,4,0:0:0:0:
352,272,260016,2,0,P|400:224|328:176,1,160
272,168,260659,6,0,P|248:248|120:192,1,256,2|4,0:0|0:0,0:0:0:0:
192,160,261945,2,0,L|224:296,1,128,0|2,0:0|0:0,0:0:0:0:
236,356,262802,2,0,P|301:307|292:268,1,128,0|4,0:0|0:0,0:0:0:0:
184,152,263659,1,0,0:0:0:0:
80,264,264088,6,0,P|152:320|264:312,1,192,2|0,0:0|0:0,0:0:0:0:
216,248,264945,2,0,P|296:240|312:336,1,192,4|0,0:0|0:0,0:0:0:0:
280,352,265695,1,0,0:0:0:0:
240,352,265802,2,0,P|272:280|416:168,1,256,2|4,0:0|0:0,0:0:0:0:
120,288,267516,6,0,P|64:216|192:168,1,256,2|4,0:0|0:0,0:0:0:0:
144,222,268802,2,0,P|224:214|256:182,1,128,0|2,0:0|0:0,0:0:0:0:
184,152,269659,2,0,P|248:112|312:128,1,128,0|4,0:0|0:0,0:0:0:0:
368,256,270516,1,0,0:0:0:0:
216,232,270945,6,0,P|136:192|88:104,1,192,2|0,0:0|0:0,0:0:0:0:
172,96,271802,2,0,P|100:24|20:56,1,192,4|0,0:0|0:0,0:0:0:0:
28,128,272659,5,2,0:0:0:0:
36,160,273088,1,0,0:0:0:0:
44,192,273516,1,4,0:0:0:0:
52,224,273945,1,0,0:0:0:0:
32,384,274373,5,2,0:0:0:0:
69,378,274480,1,0,0:0:0:0:
98,353,274587,1,0,0:0:0:0:
109,317,274694,1,0,0:0:0:0:
104,280,274801,5,8,0:0:0:0:
109,242,274908,1,0,0:0:0:0:
134,213,275015,1,0,0:0:0:0:
170,202,275122,1,0,0:0:0:0:
208,200,275230,5,2,0:0:0:0:
245,205,275337,1,0,0:0:0:0:
274,230,275444,1,0,0:0:0:0:
285,266,275551,1,0,0:0:0:0:
280,304,275658,5,8,0:0:0:0:
285,341,275765,1,0,0:0:0:0:
310,370,275872,1,0,0:0:0:0:
346,381,275979,1,0,0:0:0:0:
404,328,276088,5,2,0:0:0:0:
450,296,276195,1,0,0:0:0:0:
460,240,276302,1,0,0:0:0:0:
430,194,276409,1,0,0:0:0:0:
380,160,276516,1,8,0:0:0:0:
335,128,276623,1,0,0:0:0:0:
325,72,276730,1,0,0:0:0:0:
355,26,276837,1,0,0:0:0:0:
412,16,276945,5,2,0:0:0:0:
458,49,277052,1,0,0:0:0:0:
468,105,277159,1,0,0:0:0:0:
438,151,277266,1,0,0:0:0:0:
388,184,277373,1,8,0:0:0:0:
343,217,277480,1,0,0:0:0:0:
333,273,277587,1,0,0:0:0:0:
363,319,277694,1,0,0:0:0:0:
296,328,277802,5,2,0:0:0:0:
232,301,277909,1,0,0:0:0:0:
219,233,278016,1,0,0:0:0:0:
269,186,278123,1,0,0:0:0:0:
336,152,278230,1,8,0:0:0:0:
399,125,278337,1,0,0:0:0:0:
412,57,278444,1,0,0:0:0:0:
362,10,278551,1,0,0:0:0:0:
288,8,278659,5,2,0:0:0:0:
224,34,278766,1,0,0:0:0:0:
211,102,278873,1,0,0:0:0:0:
261,149,278980,1,0,0:0:0:0:
320,192,279088,1,8,0:0:0:0:
346,255,279195,1,0,0:0:0:0:
307,312,279302,1,0,0:0:0:0:
238,310,279409,1,0,0:0:0:0:
152,288,279516,5,2,0:0:0:0:
132,206,279623,1,0,0:0:0:0:
185,143,279730,1,0,0:0:0:0:
269,149,279837,1,0,0:0:0:0:
348,185,279945,1,8,0:0:0:0:
424,218,280052,1,0,0:0:0:0:
496,176,280159,1,0,0:0:0:0:
504,93,280266,1,0,0:0:0:0:
434,40,280373,5,2,0:0:0:0:
357,7,280480,1,0,0:0:0:0:
285,49,280587,1,0,0:0:0:0:
277,132,280694,1,0,0:0:0:0:
271,218,280802,1,8,0:0:0:0:
227,290,280909,1,0,0:0:0:0:
144,295,281016,1,0,0:0:0:0:
89,233,281123,1,0,0:0:0:0:
104,152,281230,6,0,L|64:96,1,47.9999985351563,2|0,0:0|0:0,0:0:0:0:
160,96,281445,2,0,L|144:40,1,47.9999985351563
232,64,281659,2,0,L|232:8,1,47.9999985351563,8|0,0:0|0:0,0:0:0:0:
304,64,281873,6,0,L|304:8,1,47.9999985351563
376,96,282088,2,0,L|392:40,1,47.9999985351563,2|0,0:0|0:0,0:0:0:0:
432,152,282302,2,0,L|472:96,1,47.9999985351563
432,224,282516,2,0,L|488:256,1,47.9999985351563,8|0,0:0|0:0,0:0:0:0:
376,272,282730,2,0,L|384:328,1,47.9999985351563
288,288,282945,6,0,L|240:320,1,47.9999985351563,2|0,0:0|0:0,0:0:0:0:
192,200,283159,2,0,L|248:168,1,47.9999985351563
304,304,283373,2,0,L|280:360,1,47.9999985351563,8|0,0:0|0:0,0:0:0:0:
176,184,283588,2,0,L|200:128,1,47.9999985351563
328,320,283802,2,0,L|325:375,1,47.9999985351563,2|0,0:0|0:0,0:0:0:0:
160,176,284016,2,0,L|163:121,1,47.9999985351563
352,328,284230,2,0,L|384:384,1,47.9999985351563,8|0,0:0|0:0,0:0:0:0:
136,168,284445,2,0,L|104:112,1,47.9999985351563
64,208,284659,5,2,0:0:0:0:
121,235,284766,1,0,0:0:0:0:
184,250,284873,1,0,0:0:0:0:
247,242,284980,1,0,0:0:0:0:
300,208,285087,1,2,0:0:0:0:
362,194,285194,1,0,0:0:0:0:
420,218,285301,1,0,0:0:0:0:
467,261,285409,1,0,0:0:0:0:
480,328,285516,5,2,0:0:0:0:
429,367,285623,1,0,0:0:0:0:
366,376,285730,1,0,0:0:0:0:
307,353,285837,1,0,0:0:0:0:
264,304,285945,1,2,0:0:0:0:
263,242,286052,1,0,0:0:0:0:
221,196,286159,1,0,0:0:0:0:
158,191,286266,1,0,0:0:0:0:
112,240,286373,6,0,L|80:192,1,40,2|0,0:0|0:0,0:0:0:0:
160,184,286588,2,0,L|160:128,1,40,2|0,0:0|0:0,0:0:0:0:
232,176,286802,2,0,L|264:136,1,40,2|0,0:0|0:0,0:0:0:0:
288,224,287016,2,0,L|320:200,1,40,2|0,0:0|0:0,0:0:0:0:
352,272,287231,2,0,L|368:224,1,40,2|0,0:0|0:0,0:0:0:0:
432,272,287445,2,0,L|408:224,1,40,2|0,0:0|0:0,0:0:0:0:
480,176,287659,5,2,0:0:0:0:
464,144,287766,1,2,0:0:0:0:
448,112,287873,1,2,0:0:0:0:
432,80,287981,1,2,0:0:0:0:
344,48,288088,6,0,P|216:16|192:112,1,240.000009155274,0|2,0:0|0:0,0:0:0:0:
248,286,289159,6,0,B|280:249|280:249|251:222|282:195|282:195|249:151,1,160
168,112,289588,1,2,0:0:0:0:
80,160,289802,2,0,B|48:197|48:197|77:224|46:251|46:251|79:295,1,160
160,328,290231,1,2,0:0:0:0:
240,272,290445,2,0,B|240:224|240:224|201:222|207:181|207:181|153:168,1,160
72,144,290873,1,2,0:0:0:0:
48,240,291088,2,0,B|47:289|47:289|86:291|80:332|80:332|134:345,1,160
216,312,291516,6,0,P|344:344|368:248,1,240.000009155274,0|2,0:0|0:0,0:0:0:0:
312,74,292587,6,0,B|280:111|280:111|309:138|278:165|278:165|311:209,1,160
392,248,293016,1,2,0:0:0:0:
480,200,293230,2,0,B|512:163|512:163|483:136|514:109|514:109|481:65,1,160
400,32,293659,1,2,0:0:0:0:
320,88,293873,2,0,B|319:137|319:137|358:139|352:180|352:180|406:193,1,160
488,216,294301,1,2,0:0:0:0:
512,120,294516,2,0,B|512:72|512:72|473:70|479:29|479:29|425:16,1,160
336,24,294945,6,0,P|252:127|329:189,1,240.000009155274,0|2,0:0|0:0,0:0:0:0:
510,213,296016,6,0,B|489:169|489:169|453:184|441:144|441:144|388:156,1,160
319,211,296445,1,2,0:0:0:0:
325,311,296659,2,0,B|345:356|345:356|381:341|393:381|393:381|446:369,1,160
511,310,297088,1,2,0:0:0:0:
494,214,297302,2,0,B|449:193|449:193|431:228|397:205|397:205|363:248,1,160
307,312,297730,1,2,0:0:0:0:
384,374,297945,2,0,B|428:395|428:395|446:361|480:384|480:384|514:341,1,160
488,256,298373,6,0,P|420:143|335:194,1,240.000009155274,0|2,0:0|0:0,0:0:0:0:
251,357,299445,6,0,B|299:354|299:354|298:314|339:317|339:317|347:263,1,160
318,177,299873,1,2,0:0:0:0:
222,149,300087,2,0,B|173:153|173:153|174:193|133:190|133:190|125:244,1,160
159,324,300516,1,2,0:0:0:0:
256,341,300730,2,0,B|291:307|291:307|264:278|297:254|297:254|268:207,1,160
227,132,301158,1,2,0:0:0:0:
142,183,301373,2,0,B|106:218|106:218|133:247|100:271|100:271|129:318,1,160
256,192,301802,12,8,302659,0:0:0:0:
352,104,302873,6,0,B|395:104|395:104|419:121|411:147|371:158|371:158|388:197|364:216,1,160
304,256,303302,1,2,0:0:0:0:
224,200,303516,2,0,B|181:200|181:200|157:183|165:157|205:146|205:146|188:107|212:88,1,160
280,56,303945,1,2,0:0:0:0:
328,136,304159,2,0,B|358:167|358:167|363:196|339:209|303:188|303:188|287:228|257:224,1,160
186,210,304588,1,2,0:0:0:0:
169,114,304802,2,0,B|138:84|138:84|133:55|157:42|193:63|193:63|209:23|239:27,1,160
312,48,305231,6,0,P|344:176|248:200,1,240.000009155274,0|2,0:0|0:0,0:0:0:0:
168,208,306302,6,0,B|125:208|125:208|101:191|109:165|149:154|149:154|132:115|156:96,1,160
216,56,306731,1,2,0:0:0:0:
296,112,306945,2,0,B|339:112|339:112|363:129|355:155|315:166|315:166|332:205|308:224,1,160
240,256,307374,1,2,0:0:0:0:
192,176,307588,2,0,B|161:146|161:146|156:117|180:104|216:125|216:125|232:85|262:89,1,160
334,102,308017,1,2,0:0:0:0:
351,198,308231,2,0,B|381:229|381:229|386:258|362:271|326:250|326:250|310:290|280:286,1,160
264,192,308659,6,0,P|331:79|416:130,1,240.000009155274,0|2,0:0|0:0,0:0:0:0:
478,181,309730,6,0,B|508:212|508:212|513:241|489:254|453:233|453:233|437:273|407:269,1,160
337,255,310159,1,2,0:0:0:0:
320,159,310373,2,0,B|289:129|289:129|284:100|308:87|344:108|344:108|360:68|390:72,1,160
461,96,310802,1,2,0:0:0:0:
439,187,311016,2,0,B|439:230|439:230|422:254|396:246|385:206|385:206|346:223|327:200,1,160
286,139,311445,1,2,0:0:0:0:
342,59,311659,2,0,B|342:17|342:17|359:-8|384:0|395:40|395:40|435:23|453:47,1,160
496,128,312088,5,2,0:0:0:0:
432,168,312302,1,0,0:0:0:0:
352,168,312516,1,2,0:0:0:0:
288,120,312731,1,0,0:0:0:0:
208,120,312945,1,2,0:0:0:0:
144,168,313159,1,0,0:0:0:0:
64,168,313373,1,0,0:0:0:0:
0,120,313588,1,4,0:0:0:0:
0,120,314016,5,0,0:0:0:0:
179,164,314231,1,2,0:0:0:0:
7,234,314445,1,0,0:0:0:0:
105,76,314659,1,2,0:0:0:0:
118,263,314873,1,0,0:0:0:0:
179,164,315088,5,0,0:0:0:0:
248,256,315302,1,0,0:0:0:0:
320,168,315516,1,8,0:0:0:0:
256,192,315623,12,8,323230,0:0:0:0:
