osu file format v14

[General]
AudioFilename: Undertale OST- 071 - Undertale.mp3
AudioLeadIn: 0
PreviewTime: 320102
Countdown: 0
SampleSet: Soft
StackLeniency: 0.7
Mode: 0
LetterboxInBreaks: 0
WidescreenStoryboard: 0

[Editor]
Bookmarks: 18954,37794,92265,94325,132006,157911,167625,207366,245046,282727,320407,358087
DistanceSpacing: 1
BeatDivisor: 4
GridSize: 4
TimelineZoom: 1.5

[Metadata]
Title:Undertale
TitleUnicode:Undertale
Artist:toby fox
ArtistUnicode:toby fox
Creator:Asgore-
Version:Undertale
Source:UNDERTALE
Tags:soundtrack midi orchestral video game Boston chiptune radiation marathon
BeatmapID:939683
BeatmapSetID:436208

[Difficulty]
HPDrainRate:5
CircleSize:3.5
OverallDifficulty:6
ApproachRate:7
SliderMultiplier:1.7
SliderTickRate:1

[Events]
//Background and Video events
0,0,"meme.png",0,0
//Break Periods
2,169878,206456
//Storyboard Layer 0 (Background)
//Storyboard Layer 1 (Fail)
//Storyboard Layer 2 (Pass)
//Storyboard Layer 3 (Foreground)
//Storyboard Sound Samples

[TimingPoints]
125,588.725899033508,4,2,0,10,1,0
419,-100,4,2,0,15,0,0
713,-100,4,2,0,20,0,0
18964,-100,4,2,0,25,0,0
37803,-100,4,2,0,30,0,0
92260,-100,4,2,0,25,0,0
94321,-100,4,2,0,30,0,0
131999,-100,4,2,0,40,0,0
167617,-100,4,2,0,40,0,0
207356,-100,4,2,0,50,0,0
245034,-100,4,2,0,40,0,0
282713,-100,4,2,0,50,0,0
320391,-83.3333333333333,4,2,0,60,0,1
358070,-133.333333333333,4,2,0,20,0,0
376909,-133.333333333333,4,2,0,5,0,0

[Colours]
Combo1 : 255,128,64
Combo2 : 255,62,62
Combo3 : 255,128,0

[HitObjects]
174,127,125,5,0,0:0:0:0:
223,47,419,1,0,0:0:0:0:
302,97,713,1,0,0:0:0:0:
253,176,1008,1,0,0:0:0:0:
253,176,1302,2,0,P|321:177|373:149,2,127.5
51,198,2774,1,0,0:0:0:0:
51,198,3068,2,0,P|50:240|97:304,1,85
152,128,3657,2,0,B|200:102|200:102|248:111|248:111|287:86,2,127.5
408,112,4834,6,0,P|403:157|377:199,1,85
273,223,5423,2,0,P|276:181|297:144,1,85
420,260,6012,2,0,B|361:307|361:307|281:319,2,127.5
301,154,7484,1,0,0:0:0:0:
215,183,7778,1,0,0:0:0:0:
179,104,8072,1,0,0:0:0:0:
215,183,8367,2,0,B|190:208|154:208|154:208|157:253|143:272,2,127.5
275,78,9544,1,0,0:0:0:0:
275,78,9838,6,0,P|350:68|382:78,2,85
224,173,10722,2,0,B|183:135|183:135|172:64,2,127.5
385,262,12193,6,0,L|299:291,2,85
303,195,13076,2,0,P|228:195|162:160,2,127.5
394,236,14254,1,0,0:0:0:0:
394,236,14548,2,0,P|408:188|368:128,2,85
305,287,15431,2,0,B|354:325|354:325|456:329,2,127.5
146,166,16903,2,0,P|89:213|89:259,2,85
170,247,17786,2,0,P|163:288|117:374,2,127.5
206,83,18964,6,0,L|297:95,1,85,2|0,0:0|0:0,0:0:0:0:
294,182,19552,2,0,L|413:197,1,85
468,152,20141,2,0,B|475:217|475:217|431:306,2,127.5
331,225,21613,2,0,P|283:251|218:248,1,85
131,227,22202,1,0,0:0:0:0:
285,134,22496,2,0,P|280:197|253:254,2,127.5
335,56,23674,5,2,0:0:0:0:
451,86,23968,1,0,0:0:0:0:
420,197,24262,1,0,0:0:0:0:
301,165,24557,1,0,0:0:0:0:
420,197,24851,2,0,B|385:262|385:262|318:293,2,127.5
241,322,26323,2,0,L|140:357,1,85
60,281,26912,1,0,0:0:0:0:
60,281,27206,2,0,P|103:248|114:166,2,127.5
60,360,28383,5,2,0:0:0:0:
168,344,28678,1,0,0:0:0:0:
104,252,28972,1,0,0:0:0:0:
104,252,29266,1,0,0:0:0:0:
16,320,29561,2,0,B|-4:264|-4:264|13:168,2,127.5
144,180,31033,6,0,L|237:164,2,85
223,87,31916,2,0,P|286:114|303:180,2,127.5
228,164,33093,6,0,P|232:236|254:274,1,85,2|0,0:0|0:0,0:0:0:0:
304,166,33682,2,0,P|294:126|246:95,1,85
305,167,34271,2,0,B|334:121|387:186|450:124,2,127.5
152,348,35742,2,0,P|200:368|244:352,1,85
284,263,36331,1,0,0:0:0:0:
262,182,36626,2,0,P|208:231|214:314,2,127.5
312,255,37803,6,0,P|350:200|228:93,1,255,2|0,0:0|0:0,0:0:0:0:
264,176,38980,2,0,B|204:206|204:206|145:176|99:217|99:217|28:196,1,255,2|0,0:0|0:0,0:0:0:0:
161,283,40158,2,0,P|215:334|396:346,1,255,2|0,0:0|0:0,0:0:0:0:
422,268,41335,2,0,B|439:209|439:209|426:135|426:135,2,127.5
332,196,42513,6,0,B|279:159|279:159|215:187|140:162|140:162|187:148,1,255,2|0,0:0|0:0,0:0:0:0:
112,76,43690,2,0,P|65:101|120:252,1,255,2|0,0:0|0:0,0:0:0:0:
128,164,44868,2,0,B|184:149|184:149|234:162|234:162|378:122,1,255,2|0,0:0|0:0,0:0:0:0:
376,40,46045,2,0,P|446:80|456:124,2,127.5
285,19,47223,6,0,B|226:58|226:58|190:133|190:133|106:197,1,255,2|0,0:0|0:0,0:0:0:0:
24,172,48400,2,0,P|26:236|96:280,2,127.5,2|2|0,0:0|0:0|0:0,0:0:0:0:
88,120,49577,2,0,B|156:76|156:76|234:91|234:91|327:42,1,255,2|0,0:0|0:0,0:0:0:0:
400,36,50755,1,0,0:0:0:0:
491,42,51049,1,0,0:0:0:0:
491,42,51344,6,0,P|475:104|444:136,1,85,2|0,0:0|0:0,0:0:0:0:
432,143,51785,1,0,0:0:0:0:
384,158,51932,2,0,B|321:148|321:148|258:168|258:168|135:142,1,255,2|0,0:0|0:0,0:0:0:0:
135,142,53110,2,0,P|152:101|6:62,1,255,2|0,0:0|0:0,0:0:0:0:
76,96,54287,2,0,P|60:132|76:188,1,85,2|0,0:0|0:0,0:0:0:0:
175,189,54876,2,0,P|164:230|148:269,1,85
52,296,55465,2,0,B|68:368|160:372,2,127.5
92,204,56642,6,0,P|79:102|229:100,1,255,2|0,0:0|0:0,0:0:0:0:
156,144,57820,2,0,B|235:173|235:173|295:155|295:155|405:192,1,255,2|0,0:0|0:0,0:0:0:0:
472,136,58997,6,0,P|464:251|340:256,1,255,2|0,0:0|0:0,0:0:0:0:
288,320,60175,2,0,P|258:266|288:200,2,127.5
215,360,61352,6,0,B|152:332|152:332|23:341|10:217,1,255,2|0,0:0|0:0,0:0:0:0:
112,240,62529,2,0,P|94:159|231:77,1,255,2|0,0:0|0:0,0:0:0:0:
184,172,63707,2,0,B|251:178|310:256|310:256|399:195,1,255,2|0,0:0|0:0,0:0:0:0:
408,112,64884,2,0,P|463:145|482:215,2,127.5
300,108,66062,6,0,B|210:87|210:87|136:110|136:110|48:88,1,255,2|0,0:0|0:0,0:0:0:0:
40,168,67239,2,0,P|48:221|120:264,2,127.5,2|2|0,0:0|0:0|0:0,0:0:0:0:
122,181,68417,2,0,B|189:158|189:158|247:195|310:160|310:160|241:124,1,255,2|0,0:0|0:0,0:0:0:0:
172,80,69594,2,0,P|198:48|240:32,1,85
321,0,70183,6,0,P|332:42|311:113,1,85,2|0,0:0|0:0,0:0:0:0:
320,120,70624,1,0,0:0:0:0:
308,158,70772,2,0,B|241:190|241:190|194:192|194:192|181:241|181:241|79:311,1,255,2|0,0:0|0:0,0:0:0:0:
103,372,71949,2,0,B|48:365|48:365|-1:171,1,255,2|0,0:0|0:0,0:0:0:0:
124,76,73127,2,0,P|148:112|144:156,1,85,2|0,0:0|0:0,0:0:0:0:
193,14,73715,2,0,P|224:56|232:96,1,85
319,99,74304,2,0,B|302:140|302:140|220:198,2,127.5
225,15,75481,6,0,B|354:18|354:18|460:141,1,255,2|0,0:0|0:0,0:0:0:0:
505,169,76659,2,0,P|468:229|295:193,1,255,2|0,0:0|0:0,0:0:0:0:
373,119,77836,2,0,B|286:83|286:83|214:108|214:108|135:80,1,255,2|0,0:0|0:0,0:0:0:0:
53,133,79014,2,0,P|52:196|90:276,2,127.5
0,308,80191,6,0,B|73:346|73:346|233:316|233:316,1,255,2|0,0:0|0:0,0:0:0:0:
317,302,81369,2,0,B|346:237|346:237|470:170|395:57,1,255,2|0,0:0|0:0,0:0:0:0:
325,134,82546,2,0,B|248:116|248:116|163:142|163:142|70:115,1,255,2|0,0:0|0:0,0:0:0:0:
67,235,83724,2,0,B|113:277|113:277|206:274,2,127.5
213,367,84901,6,0,P|262:309|180:170,1,255,2|0,0:0|0:0,0:0:0:0:
181,271,86078,2,0,B|136:216|94:289|34:215,2,127.5,2|2|0,0:0|0:0|0:0,0:0:0:0:
157,370,87256,2,0,P|263:314|249:195,1,255,2|0,0:0|0:0,0:0:0:0:
212,112,88433,2,0,P|263:105|314:138,1,85
451,142,89022,6,0,P|454:197|415:249,1,85,2|0,0:0|0:0,0:0:0:0:
415,251,89464,1,0,0:0:0:0:
372,266,89611,2,0,B|292:246|292:246|215:274|215:274|116:246,1,255,2|0,0:0|0:0,0:0:0:0:
85,328,90788,2,0,P|42:268|185:178,1,255,2|0,0:0|0:0,0:0:0:0:
281,219,91966,5,2,0:0:0:0:
335,71,92260,1,2,0:0:0:0:
436,62,92554,1,2,0:0:0:0:
447,163,92849,1,2,0:0:0:0:
345,173,93143,1,2,0:0:0:0:
345,173,93438,1,2,0:0:0:0:
407,253,93732,1,2,0:0:0:0:
412,354,94026,1,2,0:0:0:0:
294,315,94321,6,0,P|228:298|208:264,1,85,8|0,0:0|0:0,0:0:0:0:
235,204,94909,2,0,P|176:213|148:240,1,85
42,292,95498,2,0,P|47:224|86:186,1,85,2|0,0:0|0:0,0:0:0:0:
78,180,95940,1,0,0:0:0:0:
109,157,96087,2,0,B|153:131|209:135,1,85,2|0,0:0|0:0,0:0:0:0:
280,208,96676,1,2,0:0:0:0:
280,208,96970,2,0,P|340:222|366:264,1,85
284,288,97559,1,0,0:0:0:0:
292,364,97853,2,0,P|250:360|217:334,1,85,2|0,0:0|0:0,0:0:0:0:
183,309,98295,1,0,0:0:0:0:
146,299,98442,2,0,P|106:309|39:289,1,85,2|0,0:0|0:0,0:0:0:0:
92,180,99030,5,8,0:0:0:0:
134,111,99325,1,0,0:0:0:0:
181,184,99619,1,0,0:0:0:0:
224,111,99914,1,0,0:0:0:0:
181,184,100208,6,0,B|194:215|194:215|269:253,1,85,2|0,0:0|0:0,0:0:0:0:
278,238,100649,1,0,0:0:0:0:
316,236,100797,2,0,P|388:251|418:287,1,85,2|0,0:0|0:0,0:0:0:0:
328,324,101385,6,0,B|283:329|283:329|243:347,1,85,2|0,0:0|0:0,0:0:0:0:
139,340,101974,2,0,B|102:323|102:323|57:318,1,85
103,238,102563,2,0,P|135:155|96:109,2,127.5,2|2|2,0:0|0:0|0:0,0:0:0:0:
60,176,103740,6,0,B|109:172|109:172|167:192,1,85,8|0,0:0|0:0,0:0:0:0:
157,269,104329,2,0,B|190:280|190:280|239:276,1,85
314,331,104918,2,0,L|337:240,1,85,2|0,0:0|0:0,0:0:0:0:
340,224,105359,2,0,P|340:156|289:110,1,127.5,2|0,0:0|0:0,0:0:0:0:
266,191,106095,6,0,P|226:209|170:211,1,85,2|0,0:0|0:0,0:0:0:0:
171,132,106684,2,0,P|128:136|90:153,1,85
78,335,107273,2,0,P|146:318|173:284,1,85
265,241,107861,6,0,B|309:196|309:196|404:179,1,127.5,2|0,0:0|0:0,0:0:0:0:
422,173,108450,2,0,P|444:115|443:76,1,85,10|0,0:0|0:0,0:0:0:0:
351,91,109039,2,0,P|355:48|392:8,1,85
471,20,109628,1,2,0:0:0:0:
405,101,109922,1,0,0:0:0:0:
315,49,110216,1,0,0:0:0:0:
263,134,110511,1,0,0:0:0:0:
263,134,110805,2,0,P|247:179|216:200,1,85,2|0,0:0|0:0,0:0:0:0:
184,128,111394,2,0,P|151:154|136:196,1,85
49,278,111982,2,0,B|111:301|111:301|211:284,2,127.5,2|2|0,0:0|0:0|0:0,0:0:0:0:
55,187,113160,6,0,P|84:144|126:119,1,85,8|0,0:0|0:0,0:0:0:0:
187,163,113749,2,0,P|220:137|242:101,1,85
329,52,114337,2,0,P|375:73|402:102,1,85,2|0,0:0|0:0,0:0:0:0:
420,143,114779,2,0,B|432:196|432:196|398:237|417:302,1,127.5,2|0,0:0|0:0,0:0:0:0:
500,264,115515,2,0,P|491:322|440:340,1,85,2|0,0:0|0:0,0:0:0:0:
322,326,116104,2,0,L|225:340,1,85
95,313,116692,2,0,P|72:260|80:220,1,85,2|2,0:0|0:0,0:0:0:0:
156,203,117281,2,0,P|175:165|181:123,1,85,2|2,0:0|0:0,0:0:0:0:
257,52,117870,6,0,P|297:40|340:41,1,85,2|0,0:0|0:0,0:0:0:0:
337,136,118458,2,0,P|379:137|420:126,1,85
503,137,119047,2,0,P|499:208|486:245,1,85,2|0,0:0|0:0,0:0:0:0:
481,256,119489,1,0,0:0:0:0:
460,288,119636,2,0,P|397:309|359:304,1,85,2|0,0:0|0:0,0:0:0:0:
270,368,120225,2,0,P|235:312|233:289,1,85,2|0,0:0|0:0,0:0:0:0:
159,334,120813,2,0,P|156:268|166:247,1,85
199,176,121402,1,2,0:0:0:0:
245,102,121696,1,2,0:0:0:0:
245,102,121991,2,0,B|294:102|294:102|355:121,1,85,2|2,0:0|0:0,0:0:0:0:
437,149,122579,6,0,P|409:203|372:227,1,85,8|0,0:0|0:0,0:0:0:0:
313,260,123168,2,0,L|232:288,1,85
138,306,123757,2,0,P|99:323|71:355,1,85,2|0,0:0|0:0,0:0:0:0:
35,348,124198,1,0,0:0:0:0:
22,314,124346,2,0,L|8:209,1,85,2|0,0:0|0:0,0:0:0:0:
37,153,124934,2,0,P|73:104|79:77,1,85,2|0,0:0|0:0,0:0:0:0:
27,12,125523,2,0,P|84:-4|124:8,1,85
198,41,126112,2,0,P|250:84|265:119,1,85,2|2,0:0|0:0,0:0:0:0:
281,192,126701,5,2,0:0:0:0:
367,133,126995,1,2,0:0:0:0:
367,133,127289,2,0,P|377:188|369:233,1,85,8|0,0:0|0:0,0:0:0:0:
281,192,127878,2,0,P|278:234|287:275,1,85
349,339,128467,2,0,P|289:358|244:355,1,85,2|0,0:0|0:0,0:0:0:0:
229,357,128908,1,0,0:0:0:0:
190,353,129055,2,0,B|139:335|138:335|78:336,1,85,2|0,0:0|0:0,0:0:0:0:
95,244,129644,2,0,P|76:206|77:158,1,85,2|0,0:0|0:0,0:0:0:0:
148,74,130233,2,0,P|167:111|168:154,1,85
252,67,130822,2,0,B|312:60|312:60|398:100,2,127.5,2|2|0,0:0|0:0|0:0,0:0:0:0:
272,144,131999,6,0,P|229:186|184:192,1,85,4|0,0:0|0:0,0:0:0:0:
156,120,132588,2,0,P|114:141|88:184,1,85
23,229,133177,2,0,P|41:271|78:307,1,85,2|0,0:0|0:0,0:0:0:0:
103,311,133618,1,0,0:0:0:0:
151,313,133765,2,0,L|269:306,1,85,2|0,0:0|0:0,0:0:0:0:
117,197,134354,2,0,P|145:151|186:136,1,85,8|0,0:0|0:0,0:0:0:0:
126,71,134943,2,0,P|177:53|218:68,1,85
297,28,135531,2,0,B|295:84|295:84|274:125,1,85,2|0,0:0|0:0,0:0:0:0:
268,131,135899,2,0,L|249:156,3,21.25,0|0|0|2,0:0|0:0|0:0|0:0,0:0:0:0:
194,209,136267,2,0,L|227:277,1,42.5,0|2,0:0|0:0,0:0:0:0:
228,328,136709,6,0,P|275:299|291:256,1,85,4|0,0:0|0:0,0:0:0:0:
360,304,137298,2,0,P|369:255|354:211,1,85
446,214,137886,2,0,P|429:167|394:136,1,85,2|0,0:0|0:0,0:0:0:0:
370,124,138328,1,0,0:0:0:0:
334,111,138475,2,0,B|294:83|215:81,1,85,2|0,0:0|0:0,0:0:0:0:
58,126,139064,2,0,P|83:182|115:204,1,85,8|0,0:0|0:0,0:0:0:0:
127,42,139653,2,0,P|131:103|153:134,1,85
209,65,140241,2,0,B|256:56|256:56|314:66,1,85,2|0,0:0|0:0,0:0:0:0:
335,71,140609,2,0,L|370:80,3,21.25,0|0|0|2,0:0|0:0|0:0|0:0,0:0:0:0:
430,118,140977,2,0,P|417:160|409:174,1,42.5,0|2,0:0|0:0,0:0:0:0:
475,255,141419,6,0,P|419:278|374:278,1,85,4|0,0:0|0:0,0:0:0:0:
337,344,142007,2,0,B|299:325|299:325|226:325,1,85
167,372,142596,2,0,B|135:343|135:343|123:239,2,127.5,2|2|0,0:0|0:0|0:0,0:0:0:0:
249,268,143774,2,0,P|257:217|253:173,1,85,8|0,0:0|0:0,0:0:0:0:
164,119,144362,2,0,P|162:161|169:203,1,85
246,77,144951,2,0,P|299:67|342:71,1,85,2|0,0:0|0:0,0:0:0:0:
365,73,145319,2,0,L|397:77,3,21.25,0|0|0|2,0:0|0:0|0:0|0:0,0:0:0:0:
447,135,145687,2,0,L|423:186,1,42.5,0|2,0:0|0:0,0:0:0:0:
470,272,146129,6,0,P|408:289|365:284,1,85,4|0,0:0|0:0,0:0:0:0:
365,198,146717,2,0,P|322:199|282:214,1,85
297,304,147306,2,0,B|256:333|256:333|182:332,1,85,2|0,0:0|0:0,0:0:0:0:
182,331,147748,1,0,0:0:0:0:
144,336,147895,2,0,B|101:348|101:348|61:340,1,85,2|0,0:0|0:0,0:0:0:0:
85,233,148483,2,0,P|74:187|79:142,1,85,8|0,0:0|0:0,0:0:0:0:
139,83,149072,2,0,P|187:75|233:81,1,85
298,151,149661,2,0,P|300:193|290:234,1,85,2|0,0:0|0:0,0:0:0:0:
271,270,150029,2,0,L|243:285,3,21.25,0|0|0|2,0:0|0:0|0:0|0:0,0:0:0:0:
191,332,150397,2,0,P|176:299|176:274,1,42.5,0|2,0:0|0:0,0:0:0:0:
190,177,150838,6,0,P|249:180|305:205,1,85,4|0,0:0|0:0,0:0:0:0:
272,279,151427,2,0,P|336:294|379:297,1,85
427,179,152016,2,0,P|459:234|458:275,1,85,2|0,0:0|0:0,0:0:0:0:
462,292,152457,1,0,0:0:0:0:
456,330,152605,2,0,P|407:365|372:367,1,85,2|0,0:0|0:0,0:0:0:0:
263,358,153193,2,0,P|203:334|190:305,1,85,8|0,0:0|0:0,0:0:0:0:
247,253,153782,2,0,P|219:221|178:214,1,85
85,226,154371,2,0,L|61:330,1,85,2|0,0:0|0:0,0:0:0:0:
59,339,154739,2,0,L|51:368,3,21.25,0|0|0|2,0:0|0:0|0:0|0:0,0:0:0:0:
138,352,155107,2,0,L|192:345,1,42.5,0|2,0:0|0:0,0:0:0:0:
301,344,155548,6,0,P|355:337|403:349,1,85,4|0,0:0|0:0,0:0:0:0:
491,311,156137,2,0,P|495:246|473:198,1,85
446,156,156726,2,0,B|399:149|399:149|328:160,1,85,2|0,0:0|0:0,0:0:0:0:
323,156,157167,1,0,0:0:0:0:
285,160,157314,2,0,P|232:162|179:194,1,85,2|0,0:0|0:0,0:0:0:0:
185,290,157903,2,0,P|142:291|105:272,1,85
136,184,158492,2,0,P|87:176|48:197,1,85
22,309,159080,2,0,P|55:349|100:362,1,85,2|0,0:0|0:0,0:0:0:0:
133,362,159448,2,0,L|158:358,3,21.25,0|0|0|2,0:0|0:0|0:0|0:0,0:0:0:0:
231,323,159816,2,0,P|252:296|254:254,1,42.5,0|2,0:0|0:0,0:0:0:0:
472,280,160258,6,0,P|454:233|423:202,1,85,4|0,0:0|0:0,0:0:0:0:
377,350,160847,2,0,P|387:295|368:255,1,85
295,309,161435,2,0,B|250:295|250:295|212:301|212:301|137:283,2,127.5,2|2|0,0:0|0:0|0:0,0:0:0:0:
404,303,162613,2,0,P|408:260|401:219,1,85,8|0,0:0|0:0,0:0:0:0:
319,146,163202,2,0,P|314:215|323:249,1,85
408,147,163790,2,0,L|440:58,1,85,2|0,0:0|0:0,0:0:0:0:
397,38,164158,2,0,L|359:41,3,21.25,0|0|0|2,0:0|0:0|0:0|0:0,0:0:0:0:
292,50,164526,2,0,P|286:108|290:125,1,42.5,0|2,0:0|0:0,0:0:0:0:
325,193,164968,6,0,P|270:216|211:216,1,85,4|0,0:0|0:0,0:0:0:0:
192,120,165556,2,0,P|150:127|112:145,1,85
37,235,166145,2,0,P|68:289|118:321,1,85,2|0,0:0|0:0,0:0:0:0:
119,319,166587,1,0,0:0:0:0:
156,324,166734,2,0,B|200:313|200:313|270:329,1,85,2|0,0:0|0:0,0:0:0:0:
359,280,167323,5,8,0:0:0:0:
359,280,167617,2,0,P|373:234|361:188,2,85,2|0|0,0:0|0:0|0:0,0:0:0:0:
446,189,168500,2,0,P|427:144|388:117,1,85,2|0,0:0|0:0,0:0:0:0:
334,35,169089,2,0,P|302:62|287:102,1,85,2|0,0:0|0:0,0:0:0:0:
251,194,169678,5,2,0:0:0:0:
161,88,207356,6,0,P|145:128|156:192,1,85,6|0,0:0|0:0,0:0:0:0:
261,248,207945,2,0,P|257:205|241:166,1,85
165,235,208533,2,0,L|61:255,1,85,8|0,0:0|0:0,0:0:0:0:
31,342,208975,2,0,L|131:321,1,85
165,313,209417,1,0,0:0:0:0:
286,326,209711,2,0,B|330:341|330:341|396:324,1,85,2|0,0:0|0:0,0:0:0:0:
410,293,210152,1,0,0:0:0:0:
409,244,210300,2,0,P|388:194|398:137,1,85
408,40,210888,2,0,L|301:49,1,85,8|0,0:0|0:0,0:0:0:0:
226,138,211330,2,0,L|324:133,1,85
358,133,211771,1,0,0:0:0:0:
462,199,212066,6,0,P|444:259|410:283,1,85,2|0,0:0|0:0,0:0:0:0:
324,207,212655,2,0,P|331:165|358:133,1,85
389,26,213243,2,0,L|286:43,1,85,8|0,0:0|0:0,0:0:0:0:
179,84,213685,2,0,L|277:108,1,85
323,124,214126,1,0,0:0:0:0:
439,182,214421,6,0,P|387:237|345:244,1,85,2|0,0:0|0:0,0:0:0:0:
332,244,214862,1,0,0:0:0:0:
284,251,215009,2,0,P|248:272|225:308,1,85
76,345,215598,2,0,L|51:237,1,85,8|0,0:0|0:0,0:0:0:0:
155,171,216040,2,0,L|134:267,1,85
64,166,216481,1,0,0:0:0:0:
45,62,216776,6,0,P|119:53|152:66,1,85,2|0,0:0|0:0,0:0:0:0:
116,159,217364,2,0,P|158:163|198:152,1,85
263,51,217953,2,0,L|370:63,1,85,8|0,0:0|0:0,0:0:0:0:
312,138,218395,2,0,L|405:147,1,85
483,155,218836,1,0,0:0:0:0:
405,240,219131,2,0,P|364:285|320:290,1,85,2|0,0:0|0:0,0:0:0:0:
299,292,219572,1,0,0:0:0:0:
254,296,219719,2,0,L|163:352,1,85
84,312,220308,6,0,P|61:260|67:210,1,85,8|0,0:0|0:0,0:0:0:0:
154,168,220750,2,0,P|153:210|141:250,1,85
54,152,221191,1,0,0:0:0:0:
55,63,221485,2,0,B|108:60|108:60|152:74,1,85,2|0,0:0|0:0,0:0:0:0:
207,178,222074,2,0,B|154:181|154:181|124:172,1,85
39,264,222663,2,0,P|71:315|114:333,1,85,8|0,0:0|0:0,0:0:0:0:
115,249,223104,2,0,P|166:237|219:255,1,85
163,316,223546,1,0,0:0:0:0:
284,324,223840,2,0,L|302:227,1,85,2|0,0:0|0:0,0:0:0:0:
319,171,224282,1,0,0:0:0:0:
370,108,224429,2,0,P|388:137|393:213,1,85
468,273,225018,2,0,P|414:298|360:298,1,85,8|0,0:0|0:0,0:0:0:0:
317,298,225459,2,0,P|270:310|225:343,1,85
176,359,225901,1,0,0:0:0:0:
67,357,226195,6,0,L|57:252,1,85,6|0,0:0|0:0,0:0:0:0:
173,106,226784,2,0,L|181:190,1,85
145,321,227373,2,0,P|195:321|239:301,1,85,8|0,0:0|0:0,0:0:0:0:
184,232,227814,2,0,L|175:147,1,85
110,82,228256,1,0,0:0:0:0:
242,54,228550,6,0,P|296:69|325:96,1,85,2|0,0:0|0:0,0:0:0:0:
359,124,228992,1,0,0:0:0:0:
374,164,229139,2,0,L|398:261,1,85
477,294,229728,2,0,P|419:341|381:340,1,85,8|0,0:0|0:0,0:0:0:0:
359,341,230169,2,0,P|300:338|268:352,1,85,2|0,0:0|0:0,0:0:0:0:
230,353,230611,1,0,0:0:0:0:
77,360,230905,6,0,P|59:307|67:259,1,85,2|0,0:0|0:0,0:0:0:0:
158,276,231494,2,0,P|158:233|141:194,1,85
49,86,232083,2,0,L|157:68,1,85,8|0,0:0|0:0,0:0:0:0:
150,157,232524,2,0,L|239:139,1,85
314,126,232966,1,0,0:0:0:0:
432,109,233260,2,0,L|452:209,1,85,2|0,0:0|0:0,0:0:0:0:
404,207,233702,1,0,0:0:0:0:
358,211,233849,2,0,L|333:292,1,85
258,337,234437,2,0,B|210:329|210:329|149:338,1,85,10|0,0:0|0:0,0:0:0:0:
49,263,234879,2,0,B|84:257|84:257|132:265,1,85
197,280,235320,1,0,0:0:0:0:
351,327,235615,6,0,P|374:267|372:218,1,85,2|0,0:0|0:0,0:0:0:0:
377,135,236204,2,0,L|283:146,1,85
221,59,236792,2,0,L|137:80,1,85,8|0,0:0|0:0,0:0:0:0:
26,117,237234,2,0,L|102:193,1,85
160,239,237675,1,0,0:0:0:0:
270,173,237970,2,0,L|384:172,1,85,2|0,0:0|0:0,0:0:0:0:
428,186,238411,1,0,0:0:0:0:
507,173,238558,2,0,P|495:229|448:264,1,85
398,326,239147,2,0,P|351:317|306:339,1,85,8|0,0:0|0:0,0:0:0:0:
288,246,239589,2,0,P|245:271|229:317,1,85
160,222,240030,1,0,0:0:0:0:
77,108,240325,6,0,L|175:97,1,85,2|0,0:0|0:0,0:0:0:0:
317,168,240913,2,0,L|217:186,1,85
68,268,241502,2,0,L|148:329,1,85,8|0,0:0|0:0,0:0:0:0:
195,266,241944,2,0,L|262:318,1,85
346,293,242385,1,0,0:0:0:0:
450,209,242680,2,0,P|457:147|446:102,1,85,2|0,0:0|0:0,0:0:0:0:
397,89,243121,1,0,0:0:0:0:
332,111,243268,2,0,P|323:189|333:217,1,85
385,291,243857,2,0,L|267:311,1,85,8|0,0:0|0:0,0:0:0:0:
219,353,244299,2,0,L|119:371,1,85
53,314,244740,1,0,0:0:0:0:
168,288,245034,6,0,P|143:249|148:204,1,85,6|0,0:0|0:0,0:0:0:0:
261,136,245623,2,0,P|257:178|241:217,1,85
166,139,246212,2,0,L|82:122,1,85,8|0,0:0|0:0,0:0:0:0:
30,28,246653,2,0,L|113:45,1,85
167,58,247095,1,0,0:0:0:0:
286,58,247389,2,0,B|330:43|330:43|367:52,1,85,2|0,0:0|0:0,0:0:0:0:
410,91,247831,1,0,0:0:0:0:
409,139,247978,2,0,P|390:177|388:219,1,85
301,282,248567,2,0,P|343:308|463:298,1,170,10|2,0:0|0:0,0:0:0:0:
461,185,249744,6,0,P|455:143|428:110,1,85,2|0,0:0|0:0,0:0:0:0:
323,177,250333,2,0,P|330:218|357:250,1,85
389,358,250922,6,0,L|305:344,1,85,8|0,0:0|0:0,0:0:0:0:
179,300,251363,2,0,L|261:279,1,85
323,260,251805,1,0,0:0:0:0:
439,202,252099,6,0,P|416:166|380:144,1,85,2|0,0:0|0:0,0:0:0:0:
332,140,252541,1,0,0:0:0:0:
283,132,252688,2,0,P|247:111|225:76,1,85
76,39,253277,2,0,L|56:121,1,85,8|0,0:0|0:0,0:0:0:0:
155,213,253865,2,0,L|136:129,1,85
45,322,254454,6,0,P|85:333|127:328,1,85,2|0,0:0|0:0,0:0:0:0:
115,225,255043,2,0,P|158:221|198:232,1,85
263,333,255632,2,0,L|347:323,1,85,8|0,0:0|0:0,0:0:0:0:
312,246,256073,2,0,L|396:237,1,85
483,229,256515,1,0,0:0:0:0:
405,144,256809,2,0,P|381:109|342:93,1,85,2|0,0:0|0:0,0:0:0:0:
299,92,257251,1,0,0:0:0:0:
254,88,257398,2,0,L|181:43,1,85
75,69,257986,2,0,P|62:110|62:152,1,85,8|0,0:0|0:0,0:0:0:0:
145,149,258575,6,0,L|132:287,1,127.5,2|0,0:0|0:0,0:0:0:0:
135,323,259164,2,0,B|188:326|188:326|218:316,1,85,2|0,0:0|0:0,0:0:0:0:
207,206,259753,2,0,B|154:203|154:203|124:212,1,85
38,120,260341,2,0,P|57:82|91:57,1,85,8|0,0:0|0:0,0:0:0:0:
114,134,260783,2,0,P|155:146|197:140,1,85
163,68,261224,1,0,0:0:0:0:
284,60,261519,2,0,L|299:143,1,85,2|0,0:0|0:0,0:0:0:0:
316,233,261960,1,0,0:0:0:0:
388,290,262108,2,0,L|406:206,1,85,2|0,0:0|0:0,0:0:0:0:
468,111,262696,2,0,P|430:90|389:83,1,85,10|0,0:0|0:0,0:0:0:0:
285,73,263285,2,0,L|183:71,1,85,2|0,0:0|0:0,0:0:0:0:
67,27,263874,6,0,L|58:111,1,85,6|0,0:0|0:0,0:0:0:0:
132,246,264462,2,0,L|142:161,1,85
92,60,265051,2,0,P|135:58|175:72,1,85,8|0,0:0|0:0,0:0:0:0:
123,139,265493,2,0,L|116:223,1,85
110,302,265934,1,0,0:0:0:0:
241,329,266229,2,0,P|283:321|317:297,1,85,2|0,0:0|0:0,0:0:0:0:
352,260,266670,1,0,0:0:0:0:
371,212,266817,2,0,L|391:129,1,85
486,82,267406,2,0,P|402:43|305:65,1,170,10|2,0:0|0:0,0:0:0:0:
77,23,268584,6,0,P|60:63|60:105,1,85,2|0,0:0|0:0,0:0:0:0:
158,108,269172,2,0,P|158:150|141:189,1,85
49,298,269761,2,0,L|132:311,1,85,8|0,0:0|0:0,0:0:0:0:
144,232,270203,2,0,L|227:245,1,85
314,258,270644,1,0,0:0:0:0:
432,275,270938,6,0,L|448:191,1,85,2|0,0:0|0:0,0:0:0:0:
372,160,271380,1,0,0:0:0:0:
372,160,271527,6,0,L|388:76,1,85,2|0,0:0|0:0,0:0:0:0:
258,47,272116,2,0,B|210:55|210:55|174:49,1,85,10|0,0:0|0:0,0:0:0:0:
103,155,272705,1,2,0:0:0:0:
212,228,272999,1,0,0:0:0:0:
350,56,273293,6,0,P|369:95|375:137,1,85,2|0,0:0|0:0,0:0:0:0:
377,249,273882,2,0,L|292:239,1,85
220,324,274471,2,0,L|133:310,1,85,8|0,0:0|0:0,0:0:0:0:
26,267,274912,2,0,L|86:206,1,85
160,145,275354,1,0,0:0:0:0:
302,210,275648,2,0,L|386:210,1,85,2|0,0:0|0:0,0:0:0:0:
446,210,276090,1,0,0:0:0:0:
506,211,276237,2,0,P|501:169|479:133,1,85
398,57,276826,2,0,P|357:67|317:54,1,85,8|0,0:0|0:0,0:0:0:0:
170,125,277414,6,0,L|80:222,1,127.5,2|0,0:0|0:0,0:0:0:0:
77,276,278003,2,0,L|161:285,1,85,2|0,0:0|0:0,0:0:0:0:
296,180,278592,2,0,L|212:171,1,85
68,116,279181,2,0,L|135:64,1,85,8|0,0:0|0:0,0:0:0:0:
195,118,279622,2,0,L|262:66,1,85
346,91,280064,1,0,0:0:0:0:
449,174,280358,6,0,P|457:216|453:258,1,85,2|0,0:0|0:0,0:0:0:0:
397,295,280800,1,0,0:0:0:0:
332,273,280947,2,0,P|320:232|324:190,1,85,2|0,0:0|0:0,0:0:0:0:
343,104,281535,1,10,0:0:0:0:
228,87,281830,1,0,0:0:0:0:
206,195,282124,1,2,0:0:0:0:
324,214,282419,1,0,0:0:0:0:
216,308,282713,6,0,P|282:291|312:246,1,85,4|2,0:0|0:0,0:0:0:0:
355,333,283302,2,0,P|395:277|389:223,1,85,2|2,0:0|0:0,0:0:0:0:
470,292,283890,2,0,P|465:224|426:186,1,85,10|0,0:0|0:0,0:0:0:0:
430,183,284332,1,0,0:0:0:0:
398,162,284479,2,0,P|332:146|290:160,1,85,2|0,0:0|0:0,0:0:0:0:
224,209,285068,1,0,0:0:0:0:
224,209,285362,2,0,P|164:234|138:276,1,85,2|2,0:0|0:0,0:0:0:0:
226,293,285951,1,2,0:0:0:0:
229,375,286245,2,0,P|270:364|301:337,1,85,10|0,0:0|0:0,0:0:0:0:
329,309,286687,1,0,0:0:0:0:
357,334,286834,2,0,P|388:361|429:372,1,85,2|0,0:0|0:0,0:0:0:0:
416,186,287423,5,2,0:0:0:0:
378,68,287717,1,2,0:0:0:0:
331,184,288011,1,2,0:0:0:0:
378,68,288306,1,2,0:0:0:0:
331,184,288600,2,0,B|318:215|318:215|243:253,1,85,10|0,0:0|0:0,0:0:0:0:
233,238,289042,1,0,0:0:0:0:
194,237,289189,2,0,P|120:260|104:292,1,85,2|0,0:0|0:0,0:0:0:0:
186,326,289778,2,0,B|231:331|231:331|271:349,1,85,2|2,0:0|0:0,0:0:0:0:
373,340,290366,2,0,B|410:323|410:323|455:318,1,85,2|2,0:0|0:0,0:0:0:0:
400,240,290955,2,0,P|368:157|407:111,2,127.5,10|2|2,0:0|0:0|0:0,0:0:0:0:
484,281,292133,6,0,L|478:175,1,85,2|2,0:0|0:0,0:0:0:0:
355,269,292721,2,0,B|322:280|322:280|273:276,1,85,2|2,0:0|0:0,0:0:0:0:
209,350,293310,2,0,P|177:308|173:248,1,85,10|0,0:0|0:0,0:0:0:0:
159,240,293752,1,0,0:0:0:0:
152,202,293899,2,0,P|159:143|188:112,1,85,2|0,0:0|0:0,0:0:0:0:
246,191,294487,6,0,P|286:209|342:211,1,85,2|2,0:0|0:0,0:0:0:0:
341,132,295076,2,0,P|384:136|422:153,1,85,2|2,0:0|0:0,0:0:0:0:
434,335,295665,2,0,P|366:318|339:284,1,85,10|0,0:0|0:0,0:0:0:0:
322,275,296106,2,0,B|278:230|278:230|183:213,1,127.5,2|2,0:0|0:0,0:0:0:0:
96,175,296842,6,0,P|74:117|75:78,1,85,2|2,0:0|0:0,0:0:0:0:
139,10,297431,2,0,P|161:49|161:91,1,85,2|2,0:0|0:0,0:0:0:0:
83,73,298020,2,0,L|80:167,1,85,10|0,0:0|0:0,0:0:0:0:
101,180,298461,2,0,B|160:178|160:178|222:230,1,127.5,2|2,0:0|0:0,0:0:0:0:
138,264,299197,2,0,P|154:309|198:335,1,85,2|2,0:0|0:0,0:0:0:0:
287,340,299786,2,0,P|274:300|242:275,1,85,2|2,0:0|0:0,0:0:0:0:
309,224,300375,2,0,B|369:234|369:234|431:211,2,127.5,10|2|2,0:0|0:0|0:0,0:0:0:0:
508,188,301552,6,0,P|483:148|440:132,1,85,4|2,0:0|0:0,0:0:0:0:
388,192,302141,2,0,P|354:165|332:129,1,85,2|2,0:0|0:0,0:0:0:0:
332,48,302730,2,0,P|282:63|260:96,1,85,10|0,0:0|0:0,0:0:0:0:
231,114,303171,1,0,0:0:0:0:
211,146,303318,2,0,P|232:197|224:253,1,85,2|0,0:0|0:0,0:0:0:0:
142,211,303907,6,0,P|96:230|77:267,1,85,2|2,0:0|0:0,0:0:0:0:
190,326,304496,2,0,L|287:340,1,85,2|2,0:0|0:0,0:0:0:0:
417,313,305085,2,0,P|440:260|442:218,1,85,10|0,0:0|0:0,0:0:0:0:
434,196,305526,1,0,0:0:0:0:
413,163,305673,2,0,P|361:144|294:151,1,85,2|0,0:0|0:0,0:0:0:0:
252,58,306262,6,0,P|205:46|149:54,1,85,2|2,0:0|0:0,0:0:0:0:
175,136,306851,2,0,P|133:137|92:126,1,85,2|2,0:0|0:0,0:0:0:0:
9,137,307439,2,0,P|13:208|26:245,1,85,10|0,0:0|0:0,0:0:0:0:
29,257,307881,1,0,0:0:0:0:
45,291,308028,2,0,P|108:314|134:313,1,85,2|0,0:0|0:0,0:0:0:0:
242,368,308617,2,0,P|277:312|279:289,1,85,2|2,0:0|0:0,0:0:0:0:
353,334,309206,2,0,P|356:268|346:247,1,85,2|2,0:0|0:0,0:0:0:0:
310,166,309794,2,0,L|251:89,1,85,10|0,0:0|0:0,0:0:0:0:
231,70,310236,1,0,0:0:0:0:
192,68,310383,2,0,P|137:73|94:98,1,85,2|0,0:0|0:0,0:0:0:0:
3,107,310972,6,0,P|31:161|68:185,1,85,2|2,0:0|0:0,0:0:0:0:
126,227,311561,2,0,L|209:256,1,85,2|2,0:0|0:0,0:0:0:0:
296,279,312149,2,0,P|346:307|366:336,1,85,10|0,0:0|0:0,0:0:0:0:
398,342,312591,1,0,0:0:0:0:
412,306,312738,2,0,L|419:202,1,85,2|0,0:0|0:0,0:0:0:0:
477,156,313327,2,0,P|441:107|435:80,1,85,2|2,0:0|0:0,0:0:0:0:
486,13,313915,2,0,L|395:13,1,85,2|2,0:0|0:0,0:0:0:0:
314,41,314504,2,0,P|262:84|247:119,1,85,10|0,0:0|0:0,0:0:0:0:
241,134,314946,1,0,0:0:0:0:
236,171,315093,2,0,P|238:213|229:254,1,85,2|2,0:0|0:0,0:0:0:0:
128,124,315682,6,0,P|118:179|126:224,1,85,2|2,0:0|0:0,0:0:0:0:
210,184,316270,2,0,P|213:226|204:267,1,85,2|2,0:0|0:0,0:0:0:0:
134,328,316859,2,0,P|163:343|243:346,1,85,10|0,0:0|0:0,0:0:0:0:
252,346,317301,1,0,0:0:0:0:
289,336,317448,2,0,P|341:321|394:329,1,85,2|0,0:0|0:0,0:0:0:0:
417,244,318036,2,0,P|436:206|435:158,1,85,2|2,0:0|0:0,0:0:0:0:
344,154,318625,2,0,P|345:111|364:74,1,85,2|2,0:0|0:0,0:0:0:0:
260,67,319214,2,0,B|200:60|200:60|114:100,2,127.5,10|2|2,0:0|0:0|0:0,0:0:0:0:
396,95,320391,6,0,P|373:163|265:242,1,203.999993774414,4|0,0:0|0:0,0:0:0:0:
274,131,321274,1,0,0:0:0:0:
274,131,321569,2,0,B|208:129|208:129|151:159|151:159|45:145,1,203.999993774414,8|0,0:0|0:0,0:0:0:0:
101,69,322452,1,0,0:0:0:0:
101,69,322746,2,0,P|110:133|94:179,1,101.999996887207,2|0,0:0|0:0,0:0:0:0:
33,225,323335,2,0,B|62:292|62:292|222:347,2,203.999993774414,10|2|10,0:0|0:0|0:0,0:0:0:0:
154,231,324807,1,0,0:0:0:0:
154,231,325101,6,0,P|164:170|52:128,1,203.999993774414,2|0,0:0|0:0,0:0:0:0:
92,192,325984,1,0,0:0:0:0:
92,192,326279,2,0,P|78:269|175:350,1,203.999993774414,8|0,0:0|0:0,0:0:0:0:
176,248,327162,1,0,0:0:0:0:
176,248,327456,6,0,P|247:240|302:254,1,101.999996887207,2|0,0:0|0:0,0:0:0:0:
247,341,328045,2,0,P|297:346|347:338,1,101.999996887207,2|0,0:0|0:0,0:0:0:0:
439,211,328634,1,2,0:0:0:0:
394,311,328928,1,2,0:0:0:0:
359,148,329222,1,2,0:0:0:0:
319,230,329517,1,2,0:0:0:0:
359,148,329811,6,0,P|293:121|156:140,1,203.999993774414,2|0,0:0|0:0,0:0:0:0:
241,216,330694,1,0,0:0:0:0:
241,216,330988,2,0,L|142:244,1,101.999996887207,8|0,0:0|0:0,0:0:0:0:
109,244,331430,2,0,P|53:207|60:111,1,152.999995330811,8|0,0:0|0:0,0:0:0:0:
159,42,332166,2,0,L|277:49,1,101.999996887207,2|0,0:0|0:0,0:0:0:0:
441,75,332755,2,0,L|339:95,1,101.999996887207
191,123,333343,2,0,P|192:200|144:236,1,101.999996887207,2|0,0:0|0:0,0:0:0:0:
85,299,333932,6,0,P|78:248|111:148,1,152.999995330811,2|0,0:0|0:0,0:0:0:0:
136,114,334521,2,0,P|229:75|338:118,1,203.999993774414,2|0,0:0|0:0,0:0:0:0:
229,169,335404,1,0,0:0:0:0:
229,169,335698,2,0,B|218:228|218:228|240:269|240:269|219:372,1,203.999993774414,8|0,0:0|0:0,0:0:0:0:
92,324,336581,1,0,0:0:0:0:
92,324,336876,6,0,P|65:255|82:202,1,101.999996887207,2|0,0:0|0:0,0:0:0:0:
169,159,337464,2,0,P|170:209|145:253,1,101.999996887207,2|0,0:0|0:0,0:0:0:0:
50,170,338053,2,0,L|33:66,1,101.999996887207,2|0,0:0|0:0,0:0:0:0:
129,101,338642,2,0,L|148:208,1,101.999996887207,2|0,0:0|0:0,0:0:0:0:
56,276,339231,6,0,P|159:303|246:249,1,203.999993774414,2|0,0:0|0:0,0:0:0:0:
135,197,340114,1,0,0:0:0:0:
135,197,340408,2,0,B|191:158|191:158|239:176|239:176|340:102,1,203.999993774414,8|0,0:0|0:0,0:0:0:0:
230,69,341291,1,0,0:0:0:0:
230,69,341586,2,0,P|273:120|285:164,1,101.999996887207,2|0,0:0|0:0,0:0:0:0:
194,166,342174,2,0,P|195:232|217:277,1,101.999996887207
152,359,342763,2,0,B|222:338|222:338|355:353,1,203.999993774414,2|2,0:0|0:0,0:0:0:0:
443,293,343940,6,0,P|468:222|439:86,1,203.999993774414,2|0,0:0|0:0,0:0:0:0:
381,190,344824,1,0,0:0:0:0:
381,190,345118,2,0,B|289:198|289:198|186:249,1,203.999993774414,8|0,0:0|0:0,0:0:0:0:
104,331,346001,1,0,0:0:0:0:
104,331,346295,6,0,P|82:266|92:202,1,101.999996887207,2|0,0:0|0:0,0:0:0:0:
188,141,346884,2,0,P|186:191|167:238,1,101.999996887207,2|2,0:0|0:0,0:0:0:0:
65,150,347473,2,0,L|131:56,1,101.999996887207,2|2,0:0|0:0,0:0:0:0:
251,61,348062,2,0,L|181:149,1,101.999996887207,2|2,0:0|0:0,0:0:0:0:
61,186,348650,6,0,B|95:232|95:232|260:257,1,203.999993774414,2|0,0:0|0:0,0:0:0:0:
335,259,349533,1,0,0:0:0:0:
335,259,349828,2,0,P|356:212|334:133,1,101.999996887207,8|0,0:0|0:0,0:0:0:0:
313,113,350269,2,0,B|251:94|237:173|128:134,1,152.999995330811,8|0,0:0|0:0,0:0:0:0:
66,90,351005,2,0,P|51:157|127:278,1,203.999993774414,2|0,0:0|0:0,0:0:0:0:
149,169,351888,1,0,0:0:0:0:
149,169,352183,2,0,L|259:185,1,101.999996887207,2|0,0:0|0:0,0:0:0:0:
419,207,352771,6,0,L|257:260,1,152.999995330811,2|0,0:0|0:0,0:0:0:0:
243,258,353360,2,0,B|193:252|135:289|135:289|139:238|82:186,1,203.999993774414,2|0,0:0|0:0,0:0:0:0:
52,273,354243,1,0,0:0:0:0:
52,273,354537,2,0,P|65:188|34:58,1,203.999993774414,8|0,0:0|0:0,0:0:0:0:
153,88,355421,1,0,0:0:0:0:
153,88,355715,6,0,P|214:77|271:88,1,101.999996887207,2|0,0:0|0:0,0:0:0:0:
215,201,356304,2,0,P|265:206|315:195,1,101.999996887207,2|2,0:0|0:0,0:0:0:0:
374,90,356892,1,2,0:0:0:0:
469,211,357187,1,2,0:0:0:0:
482,103,357481,1,2,0:0:0:0:
361,198,357775,1,2,0:0:0:0:
469,211,358070,6,0,P|450:266|427:284,1,63.7500024318696,2|2,0:0|0:0,0:0:0:0:
329,313,358659,2,0,L|313:249,1,63.7500024318696,2|2,0:0|0:0,0:0:0:0:
229,184,359247,2,0,B|194:175|194:175|162:185|162:185|111:165,2,95.6250036478044,2|2|2,0:0|0:0|0:0,0:0:0:0:
360,203,360719,1,2,0:0:0:0:
423,106,361013,1,2,0:0:0:0:
479,207,361308,1,2,0:0:0:0:
423,106,361602,2,0,P|383:82|307:78,2,95.6250036478044,2|2|2,0:0|0:0|0:0,0:0:0:0:
351,164,362780,6,0,L|316:238,1,63.7500024318696,2|2,0:0|0:0,0:0:0:0:
212,233,363368,2,0,L|243:172,1,63.7500024318696,2|2,0:0|0:0,0:0:0:0:
341,71,363957,2,0,P|361:126|358:181,2,95.6250036478044,2|2|2,0:0|0:0|0:0,0:0:0:0:
71,62,365429,2,0,L|89:135,2,63.7500024318696,2|2|2,0:0|0:0|0:0,0:0:0:0:
35,198,366312,2,0,B|93:212|93:212|154:192,2,95.6250036478044,2|2|2,0:0|0:0|0:0,0:0:0:0:
54,102,367489,6,0,P|92:71|123:58,1,63.7500024318696,2|2,0:0|0:0,0:0:0:0:
212,61,368078,2,0,P|239:76|262:98,1,63.7500024318696,2|2,0:0|0:0,0:0:0:0:
155,168,368667,2,0,L|186:289,2,95.6250036478044,2|2|2,0:0|0:0|0:0,0:0:0:0:
47,262,370139,2,0,L|61:337,2,63.7500024318696,2|2|2,0:0|0:0|0:0,0:0:0:0:
152,188,371022,2,0,P|176:133|177:76,2,95.6250036478044,2|2|2,0:0|0:0|0:0,0:0:0:0:
39,130,372199,6,0,P|76:189|79:208,1,63.7500024318696,2|2,0:0|0:0,0:0:0:0:
152,188,372788,2,0,P|154:257|147:275,1,63.7500024318696,2|2,0:0|0:0,0:0:0:0:
89,312,373377,2,0,B|147:338|147:338|204:331,2,95.6250036478044,2|2|2,0:0|0:0|0:0,0:0:0:0:
90,197,374849,2,0,P|112:151|115:115,2,63.7500024318696,2|2|2,0:0|0:0|0:0,0:0:0:0:
178,58,375732,2,2,P|221:53|285:64,1,95.6250036478044
342,181,376615,6,0,B|273:124|217:195|234:262|294:285|339:301|361:334|361:334|385:298|429:286|484:258|489:188|440:119|354:188|354:188|354:198,1,573.750021886826,2|2,0:0|0:0,0:0:0:0:
