osu file format v14

[General]
AudioFilename: audio.mp3
AudioLeadIn: 0
PreviewTime: 17789
Countdown: 0
SampleSet: Soft
StackLeniency: 0.7
Mode: 0
LetterboxInBreaks: 0
WidescreenStoryboard: 1

[Editor]
Bookmarks: 1289,4526,25683,45578,84105
DistanceSpacing: 0.3
BeatDivisor: 4
GridSize: 4
TimelineZoom: 2

[Metadata]
Title:THE WORLD REVOLVING
TitleUnicode:THE WORLD REVOLVING
Artist:toby fox
ArtistUnicode:toby fox
Creator:SANTAISREAL
Version:EXPERT
Source:DELTARUNE
Tags:undertale deltarune jevil video game videogame instrumental original soundtrack ost
BeatmapID:4556020
BeatmapSetID:2159013

[Difficulty]
HPDrainRate:4
CircleSize:3
OverallDifficulty:9
ApproachRate:9.1
SliderMultiplier:1.8
SliderTickRate:1

[Events]
//Background and Video events
0,0,"deltarune___jevil_by_ichimoral_dfe60fo-pre.jpg",0,0
//Break Periods
//Storyboard Layer 0 (Background)
//Storyboard Layer 1 (Fail)
//Storyboard Layer 2 (Pass)
//Storyboard Layer 3 (Foreground)
//Storyboard Layer 4 (Overlay)
//Storyboard Sound Samples

[TimingPoints]
105,315.789473684211,4,2,4,40,1,0
105,-111.111111111111,4,2,4,40,0,0
7683,-125,4,2,1,40,0,0
10210,-111.111111111111,4,2,4,40,0,0
17789,-166.666666666666,4,2,2,20,0,0
20157,-111.111111111111,4,2,2,5,0,0
20236,-111.111111111111,4,2,2,5,0,0
20315,-83.3333333333333,4,2,1,70,0,0
26868,-83.3333333333333,4,2,1,5,0,0
26947,-83.3333333333333,4,2,1,70,0,0
36973,-83.3333333333333,4,2,1,5,0,0
37052,-83.3333333333333,4,2,1,70,0,0
40526,-76.9230769230769,4,2,4,100,0,1
50473,-76.9230769230769,4,2,4,100,0,1
50631,-76.9230769230769,4,2,4,100,0,1
59473,-166.666666666667,4,2,2,20,0,0
60657,-166.666666666667,4,2,2,5,0,0
60736,-83.3333333333333,4,2,3,70,0,0
79683,-83.3333333333333,4,2,2,100,0,0
80947,-66.6666666666667,4,2,3,90,0,1
99894,-66.6666666666667,4,2,2,20,0,0
101157,-66.6666666666667,4,2,2,70,0,0

[Colours]
Combo1 : 128,0,0
Combo2 : 128,0,128
Combo3 : 255,0,255

[HitObjects]
27,173,105,6,0,P|46:132|90:108,1,80.9999975280763,4|2,3:2|0:0,0:0:0:0:
175,143,420,2,0,P|159:179|127:203,1,80.9999975280763,8|2,3:2|0:0,0:0:0:0:
59,284,736,2,0,P|82:316|119:331,1,80.9999975280763,8|2,3:2|0:0,0:0:0:0:
212,383,1052,2,0,P|236:351|242:311,1,80.9999975280763,8|2,3:2|0:0,0:0:0:0:
245,175,1368,6,0,B|288:160|288:160|332:175,1,80.9999975280763,8|2,3:2|0:0,0:0:0:0:
410,283,1683,1,8,3:2:0:0:
410,283,1841,1,2,0:0:0:0:
505,180,1999,6,0,B|516:146|516:146|501:103,1,80.9999975280763,0|2,3:2|0:0,0:0:0:0:
406,7,2315,1,10,3:2:0:0:
406,7,2473,1,0,0:0:0:0:
339,109,2631,6,0,B|278:134|220:77|145:113,1,161.999995056153,2|10,3:2|3:2,0:0:0:0:
103,12,3105,1,2,0:0:0:0:
103,12,3183,1,0,0:0:0:0:
103,12,3262,2,0,B|49:52|49:52|25:156,1,161.999995056153,2|10,3:2|3:2,0:0:0:0:
27,144,3736,1,0,0:0:0:0:
90,333,3894,5,2,3:2:0:0:
90,333,4052,1,0,0:0:0:0:
166,178,4210,1,10,3:2:0:0:
166,178,4368,1,0,0:0:0:0:
237,337,4526,2,0,P|275:326|304:298,1,80.9999975280763,2|0,3:2|0:0,0:0:0:0:
261,202,4841,2,0,P|289:173|328:163,1,80.9999975280763,10|0,3:2|3:0,0:0:0:0:
429,286,5157,6,0,P|458:249|480:200,1,80.9999975280763,4|2,3:2|0:0,0:0:0:0:
407,159,5473,2,0,P|425:123|451:91,1,80.9999975280763,8|2,3:2|0:0,0:0:0:0:
501,16,5789,2,0,P|462:4|422:0,1,80.9999975280763,8|2,3:2|0:0,0:0:0:0:
361,60,6105,2,0,P|320:55|282:43,1,80.9999975280763,8|2,3:2|0:0,0:0:0:0:
133,7,6420,6,0,B|121:40|121:40|136:83,1,80.9999975280763,8|2,3:2|0:0,0:0:0:0:
61,113,6736,2,0,B|67:147|67:147|102:177,1,80.9999975280763,8|2,3:2|0:0,0:0:0:0:
259,219,7052,1,8,3:2:0:0:
113,287,7210,1,2,0:0:0:0:
262,326,7368,1,8,3:2:0:0:
136,271,7526,1,2,0:0:0:0:
248,146,7683,6,0,P|296:130|373:177,1,144,2|8,3:2|0:0,0:0:0:0:
419,95,8157,2,0,P|479:129|493:197,1,144,0|0,3:0|3:0,0:0:0:0:
493,197,8631,1,8,0:0:0:0:
512,380,8947,6,0,L|339:380,1,144,2|10,3:2|3:2,0:0:0:0:
370,291,9420,1,2,0:0:0:0:
370,291,9499,1,2,0:0:0:0:
370,291,9578,2,0,B|327:319|283:230|214:270,1,144,0|8,3:0|3:2,0:0:0:0:
136,116,10052,1,8,3:2:0:0:
27,211,10210,6,0,P|46:252|90:276,1,80.9999975280763,4|2,3:2|0:0,0:0:0:0:
175,241,10525,2,0,P|159:205|127:181,1,80.9999975280763,8|2,3:2|0:0,0:0:0:0:
59,100,10841,2,0,P|82:68|119:53,1,80.9999975280763,8|2,3:2|0:0,0:0:0:0:
212,1,11157,2,0,P|236:33|242:73,1,80.9999975280763,8|2,3:2|0:0,0:0:0:0:
245,209,11473,6,0,B|288:224|288:224|332:209,1,80.9999975280763,8|2,3:2|0:0,0:0:0:0:
410,101,11788,1,8,3:2:0:0:
410,101,11946,1,2,0:0:0:0:
505,204,12104,6,0,B|516:238|516:238|501:281,1,80.9999975280763,0|2,3:2|0:0,0:0:0:0:
406,377,12420,1,10,3:2:0:0:
406,377,12578,1,0,0:0:0:0:
339,275,12736,6,0,B|278:250|220:307|145:271,1,161.999995056153,2|10,3:2|3:2,0:0:0:0:
103,372,13210,1,2,0:0:0:0:
103,372,13288,1,0,0:0:0:0:
103,372,13367,2,0,B|49:332|49:332|25:228,1,161.999995056153,2|10,3:2|3:2,0:0:0:0:
27,240,13841,1,0,0:0:0:0:
90,51,13999,5,2,3:2:0:0:
90,51,14157,1,0,0:0:0:0:
166,206,14315,1,10,3:2:0:0:
166,206,14473,1,0,0:0:0:0:
237,47,14631,2,0,P|275:58|304:86,1,80.9999975280763,2|0,3:2|0:0,0:0:0:0:
261,182,14946,2,0,P|289:211|328:221,1,80.9999975280763,10|0,3:2|3:0,0:0:0:0:
429,98,15262,6,0,P|458:135|480:184,1,80.9999975280763,4|2,3:2|0:0,0:0:0:0:
407,225,15578,2,0,P|425:260|451:292,1,80.9999975280763,8|2,3:2|0:0,0:0:0:0:
501,368,15894,2,0,P|462:379|422:384,1,80.9999975280763,8|2,3:2|0:0,0:0:0:0:
361,324,16210,2,0,P|320:328|282:340,1,80.9999975280763,8|2,3:2|0:0,0:0:0:0:
133,377,16525,6,0,B|121:343|121:343|136:300,1,80.9999975280763,8|2,3:2|0:0,0:0:0:0:
61,271,16841,2,0,B|67:236|67:236|102:206,1,80.9999975280763,8|2,3:2|0:0,0:0:0:0:
259,165,17157,1,8,3:2:0:0:
113,97,17315,1,2,0:0:0:0:
262,58,17473,1,8,3:2:0:0:
136,113,17631,1,2,0:0:0:0:
361,20,17789,5,2,0:0:0:0:
334,331,18262,5,2,0:0:0:0:
159,22,18736,5,2,0:0:0:0:
429,125,19052,5,2,0:0:0:0:
158,286,19526,6,0,L|128:305,2,26.9999991760254,2|0|2,0:0|0:0|0:0,0:0:0:0:
345,115,20315,6,0,L|333:332,1,215.999993408203,6|2,3:2|3:2,0:0:0:0:
333,330,20789,1,8,3:2:0:0:
185,364,20947,2,0,P|138:375|78:355,1,107.999996704102,2|8,3:2|3:2,0:0:0:0:
151,219,21262,1,2,3:2:0:0:
151,219,21341,1,0,3:2:0:0:
151,219,21420,1,8,3:2:0:0:
0,182,21578,6,0,P|-11:135|9:75,1,107.999996704102,2|8,3:2|3:2,0:0:0:0:
241,68,21894,1,2,3:2:0:0:
52,49,22052,1,8,3:2:0:0:
284,24,22210,2,0,B|387:59|387:59|385:170,1,215.999993408203,2|2,3:2|3:2,0:0:0:0:
358,323,22683,1,8,3:2:0:0:
298,170,22841,6,0,L|185:142,1,107.999996704102,6|8,3:2|3:2,0:0:0:0:
46,193,23157,2,0,L|159:221,1,107.999996704102,2|8,3:2|3:2,0:0:0:0:
247,307,23473,1,2,3:2:0:0:
79,324,23631,1,8,3:2:0:0:
310,245,23789,2,0,L|364:219,2,53.9999983520508,2|0|8,3:2|0:0|3:2,0:0:0:0:
193,144,24105,6,0,B|211:86|211:86|262:73,1,107.999996704102,2|8,3:2|3:2,0:0:0:0:
395,179,24420,1,2,3:2:0:0:
296,17,24578,1,8,3:2:0:0:
456,186,24736,2,0,P|446:282|369:382,1,215.999993408203,2|2,3:2|3:2,0:0:0:0:
211,344,25210,1,8,3:2:0:0:
362,159,25368,5,6,3:2:0:0:
168,265,25526,1,8,3:2:0:0:
284,77,25683,1,2,3:2:0:0:
278,298,25841,1,8,3:2:0:0:
281,187,25999,2,0,P|230:170|178:180,1,107.999996704102,2|8,0:0|3:2,0:0:0:0:
15,307,26315,1,2,3:2:0:0:
119,148,26473,1,8,3:2:0:0:
34,365,26631,6,0,L|243:376,1,161.999995056153,2|0,3:2|0:0,0:0:0:0:
211,354,26947,1,2,3:2:0:0:
24,220,27105,2,0,P|13:167|30:116,1,107.999996704102,8|2,3:2|3:2,0:0:0:0:
177,180,27420,1,8,3:2:0:0:
31,37,27578,2,0,B|73:1|73:1|127:0,1,107.999996704102,2|8,3:2|3:2,0:0:0:0:
215,103,27894,6,0,B|302:103|302:103|333:75|333:75|425:75,1,215.999993408203,6|2,3:2|3:2,0:0:0:0:
492,0,28368,6,0,P|512:94|469:213,1,215.999993408203,8|8,3:2|3:2,0:0:0:0:
390,164,28841,6,0,P|375:215|388:267,1,107.999996704102,2|8,3:2|3:2,0:0:0:0:
502,318,29157,2,0,B|470:366|470:366|306:366,1,215.999993408203,2|2,3:2|3:2,0:0:0:0:
291,271,29631,1,8,3:2:0:0:
291,271,29710,1,0,3:2:0:0:
291,271,29789,1,2,3:2:0:0:
255,143,29947,1,8,3:2:0:0:
192,263,30105,1,2,3:2:0:0:
262,116,30262,1,8,3:2:0:0:
167,269,30420,6,0,L|179:52,1,215.999993408203,6|2,3:2|3:2,0:0:0:0:
179,54,30894,1,8,3:2:0:0:
327,20,31052,2,0,P|374:9|434:29,1,107.999996704102,2|8,3:2|3:2,0:0:0:0:
361,165,31367,1,2,3:2:0:0:
361,165,31446,1,0,3:2:0:0:
361,165,31525,1,8,3:2:0:0:
512,202,31683,6,0,P|523:249|503:309,1,107.999996704102,2|8,3:2|3:2,0:0:0:0:
271,316,31999,1,2,3:2:0:0:
460,335,32157,1,8,3:2:0:0:
228,360,32315,2,0,B|125:325|125:325|127:214,1,215.999993408203,2|2,3:2|3:2,0:0:0:0:
154,61,32788,1,8,3:2:0:0:
214,214,32946,6,0,L|327:242,1,107.999996704102,6|8,3:2|3:2,0:0:0:0:
466,191,33262,2,0,L|353:163,1,107.999996704102,2|8,3:2|3:2,0:0:0:0:
265,77,33578,1,2,3:2:0:0:
433,60,33736,1,8,3:2:0:0:
202,139,33894,2,0,L|148:165,2,53.9999983520508,2|0|8,3:2|0:0|3:2,0:0:0:0:
319,240,34210,6,0,B|301:298|301:298|250:311,1,107.999996704102,2|8,3:2|3:2,0:0:0:0:
117,205,34525,1,2,3:2:0:0:
216,367,34683,1,8,3:2:0:0:
56,198,34841,2,0,P|66:102|143:2,1,215.999993408203,2|2,3:2|3:2,0:0:0:0:
301,40,35315,1,8,3:2:0:0:
150,225,35473,5,6,3:2:0:0:
344,119,35631,1,8,3:2:0:0:
228,307,35788,1,2,3:2:0:0:
234,86,35946,1,8,3:2:0:0:
231,197,36104,2,0,P|282:214|334:204,1,107.999996704102,2|8,0:0|3:2,0:0:0:0:
497,77,36420,1,2,3:2:0:0:
393,236,36578,1,8,3:2:0:0:
478,19,36736,6,0,L|269:8,1,161.999995056153,2|0,3:2|0:0,0:0:0:0:
301,30,37052,1,2,3:2:0:0:
488,164,37210,2,0,P|498:216|481:267,1,107.999996704102,8|2,3:2|3:2,0:0:0:0:
335,204,37525,1,8,3:2:0:0:
481,347,37683,2,0,B|439:383|439:383|384:384,1,107.999996704102,2|8,3:2|3:2,0:0:0:0:
297,281,37999,6,0,B|210:281|210:281|179:309|179:309|87:309,1,215.999993408203,6|2,3:2|3:2,0:0:0:0:
20,384,38473,6,0,P|0:289|42:170,1,215.999993408203,8|8,3:2|3:2,0:0:0:0:
122,220,38946,6,0,P|136:168|123:116,1,107.999996704102,2|8,3:2|3:2,0:0:0:0:
10,66,39262,2,0,B|42:18|42:18|206:18,1,215.999993408203,2|2,3:2|3:2,0:0:0:0:
221,113,39736,1,8,3:2:0:0:
221,113,39815,1,0,3:2:0:0:
221,113,39894,1,2,3:2:0:0:
260,236,40052,1,8,3:2:0:0:
312,111,40210,1,2,3:2:0:0:
251,258,40367,1,8,3:2:0:0:
349,18,40526,6,0,B|413:28|424:68|424:68|400:98,1,116.999994644165,6|8,3:2|3:2,0:0:0:0:
186,54,40841,1,2,3:2:0:0:
380,125,40999,1,8,3:2:0:0:
121,70,41157,6,0,B|66:105|72:146|72:146|106:163,1,116.999994644165,2|8,3:2|3:2,0:0:0:0:
346,127,41473,1,2,3:2:0:0:
151,203,41631,1,8,3:2:0:0:
411,143,41789,6,0,B|465:178|459:219|459:219|425:236,1,116.999994644165,6|8,3:2|3:2,0:0:0:0:
151,203,42105,1,2,3:2:0:0:
320,268,42263,1,8,3:2:0:0:
141,114,42420,5,2,3:2:0:0:
213,315,42578,1,8,3:2:0:0:
277,105,42736,2,0,P|304:59|360:35,1,116.999994644165,2|8,3:2|3:2,0:0:0:0:
489,261,43052,6,0,P|462:307|406:331,1,116.999994644165,6|8,3:2|3:2,0:0:0:0:
406,332,43289,1,0,3:0:0:0:
406,332,43368,1,2,3:2:0:0:
358,173,43526,1,8,3:2:0:0:
310,315,43683,1,2,3:2:0:0:
393,160,43841,1,8,3:2:0:0:
235,345,43999,2,0,P|180:313|148:257,1,116.999994644165,2|8,3:2|3:2,0:0:0:0:
140,105,44315,5,6,3:2:0:0:
221,191,44473,1,8,3:2:0:0:
54,185,44631,1,2,3:2:0:0:
140,105,44789,1,8,3:2:0:0:
41,257,44947,5,6,3:2:0:0:
137,188,45105,1,8,3:2:0:0:
108,353,45263,1,2,3:2:0:0:
41,257,45421,1,8,3:2:0:0:
293,233,45578,6,0,L|304:359,1,116.999994644165,6|8,3:2|3:2,0:0:0:0:
303,349,45815,1,0,3:0:0:0:
303,349,45894,1,2,3:2:0:0:
441,375,46052,1,8,3:2:0:0:
399,245,46210,2,0,B|369:189|369:189|397:143,1,116.999994644165,2|8,3:2|3:2,0:0:0:0:
486,187,46526,2,0,B|515:131|515:131|487:85,1,116.999994644165,2|8,3:2|3:2,0:0:0:0:
300,58,46841,5,6,3:2:0:0:
452,66,46999,1,8,3:2:0:0:
283,35,47157,1,2,3:2:0:0:
476,28,47315,1,8,3:2:0:0:
215,15,47473,6,0,P|152:42|65:196,1,233.999989288331,2|2,3:2|3:2,0:0:0:0:
66,177,47947,1,8,3:2:0:0:
166,314,48105,6,0,B|211:272|188:196|188:196|250:237|313:191,1,233.999989288331,6|2,3:2|3:2,0:0:0:0:
383,64,48578,1,8,3:2:0:0:
502,207,48736,2,0,P|470:262|414:294,1,116.999994644165,2|8,3:2|3:2,0:0:0:0:
329,285,49052,2,0,P|361:230|417:198,1,116.999994644165,2|8,3:2|3:2,0:0:0:0:
465,121,49368,6,0,B|430:73|430:73|258:35,1,233.999989288331,6|2,3:2|3:2,0:0:0:0:
283,166,49841,1,8,3:2:0:0:
283,166,49920,1,0,3:0:0:0:
283,166,49999,2,0,P|299:227|282:289,1,116.999994644165,6|8,3:2|3:2,0:0:0:0:
179,173,50315,1,2,3:2:0:0:
179,173,50473,1,8,3:2:0:0:
163,366,50631,6,0,B|99:356|88:316|88:316|112:286,1,116.999994644165,6|8,3:2|3:2,0:0:0:0:
326,330,50946,1,2,3:2:0:0:
132,259,51104,1,8,3:2:0:0:
391,314,51262,6,0,B|446:279|440:238|440:238|406:221,1,116.999994644165,2|8,3:2|3:2,0:0:0:0:
166,257,51578,1,2,3:2:0:0:
361,181,51736,1,8,3:2:0:0:
101,241,51894,6,0,B|47:206|53:165|53:165|87:148,1,116.999994644165,6|8,3:2|3:2,0:0:0:0:
361,181,52210,1,2,3:2:0:0:
192,116,52368,1,8,3:2:0:0:
371,270,52525,5,2,3:2:0:0:
299,69,52683,1,8,3:2:0:0:
235,279,52841,2,0,P|208:325|152:349,1,116.999994644165,2|8,3:2|3:2,0:0:0:0:
23,123,53157,6,0,P|50:77|106:53,1,116.999994644165,6|8,3:2|3:2,0:0:0:0:
106,52,53394,1,0,3:0:0:0:
106,52,53473,1,2,3:2:0:0:
154,211,53631,1,8,3:2:0:0:
202,69,53788,1,2,3:2:0:0:
119,224,53946,1,8,3:2:0:0:
277,39,54104,2,0,P|332:71|364:127,1,116.999994644165,2|8,3:2|3:2,0:0:0:0:
372,279,54420,5,6,3:2:0:0:
291,193,54578,1,8,3:2:0:0:
458,199,54736,1,2,3:2:0:0:
372,279,54894,1,8,3:2:0:0:
471,127,55052,5,6,3:2:0:0:
375,196,55210,1,8,3:2:0:0:
404,31,55368,1,2,3:2:0:0:
471,127,55526,1,8,3:2:0:0:
219,151,55683,6,0,L|208:25,1,116.999994644165,6|8,3:2|3:2,0:0:0:0:
209,35,55920,1,0,3:0:0:0:
209,35,55999,1,2,3:2:0:0:
71,9,56157,1,8,3:2:0:0:
112,138,56315,2,0,B|142:194|142:194|114:240,1,116.999994644165,2|8,3:2|3:2,0:0:0:0:
25,196,56631,2,0,B|-3:252|-3:252|24:298,1,116.999994644165,2|8,3:2|3:2,0:0:0:0:
212,326,56946,5,6,3:2:0:0:
60,318,57104,1,8,3:2:0:0:
229,349,57262,1,2,3:2:0:0:
36,356,57420,1,8,3:2:0:0:
297,369,57578,6,0,P|360:342|447:188,1,233.999989288331,2|2,3:2|3:2,0:0:0:0:
446,207,58052,1,8,3:2:0:0:
346,70,58210,6,0,B|301:112|324:188|324:188|262:147|199:193,1,233.999989288331,6|2,3:2|3:2,0:0:0:0:
129,320,58683,1,8,3:2:0:0:
10,177,58841,2,0,P|42:122|98:90,1,116.999994644165,2|8,3:2|3:2,0:0:0:0:
183,99,59157,6,0,P|151:154|95:186,1,116.999994644165,2|8,3:2|3:2,0:0:0:0:
41,262,59473,6,0,P|41:292|144:288,1,161.999995056153,2|2,0:0|0:0,0:0:0:0:
152,294,60026,1,2,0:0:0:0:
159,291,60105,2,0,B|203:328|291:281|291:281|290:311|299:335,1,188.999994232178,2|0,0:0|0:0,0:0:0:0:
312,332,60736,6,0,B|366:309|459:355|459:355|460:292,1,215.999993408203,6|2,3:2|3:2,0:0:0:0:
347,192,61210,1,8,3:2:0:0:
493,198,61368,2,0,P|504:141|487:85,1,107.999996704102,2|8,3:2|3:2,0:0:0:0:
349,118,61683,1,2,3:2:0:0:
349,118,61762,1,0,3:2:0:0:
349,118,61841,2,0,P|296:130|244:118,1,107.999996704102,8|2,3:2|3:2,0:0:0:0:
221,32,62157,5,8,3:2:0:0:
177,177,62315,1,2,3:2:0:0:
186,16,62473,1,8,3:2:0:0:
251,226,62631,2,0,B|215:268|215:268|154:267,1,107.999996704102,2|8,3:2|3:2,0:0:0:0:
87,148,62947,1,2,3:2:0:0:
96,309,63105,1,8,3:2:0:0:
6,155,63262,5,6,3:2:0:0:
1,128,63340,1,0,0:0:0:0:
2,101,63419,1,8,3:2:0:0:
10,75,63498,1,0,3:2:0:0:
23,52,63578,2,0,L|53:6,2,53.9999983520508,2|0|8,3:2|3:2|3:2,0:0:0:0:
173,26,63894,5,2,3:2:0:0:
173,26,63973,1,0,0:0:0:0:
173,26,64052,1,8,3:2:0:0:
244,118,64210,5,2,3:2:0:0:
244,118,64289,1,0,3:2:0:0:
244,118,64368,2,0,P|296:130|349:117,1,107.999996704102,8|2,3:2|3:2,0:0:0:0:
310,28,64683,5,8,3:2:0:0:
488,99,64841,1,2,3:2:0:0:
327,203,64999,1,8,3:2:0:0:
405,29,65157,2,0,L|423:143,1,107.999996704102,2|8,3:2|3:2,0:0:0:0:
487,184,65473,2,0,L|469:298,1,107.999996704102,2|8,3:2|3:2,0:0:0:0:
367,353,65789,6,0,B|313:330|220:376|220:376|219:313,1,215.999993408203,6|2,3:2|3:2,0:0:0:0:
319,196,66262,1,8,3:2:0:0:
133,244,66420,2,0,P|122:187|139:131,1,107.999996704102,2|8,3:2|3:2,0:0:0:0:
274,109,66736,1,2,3:2:0:0:
274,109,66815,1,0,0:0:0:0:
274,109,66894,2,0,P|326:121|378:110,1,107.999996704102,8|2,3:2|3:2,0:0:0:0:
404,5,67210,5,8,3:2:0:0:
478,227,67368,1,2,3:2:0:0:
313,17,67526,1,8,3:2:0:0:
352,289,67683,6,0,B|298:301|298:301|249:265,1,107.999996704102,2|8,3:2|3:2,0:0:0:0:
364,70,67999,1,2,3:2:0:0:
199,280,68157,1,8,3:2:0:0:
237,16,68315,5,6,3:2:0:0:
210,6,68393,1,0,0:0:0:0:
183,4,68472,1,8,3:2:0:0:
156,7,68551,1,0,0:0:0:0:
132,17,68631,2,0,L|82:40,2,53.9999983520508,2|0|8,3:2|0:0|3:2,0:0:0:0:
7,130,68947,5,2,3:2:0:0:
7,130,69026,1,0,0:0:0:0:
7,130,69105,1,8,3:2:0:0:
88,214,69263,5,2,3:2:0:0:
88,214,69342,1,0,3:2:0:0:
88,214,69420,2,0,L|151:223,2,53.9999983520508,8|0|2,3:2|0:0|3:2,0:0:0:0:
237,165,69736,1,8,3:2:0:0:
81,183,69894,5,2,3:2:0:0:
295,213,70052,1,8,3:2:0:0:
72,211,70210,5,2,3:2:0:0:
333,162,70368,1,8,3:2:0:0:
55,185,70526,5,2,3:2:0:0:
310,134,70683,1,8,3:2:0:0:
200,332,70841,6,0,B|146:309|53:355|53:355|52:292,1,215.999993408203,6|2,3:2|3:2,0:0:0:0:
165,192,71315,1,8,3:2:0:0:
19,198,71473,2,0,P|8:141|25:85,1,107.999996704102,2|8,3:2|3:2,0:0:0:0:
163,118,71788,1,2,3:2:0:0:
163,118,71867,1,0,3:2:0:0:
163,118,71946,2,0,P|216:130|268:118,1,107.999996704102,8|2,3:2|3:2,0:0:0:0:
291,32,72262,5,8,3:2:0:0:
335,177,72420,1,2,3:2:0:0:
326,16,72578,1,8,3:2:0:0:
261,226,72736,2,0,B|297:268|297:268|358:267,1,107.999996704102,2|0,3:2|0:0,0:0:0:0:
425,148,73052,1,2,3:2:0:0:
416,309,73210,1,8,3:2:0:0:
506,155,73367,5,6,3:2:0:0:
511,128,73445,1,0,0:0:0:0:
510,101,73524,1,8,3:2:0:0:
502,75,73603,1,0,3:2:0:0:
489,52,73683,2,0,L|459:6,2,53.9999983520508,2|0|8,3:2|0:0|3:2,0:0:0:0:
339,26,73999,5,2,3:2:0:0:
339,26,74078,1,0,0:0:0:0:
339,26,74157,1,8,3:2:0:0:
268,118,74315,5,2,3:2:0:0:
268,118,74394,1,0,3:2:0:0:
268,118,74473,2,0,P|216:130|163:117,1,107.999996704102,8|2,3:2|3:2,0:0:0:0:
202,28,74788,5,8,3:2:0:0:
24,99,74946,1,2,3:2:0:0:
185,203,75104,1,8,3:2:0:0:
107,29,75262,2,0,L|89:143,1,107.999996704102,2|8,3:2|3:2,0:0:0:0:
25,184,75578,2,0,L|43:298,1,107.999996704102,2|8,3:2|3:2,0:0:0:0:
145,353,75894,6,0,B|199:330|292:376|292:376|293:313,1,215.999993408203,6|2,3:2|3:2,0:0:0:0:
193,196,76367,1,8,3:2:0:0:
379,244,76525,2,0,P|390:187|373:131,1,107.999996704102,2|8,3:2|3:2,0:0:0:0:
238,109,76841,1,2,3:2:0:0:
238,109,76920,1,0,0:0:0:0:
238,109,76999,2,0,P|185:121|133:110,1,107.999996704102,8|2,3:2|3:2,0:0:0:0:
108,5,77315,5,8,3:2:0:0:
34,227,77473,1,2,3:2:0:0:
199,17,77631,1,8,3:2:0:0:
160,289,77788,6,0,B|213:301|213:301|262:265,1,107.999996704102,2|8,3:2|3:2,0:0:0:0:
148,70,78104,1,2,3:2:0:0:
313,280,78262,1,8,3:2:0:0:
275,16,78420,5,6,3:2:0:0:
302,6,78498,1,0,0:0:0:0:
329,4,78577,1,8,3:2:0:0:
356,7,78656,1,0,3:2:0:0:
380,17,78736,2,0,L|429:40,2,53.9999983520508,2|0|8,3:2|3:2|3:2,0:0:0:0:
505,130,79052,5,2,3:2:0:0:
505,130,79131,1,0,0:0:0:0:
505,130,79210,1,8,3:2:0:0:
424,214,79368,5,2,3:2:0:0:
424,214,79447,1,0,3:2:0:0:
424,214,79526,2,0,L|361:223,2,53.9999983520508,8|0|2,3:2|0:0|0:0,0:0:0:0:
253,152,79841,1,0,0:0:0:0:
431,183,79999,5,2,0:0:0:0:
171,219,80157,1,0,0:0:0:0:
440,211,80315,5,2,0:0:0:0:
118,147,80473,1,0,0:0:0:0:
457,185,80631,5,2,0:0:0:0:
138,97,80788,1,0,0:0:0:0:
391,353,80947,6,0,L|116:358,1,270.000010299683,6|2,3:2|3:2,0:0:0:0:
28,202,81420,1,8,3:2:0:0:
295,278,81578,2,0,L|157:280,1,135.000005149842,2|8,3:2|3:2,0:0:0:0:
119,138,81894,1,2,3:2:0:0:
119,138,81973,1,0,3:2:0:0:
119,138,82052,1,0,3:2:0:0:
367,196,82210,6,0,L|229:198,1,135.000005149842,2|8,3:2|3:2,0:0:0:0:
311,115,82526,2,0,L|445:113,1,135.000005149842,2|8,3:2|3:2,0:0:0:0:
395,30,82841,2,0,L|257:32,1,135.000005149842,2|0,3:2|0:0,0:0:0:0:
118,70,83157,1,2,3:2:0:0:
118,70,83236,1,0,0:0:0:0:
118,70,83315,6,0,L|119:139,1,67.5000025749208,8|0,3:2|0:0,0:0:0:0:
13,308,83473,6,0,P|87:349|276:338,1,270.000010299683,6|2,3:2|3:2,0:0:0:0:
153,256,83947,1,8,3:2:0:0:
246,164,84105,2,0,P|312:154|373:180,1,135.000005149842,2|8,3:2|3:2,0:0:0:0:
367,368,84420,1,2,3:2:0:0:
367,368,84499,1,0,3:2:0:0:
367,368,84578,1,0,3:2:0:0:
495,277,84736,6,0,P|521:215|511:149,1,135.000005149842,2|8,3:2|3:2,0:0:0:0:
359,88,85052,2,0,P|425:98|486:72,1,135.000005149842,2|8,3:2|3:2,0:0:0:0:
351,0,85368,2,0,P|285:-10|224:16,1,135.000005149842,2|8,3:2|3:2,0:0:0:0:
246,164,85683,2,0,P|185:136|148:81,1,135.000005149842,2|8,3:2|3:2,0:0:0:0:
24,102,85999,6,0,B|2:187|2:187|94:351,1,270.000010299683,6|2,3:2|3:2,0:0:0:0:
150,206,86473,1,8,3:2:0:0:
225,355,86631,2,0,B|267:366|267:366|349:320,1,135.000005149842,2|8,3:2|3:2,0:0:0:0:
188,221,86947,1,2,3:2:0:0:
188,221,87026,1,0,3:2:0:0:
188,221,87105,1,0,3:2:0:0:
432,252,87262,6,0,B|469:229|469:229|495:139,1,135.000005149842,2|8,3:2|3:2,0:0:0:0:
426,11,87578,2,0,B|388:33|388:33|362:123,1,135.000005149842,2|8,3:2|3:2,0:0:0:0:
312,255,87894,2,0,B|274:232|274:232|248:142,1,135.000005149842,2|0,3:2|0:0,0:0:0:0:
309,27,88210,1,2,3:2:0:0:
309,27,88289,1,0,0:0:0:0:
309,27,88368,6,0,B|289:16|289:16|244:28,1,67.5000025749208,8|0,3:2|0:0,0:0:0:0:
41,183,88526,6,0,P|16:250|130:209,1,270.000010299683,6|2,3:2|3:2,0:0:0:0:
10,41,88999,1,8,3:2:0:0:
193,79,89157,2,0,P|215:51|154:52,1,135.000005149842,2|8,3:2|3:2,0:0:0:0:
241,236,89473,1,2,3:2:0:0:
241,236,89552,1,0,3:2:0:0:
241,236,89631,1,8,3:2:0:0:
366,143,89789,6,0,P|388:115|327:116,1,135.000005149842,2|8,3:2|3:2,0:0:0:0:
408,261,90105,2,0,P|443:266|411:214,1,135.000005149842,2|8,3:2|3:2,0:0:0:0:
293,339,90420,2,0,P|306:372|334:318,1,135.000005149842,2|8,3:2|3:2,0:0:0:0:
135,220,90736,1,2,3:2:0:0:
135,220,90815,1,0,0:0:0:0:
135,220,90894,6,0,P|120:230|150:237,1,67.5000025749208
121,31,91052,6,0,L|396:26,1,270.000010299683,6|2,3:2|3:2,0:0:0:0:
484,182,91525,1,8,3:2:0:0:
217,106,91683,2,0,L|355:104,1,135.000005149842,2|8,3:2|3:2,0:0:0:0:
393,246,91999,1,2,3:2:0:0:
393,246,92078,1,0,3:2:0:0:
393,246,92157,1,8,3:2:0:0:
145,188,92315,6,0,L|283:186,1,135.000005149842,2|8,3:2|3:2,0:0:0:0:
201,269,92631,2,0,L|67:271,1,135.000005149842,2|8,3:2|3:2,0:0:0:0:
117,354,92946,2,0,L|255:352,1,135.000005149842,2|0,3:2|0:0,0:0:0:0:
394,314,93262,1,2,3:2:0:0:
394,314,93341,1,0,0:0:0:0:
394,314,93420,6,0,L|393:245,1,67.5000025749208,8|0,3:2|0:0,0:0:0:0:
499,76,93578,6,0,P|425:35|236:46,1,270.000010299683,6|2,3:2|3:2,0:0:0:0:
359,128,94052,1,8,3:2:0:0:
266,220,94210,2,0,P|200:230|139:204,1,135.000005149842,2|8,3:2|3:2,0:0:0:0:
145,16,94525,1,2,3:2:0:0:
145,16,94604,1,0,3:2:0:0:
145,16,94683,1,8,3:2:0:0:
28,98,94841,6,0,P|2:160|12:226,1,135.000005149842,2|8,3:2|3:2,0:0:0:0:
153,296,95157,2,0,P|87:286|26:312,1,135.000005149842,2|8,3:2|3:2,0:0:0:0:
161,384,95473,2,0,P|227:394|288:368,1,135.000005149842,2|8,3:2|3:2,0:0:0:0:
266,220,95788,2,0,P|327:248|364:303,1,135.000005149842,2|0,3:2|0:0,0:0:0:0:
488,282,96104,6,0,B|510:197|510:197|418:33,1,270.000010299683,6|2,3:2|3:2,0:0:0:0:
362,178,96578,1,8,3:2:0:0:
287,29,96736,2,0,B|245:18|245:18|163:64,1,135.000005149842,2|8,3:2|3:2,0:0:0:0:
324,163,97052,1,2,3:2:0:0:
324,163,97131,1,0,3:2:0:0:
324,163,97210,1,8,3:2:0:0:
80,132,97367,6,0,B|43:155|43:155|17:245,1,135.000005149842,2|8,3:2|3:2,0:0:0:0:
86,373,97683,2,0,B|124:351|124:351|150:261,1,135.000005149842,2|8,3:2|3:2,0:0:0:0:
200,129,97999,2,0,B|238:152|238:152|264:242,1,135.000005149842,2|0,3:2|0:0,0:0:0:0:
203,357,98315,1,2,3:2:0:0:
203,357,98394,1,0,0:0:0:0:
203,357,98473,6,0,B|223:368|223:368|268:356,1,67.5000025749208,8|0,3:2|0:0,0:0:0:0:
471,201,98631,6,0,P|496:134|382:175,1,270.000010299683,6|2,3:2|3:2,0:0:0:0:
502,343,99104,1,8,3:2:0:0:
319,305,99262,2,0,P|296:332|357:331,1,135.000005149842,2|8,3:2|3:2,0:0:0:0:
271,148,99578,1,2,3:2:0:0:
271,148,99657,1,0,3:2:0:0:
271,148,99736,1,8,3:2:0:0:
120,361,99894,5,2,0:0:0:0:
65,237,100210,5,2,0:0:0:0:
102,106,100526,5,2,0:0:0:0:
214,29,100841,5,2,0:0:0:0:
256,192,101157,5,4,0:0:0:0:
