osu file format v14

[General]
AudioFilename: audio.mp3
AudioLeadIn: 0
PreviewTime: 10747
Countdown: 0
SampleSet: Soft
StackLeniency: 0.7
Mode: 0
LetterboxInBreaks: 0
EpilepsyWarning: 1
WidescreenStoryboard: 1

[Editor]
DistanceSpacing: 2
BeatDivisor: 4
GridSize: 4
TimelineZoom: 0.9

[Metadata]
Title:Start Menu
TitleUnicode:Start Menu
Artist:toby fox
ArtistUnicode:toby fox
Creator:DaxMasterix
Version:Hard
Source:UNDERTALE
Tags:radiaton chiptune ferret
BeatmapID:935504
BeatmapSetID:434096

[Difficulty]
HPDrainRate:6
CircleSize:4
OverallDifficulty:6
ApproachRate:7.5
SliderMultiplier:1.6
SliderTickRate:1

[Events]
//Background and Video events
0,0,"BG.jpg",0,0
//Break Periods
//Storyboard Layer 0 (Background)
//Storyboard Layer 1 (Fail)
//Storyboard Layer 2 (Pass)
//Storyboard Layer 3 (Foreground)
//Storyboard Sound Samples

[TimingPoints]
90,666.07460035524,4,2,1,40,1,0
21737,-100,4,3,1,40,0,0

[Colours]
Combo1 : 255,255,128
Combo2 : 128,255,128
Combo3 : 128,255,255
Combo4 : 255,128,128

[HitObjects]
52,108,90,5,0,0:0:0:0:
52,108,423,1,2,3:2:0:0:
124,140,589,1,0,3:0:0:0:
196,104,756,2,0,P|244:92|284:92,1,80,0|2,0:0|3:2,0:0:0:0:
414,127,1255,2,0,P|375:137|336:140,1,80
274,91,1755,1,2,3:2:0:0:
348,64,1921,1,0,3:0:0:0:
242,278,2421,1,2,3:2:0:0:
174,318,2587,1,0,0:0:0:0:
96,340,2754,5,0,0:0:0:0:
96,340,3087,1,2,3:2:0:0:
60,268,3253,1,0,3:0:0:0:
70,188,3420,2,0,P|66:148|70:108,1,80,0|2,0:0|3:2,0:0:0:0:
148,204,3919,2,0,P|151:243|149:283,1,80
96,340,4419,1,2,3:2:0:0:
60,268,4586,1,0,3:0:0:0:
300,296,5085,1,2,3:2:0:0:
380,308,5252,1,0,0:0:0:0:
456,284,5418,5,0,0:0:0:0:
456,284,5751,1,2,3:2:0:0:
400,228,5918,1,0,3:0:0:0:
324,200,6084,2,0,P|280:192|240:176,1,80,0|2,0:0|3:2,0:0:0:0:
400,228,6584,2,0,P|374:264|342:293,1,80
276,324,7083,1,2,3:2:0:0:
127,311,7250,2,0,P|167:303|207:304,1,80,0|0,3:0|0:0,0:0:0:0:
284,330,7749,1,2,3:2:0:0:
284,330,8082,5,0,0:0:0:0:
284,330,8415,1,2,3:2:0:0:
288,250,8582,1,0,3:0:0:0:
256,176,8748,2,0,P|240:132|236:96,1,80,0|2,0:0|3:2,0:0:0:0:
248,20,9248,1,0,0:0:0:0:
300,44,10747,5,0,0:0:0:0:
300,44,11080,1,2,3:2:0:0:
372,80,11246,1,0,3:0:0:0:
448,60,11413,2,0,P|460:104|460:140,1,80,0|2,0:0|3:2,0:0:0:0:
412,270,11912,2,0,P|400:231|400:192,1,80
460,138,12412,1,2,3:2:0:0:
480,216,12578,1,0,3:0:0:0:
292,364,13078,1,2,3:2:0:0:
212,376,13244,1,0,0:0:0:0:
148,328,13411,5,0,0:0:0:0:
148,328,13744,1,2,3:2:0:0:
120,252,13911,1,0,3:0:0:0:
123,172,14077,2,0,P|115:134|94:100,1,80,0|2,0:0|3:2,0:0:0:0:
192,216,14577,2,0,P|234:222|274:212,1,80
348,196,15076,1,2,3:2:0:0:
416,152,15243,1,0,3:0:0:0:
184,96,15742,1,2,3:2:0:0:
108,68,15909,1,0,0:0:0:0:
124,150,16075,5,0,0:0:0:0:
124,150,16408,1,2,3:2:0:0:
184,96,16575,1,0,3:0:0:0:
256,68,16741,2,0,P|296:60|352:64,1,80,0|2,0:0|3:2,0:0:0:0:
487,103,17241,2,0,P|447:103|408:96,1,80
404,16,17740,1,2,3:2:0:0:
339,140,17907,2,0,P|324:184|316:220,1,80,0|0,3:0|0:0,0:0:0:0:
337,302,18407,1,2,3:2:0:0:
337,302,18740,5,0,0:0:0:0:
337,302,19073,1,2,3:2:0:0:
259,320,19239,1,0,3:0:0:0:
184,291,19406,2,0,P|144:282|104:283,1,80,0|2,0:0|3:2,0:0:0:0:
28,296,19905,1,0,0:0:0:0:
52,224,21737,6,0,L|40:264,1,40,2|0,0:2|0:0,0:0:0:0:
52,224,22236,1,0,0:0:0:0:
131,240,22403,1,2,0:2:0:0:
211,236,22570,1,0,0:0:0:0:
376,60,23069,1,2,0:2:0:0:
376,60,23236,1,0,0:0:0:0:
136,60,23735,1,2,0:2:0:0:
136,60,23902,1,0,0:0:0:0:
332,200,24401,6,0,L|356:168,1,40,2|0,0:2|0:0,0:0:0:0:
332,200,24901,1,0,0:0:0:0:
256,220,25067,1,2,0:2:0:0:
180,200,25234,1,0,0:0:0:0:
376,60,25733,1,2,0:2:0:0:
376,60,25900,1,0,0:0:0:0:
136,60,26399,1,2,0:2:0:0:
136,60,26566,1,0,0:0:0:0:
144,304,27066,6,0,L|116:332,1,40,2|0,0:2|0:0,0:0:0:0:
144,304,27565,1,0,0:0:0:0:
200,248,27732,1,2,0:2:0:0:
256,192,27898,1,0,0:0:0:0:
368,304,28231,1,0,0:0:0:0:
312,248,28398,1,2,0:2:0:0:
256,192,28564,1,0,0:0:0:0:
256,32,28897,1,0,0:0:0:0:
256,32,29064,1,2,0:2:0:0:
256,192,29730,6,0,L|256:240,1,40,2|0,0:2|0:0,0:0:0:0:
256,192,30229,1,0,0:0:0:0:
196,92,30396,1,2,0:2:0:0:
316,92,30562,1,2,0:2:0:0:
