osu file format v14

[General]
AudioFilename: audio.mp3
AudioLeadIn: 0
PreviewTime: 0
Countdown: 0
SampleSet: None
StackLeniency: 0.7
Mode: 0
LetterboxInBreaks: 0
WidescreenStoryboard: 0

[Editor]
DistanceSpacing: 1.9
BeatDivisor: 3
GridSize: 4
TimelineZoom: 1

[Metadata]
Title:Spooktune
TitleUnicode:Spooktune
Artist:toby fox
ArtistUnicode:toby fox
Creator:Ancelysia
Version:after mapping, i like to lay down and feel like garbage
Source:UNDERTALE
Tags:ost napstablook
BeatmapID:1841900
BeatmapSetID:880850

[Difficulty]
HPDrainRate:4
CircleSize:3
OverallDifficulty:4
ApproachRate:7
SliderMultiplier:1.1
SliderTickRate:0.5

[Events]
//Background and Video events
0,0,"BG.png",0,0
//Break Periods
//Storyboard Layer 0 (Background)
//Storyboard Layer 1 (Fail)
//Storyboard Layer 2 (Pass)
//Storyboard Layer 3 (Foreground)
//Storyboard Sound Samples

[TimingPoints]
178,491.803278688525,4,2,1,20,1,0
1161,-80,4,2,1,20,0,0
3743,-80,4,2,2,5,0,0
3866,-80,4,2,1,20,0,0
11612,-80,4,2,2,5,0,0
11735,-80,4,2,1,20,0,0
17514,-80,4,2,2,5,0,0
17637,-80,4,2,1,20,0,0
19481,-80,4,2,2,5,0,0
19604,-80,4,2,1,20,0,0
23815,491.803278688525,4,2,1,20,1,0
23815,-80,4,2,1,20,0,0
27380,-80,4,2,2,5,0,0
27503,-80,4,2,1,20,0,0

[Colours]
Combo1 : 192,192,192
Combo2 : 128,128,128

[HitObjects]
40,292,178,5,0,0:0:0:0:
164,232,505,1,0,0:0:0:0:
164,232,669,1,0,0:0:0:0:
280,308,997,1,0,0:0:0:0:
280,308,1161,6,0,P|388:320|436:276,1,137.5
224,200,2145,2,0,P|159:287|173:351,1,137.5
344,224,3128,2,0,P|318:118|244:80,1,171.875
84,148,4112,5,0,0:0:0:0:
224,252,4440,1,0,0:0:0:0:
224,252,4604,1,0,0:0:0:0:
270,85,4932,1,0,0:0:0:0:
270,85,5096,6,0,P|372:60|432:80,1,137.5
276,192,6079,2,0,L|140:170,2,137.5
208,260,8046,5,0,0:0:0:0:
44,316,8374,1,0,0:0:0:0:
44,316,8538,1,0,0:0:0:0:
80,144,8866,1,0,0:0:0:0:
80,144,9030,6,0,L|232:160,1,137.5
260,256,10014,2,0,L|396:241,1,137.5
216,158,10997,2,0,P|172:194|164:306,1,171.875
336,212,11981,5,0,0:0:0:0:
220,84,12309,1,0,0:0:0:0:
220,84,12473,1,0,0:0:0:0:
96,204,12800,1,0,0:0:0:0:
96,204,12964,6,0,P|148:188|244:224,1,137.5
336,336,13948,2,0,L|352:144,2,137.5
112,80,15915,6,0,P|176:96|228:72,1,91.6666666666667
268,144,16407,2,0,P|332:128|384:152,1,91.6666666666667
408,60,16899,6,0,L|388:256,1,171.875
416,344,17882,6,0,P|352:328|300:352,1,91.6666666666667
260,280,18374,2,0,P|196:296|144:272,1,91.6666666666667
120,364,18866,6,0,L|140:168,1,171.875
312,36,19850,5,0,0:0:0:0:
345,136,20178,1,0,0:0:0:0:
345,136,20341,1,0,0:0:0:0:
261,199,20669,1,0,0:0:0:0:
261,199,20833,1,0,0:0:0:0:
173,141,21161,1,0,0:0:0:0:
173,141,21325,1,0,0:0:0:0:
201,39,21653,1,0,0:0:0:0:
201,39,21817,1,0,0:0:0:0:
256,108,22309,6,0,L|256:288,1,137.5
256,336,23815,5,0,0:0:0:0:
424,284,24142,1,0,0:0:0:0:
424,284,24306,1,0,0:0:0:0:
452,112,24634,1,0,0:0:0:0:
452,112,24798,6,0,P|396:84|308:116,1,137.5
248,172,25782,2,0,P|192:200|104:168,1,137.5
56,88,26765,2,0,P|80:132|72:256,1,171.875
12,360,27749,5,0,0:0:0:0:
180,312,28077,1,0,0:0:0:0:
180,312,28241,1,0,0:0:0:0:
352,340,28569,1,0,0:0:0:0:
352,340,28733,6,0,L|492:320,1,137.5
368,180,29716,2,0,L|228:160,2,137.5
