osu file format v14

[General]
AudioFilename: Undertale Spider Dance (Muffet theme) Dual Mix.mp3
AudioLeadIn: 0
PreviewTime: 32783
Countdown: 0
SampleSet: Normal
StackLeniency: 0.6
Mode: 0
LetterboxInBreaks: 0
WidescreenStoryboard: 0

[Editor]
Bookmarks: 34977,69899,87360,139743
DistanceSpacing: 1.1
BeatDivisor: 4
GridSize: 32
TimelineZoom: 2.2

[Metadata]
Title:Spider Dance Dual Mix
TitleUnicode:Spider Dance Dual Mix
Artist:toby fox
ArtistUnicode:toby fox
Creator:Battle
Version:Insane
Source:UNDERTALE
Tags:boss music video game indie miss muffett theme Sharkie Raiden ferdk
BeatmapID:816499
BeatmapSetID:372723

[Difficulty]
HPDrainRate:6.5
CircleSize:4
OverallDifficulty:7
ApproachRate:9
SliderMultiplier:1.4
SliderTickRate:1

[Events]
//Background and Video events
0,0,"a.png",0,0
//Break Periods
2,70073,86728
//Storyboard Layer 0 (Background)
//Storyboard Layer 1 (Fail)
//Storyboard Layer 2 (Pass)
//Storyboard Layer 3 (Foreground)
//Storyboard Sound Samples

[TimingPoints]
56,272.727272727273,4,1,2,70,1,0
56,-100,4,1,2,70,0,1
6601,-200,4,2,2,60,0,0
8783,-100,4,1,2,70,0,1
15328,-200,4,2,2,60,0,0
17510,-100,4,1,2,70,0,1
24056,-200,4,2,2,60,0,0
26237,-100,4,1,2,70,0,1
32783,-200,4,2,2,60,0,0
34965,-100,4,1,2,40,0,0
35101,-100,4,2,2,60,0,0
39328,-100,4,1,2,40,0,0
39465,-100,4,2,2,60,0,0
43692,-100,4,1,2,40,0,0
43828,-100,4,2,2,60,0,0
48056,-100,4,1,2,40,0,0
48192,-100,4,2,2,60,0,0
51328,-100,4,2,2,70,0,0
51601,-100,4,2,2,70,0,0
51874,-100,4,2,2,70,0,0
52419,-100,4,1,2,40,0,0
52556,-100,4,2,2,60,0,0
61146,-100,4,1,2,40,0,0
61283,-100,4,2,2,50,0,0
65510,-100,4,1,2,50,0,0
65515,-100,4,1,2,50,0,0
65646,-100,4,2,2,40,0,0
65651,-100,4,2,2,40,0,0
67692,-100,4,2,2,35,0,0
69056,-100,4,2,2,30,0,0
69328,-100,4,2,2,40,0,0
69874,-100,4,2,2,5,0,0
87328,-100,4,1,2,50,0,0
103155,272.727272727273,4,1,2,70,1,0
103155,-100,4,1,2,70,0,0
103700,-100,4,1,2,60,0,0
104816,272.727272727273,4,1,2,70,1,0
104816,-100,4,1,2,70,0,1
111361,-200,4,2,2,60,0,0
113543,-100,4,1,2,70,0,1
120088,-200,4,2,2,60,0,0
122270,-100,4,1,2,70,0,1
128816,-200,4,2,2,60,0,0
130997,-100,4,1,2,70,0,1
137543,-200,4,2,2,60,0,0
139725,-100,4,1,2,40,0,0
139861,-100,4,2,2,60,0,0
144088,-100,4,1,2,40,0,0
144225,-100,4,2,2,60,0,0
148452,-100,4,1,2,40,0,0
148588,-100,4,2,2,60,0,0
152816,-100,4,1,2,55,0,0
152952,-100,4,2,2,50,0,0
153905,-100,4,2,2,50,0,0
153906,-100,4,2,2,45,0,0

[Colours]
Combo1 : 84,33,33
Combo2 : 255,128,192
Combo3 : 190,95,169
Combo4 : 148,148,148

[HitObjects]
410,86,56,6,0,P|414:136|405:176,1,70,0|0,0:0|0:0,0:0:0:0:
291,225,328,1,2,0:0:0:0:
245,148,465,1,0,0:0:0:0:
378,243,601,2,0,L|386:338,1,70,0|0,0:0|0:0,0:0:0:0:
305,370,874,2,0,L|297:275,1,70,2|0,0:0|0:0,0:0:0:0:
209,284,1146,6,0,P|169:275|122:292,2,70,0|0|2,0:0|0:0|0:0,0:0:0:0:
70,336,1556,1,0,0:0:0:0:
135,206,1692,2,0,L|142:129,1,70,0|0,0:0|0:0,0:0:0:0:
68,21,1965,2,0,L|61:98,1,70,2|0,0:0|0:0,0:0:0:0:
158,24,2237,5,0,0:0:0:0:
214,101,2374,1,0,0:0:0:0:
325,50,2510,1,2,0:0:0:0:
385,127,2646,1,0,0:0:0:0:
306,232,2783,2,0,P|256:232|232:242,1,70,0|0,0:0|0:0,0:0:0:0:
205,337,3056,2,0,P|255:337|279:327,1,70,2|0,0:0|0:0,0:0:0:0:
121,296,3328,6,0,L|110:395,2,70,0|0|2,0:0|0:0|0:0,0:0:0:0:
45,265,3737,2,0,P|-2:208|35:129,1,140
45,117,4078,1,0,0:0:0:0:
82,91,4146,2,0,L|72:39,2,35,2|0|0,0:0|0:0|0:0,0:0:0:0:
160,176,4419,6,0,L|237:115,1,70
322,208,4692,2,0,L|229:208,1,70,2|0,0:0|0:0,0:0:0:0:
276,65,4965,2,0,L|298:148,1,70
431,97,5237,2,0,L|339:98,1,70,2|0,0:0|0:0,0:0:0:0:
410,205,5510,6,0,L|393:286,1,70
357,365,5783,2,0,L|299:292,1,70,2|0,0:0|0:0,0:0:0:0:
251,222,6056,2,0,L|327:222,1,70
228,305,6328,2,0,L|155:299,1,70,2|0,0:0|0:0,0:0:0:0:
90,222,6601,6,0,P|90:187|105:155,2,70,4|2|0,0:0|0:0|0:0,0:0:0:0:
221,95,7419,1,2,0:0:0:0:
221,95,7692,2,0,L|302:94,1,70,4|2,0:0|0:0,0:0:0:0:
452,187,8237,2,0,L|371:186,1,70,4|0,0:0|0:0,0:0:0:0:
301,265,8646,1,4,0:3:0:0:
212,160,8783,6,0,L|220:80,1,70
118,24,9056,2,0,L|112:94,1,70,2|0,0:0|0:0,0:0:0:0:
21,190,9328,1,0,0:0:0:0:
96,289,9465,1,0,0:0:0:0:
189,221,9601,2,0,P|225:218|279:222,1,70,2|0,0:0|0:0,0:0:0:0:
351,155,9874,6,0,L|343:85,1,70
247,36,10146,2,0,L|169:44,2,70,2|0|0,0:0|0:0|0:0,0:0:0:0:
343,85,10556,1,0,0:0:0:0:
260,177,10692,1,2,0:0:0:0:
385,235,10828,1,0,0:0:0:0:
341,349,10965,6,0,P|279:378|263:374,1,70
264,277,11237,2,0,L|189:277,1,70,2|0,0:0|0:0,0:0:0:0:
49,190,11510,2,0,L|124:190,1,70
250,177,11783,1,2,0:0:0:0:
194,277,11919,1,0,0:0:0:0:
155,107,12056,6,0,P|155:53|176:25,2,70,0|0|2,0:0|0:0|0:0,0:0:0:0:
243,18,12465,2,0,L|393:25,1,140
423,47,12806,1,0,0:0:0:0:
460,74,12874,2,0,L|462:110,2,35,2|0|0,0:0|0:0|0:0,0:0:0:0:
390,180,13146,5,0,0:0:0:0:
346,265,13283,1,0,0:0:0:0:
235,203,13419,1,2,0:0:0:0:
315,186,13556,1,0,0:0:0:0:
239,323,13692,2,0,P|182:322|146:327,1,70
65,272,13965,2,0,P|61:233|55:191,1,70,2|0,0:0|0:0,0:0:0:0:
123,56,14237,6,0,P|116:93|113:137,1,70
205,221,14510,1,2,0:0:0:0:
209,96,14646,1,0,0:0:0:0:
316,135,14783,2,0,L|405:127,1,70
509,206,15056,2,0,L|424:210,1,70,2|0,0:0|0:0,0:0:0:0:
353,204,15328,6,0,P|350:248|358:279,2,70,4|2|0,0:0|0:0|0:0,0:0:0:0:
381,361,16146,1,2,0:0:0:0:
381,361,16419,2,0,L|302:365,1,70,4|2,0:0|0:0,0:0:0:0:
245,266,16965,2,0,L|166:270,1,70,4|0,0:0|0:0,0:0:0:0:
106,337,17374,1,4,0:3:0:0:
59,236,17510,5,0,0:0:0:0:
14,157,17646,1,0,0:0:0:0:
104,51,17783,2,0,L|95:125,1,70,2|0,0:0|0:0,0:0:0:0:
169,211,18056,2,0,L|178:137,1,70
262,120,18328,2,0,L|253:46,1,70,2|0,0:0|0:0,0:0:0:0:
338,33,18601,6,0,P|390:20|422:34,1,70,0|0,0:0|0:0,0:0:0:0:
456,149,18874,1,2,0:0:0:0:
383,95,19010,1,0,0:0:0:0:
464,66,19146,1,0,0:0:0:0:
326,155,19283,1,0,0:0:0:0:
389,205,19419,2,0,L|401:274,1,70,2|0,0:0|0:0,0:0:0:0:
439,353,19692,6,0,P|372:350|341:363,1,70,0|0,0:0|0:0,0:0:0:0:
270,373,19965,2,0,P|205:381|179:363,1,70,2|0,0:0|0:0,0:0:0:0:
122,240,20237,2,0,L|134:323,1,70
215,181,20510,2,0,L|215:263,1,70,2|0,0:0|0:0,0:0:0:0:
266,100,20783,6,0,P|315:102|346:129,2,70,0|0|2,0:0|0:0|0:0,0:0:0:0:
306,201,21192,2,0,P|405:209|450:188,1,140
468,157,21533,1,0,0:0:0:0:
477,119,21601,2,0,L|532:123,2,35,2|0|0,0:0|0:0|0:0,0:0:0:0:
355,26,21874,6,0,L|269:16,1,70
261,159,22146,2,0,L|313:95,1,70,2|0,0:0|0:0,0:0:0:0:
145,81,22419,2,0,L|239:82,1,70
155,166,22692,2,0,L|64:166,1,70,2|0,0:0|0:0,0:0:0:0:
119,248,22965,6,0,L|135:328,1,70
281,251,23237,2,0,L|211:250,1,70,2|0,0:0|0:0,0:0:0:0:
257,341,23510,2,0,L|351:342,1,70
402,297,23783,2,0,L|426:217,1,70,2|0,0:0|0:0,0:0:0:0:
449,141,24056,6,0,P|453:105|448:62,2,70,4|2|0,0:0|0:0|0:0,0:0:0:0:
370,240,24874,1,2,0:0:0:0:
370,240,25146,2,0,B|328:249|328:249|295:246,1,70,4|2,0:0|0:0,0:0:0:0:
195,225,25692,2,0,B|153:216|153:216|120:219,1,70,4|0,0:0|0:0,0:0:0:0:
37,291,26101,1,4,0:3:0:0:
12,171,26237,6,0,L|24:91,1,70
98,45,26510,2,0,L|100:115,1,70,2|0,0:0|0:0,0:0:0:0:
189,156,26783,2,0,L|177:73,1,70,0|0,0:0|0:0,0:0:0:0:
236,20,27056,2,0,L|273:110,1,70,2|0,0:0|0:0,0:0:0:0:
413,151,27328,5,0,0:0:0:0:
343,92,27465,1,0,0:0:0:0:
346,238,27601,2,0,P|318:267|275:276,1,70,2|0,0:0|0:0,0:0:0:0:
197,290,27874,1,0,0:0:0:0:
265,357,28010,1,0,0:0:0:0:
112,249,28146,2,0,L|117:318,1,70,2|0,0:0|0:0,0:0:0:0:
30,190,28419,5,0,0:0:0:0:
123,155,28556,1,0,0:0:0:0:
30,44,28692,1,2,0:0:0:0:
57,116,28828,1,0,0:0:0:0:
145,45,28965,2,0,P|182:40|235:38,1,70
332,119,29237,2,0,P|291:115|242:112,1,70,2|0,0:0|0:0,0:0:0:0:
181,159,29510,6,0,L|171:241,2,70,0|0|2,0:0|0:0|0:0,0:0:0:0:
262,113,29919,2,0,B|285:207|285:207|264:267,1,140
240,281,30260,1,0,0:0:0:0:
205,296,30328,2,0,L|213:354,2,35,2|0|0,0:0|0:0|0:0,0:0:0:0:
102,256,30601,6,0,L|86:164,1,70
134,102,30874,2,0,L|59:104,1,70,2|0,0:0|0:0,0:0:0:0:
172,180,31146,2,0,L|242:180,1,70
213,105,31419,2,0,L|233:26,1,70,2|0,0:0|0:0,0:0:0:0:
371,96,31692,6,0,L|299:96,1,70
336,174,31965,2,0,L|332:250,1,70,2|0,0:0|0:0,0:0:0:0:
274,340,32237,2,0,L|249:259,1,70
186,188,32510,2,0,L|258:188,1,70,2|0,0:0|0:0,0:0:0:0:
117,305,32783,6,0,P|112:268|106:227,1,70,4|2,0:0|0:0,0:0:0:0:
59,104,33328,1,0,0:0:0:0:
184,66,33601,1,2,0:0:0:0:
184,66,33874,2,0,L|270:69,1,70,4|2,0:0|0:0,0:0:0:0:
408,105,34419,1,8,0:0:0:0:
348,175,34556,1,8,0:0:0:0:
424,19,34692,1,8,0:0:0:0:
491,103,34828,1,8,0:0:0:0:
400,241,34965,6,0,P|357:258|305:246,1,70,4|0,0:0|0:0,0:0:0:0:
257,244,35237,1,8,0:0:0:0:
201,190,35374,1,0,0:0:0:0:
201,113,35510,2,0,L|218:29,1,70,0|0,0:0|0:0,0:0:0:0:
137,51,35783,2,0,L|120:135,1,70,8|0,0:0|0:0,0:0:0:0:
71,176,36056,6,0,P|33:262|70:321,1,140,0|8,0:0|0:0,0:0:0:0:
125,250,36465,2,0,P|158:337|226:353,1,140,0|0,0:0|0:0,0:0:0:0:
316,275,36874,1,8,0:0:0:0:
283,346,37010,1,0,0:0:0:0:
215,265,37146,6,0,L|293:143,1,140,0|8,0:0|0:0,0:0:0:0:
449,68,37556,2,0,L|371:190,1,140,0|0,0:0|0:0,0:0:0:0:
345,62,37965,1,8,0:0:0:0:
270,42,38101,1,0,0:0:0:0:
193,50,38237,6,0,P|80:54|63:76,1,140,0|8,0:0|0:0,0:0:0:0:
30,133,38646,2,0,B|13:213|13:213|35:273,1,140,0|0,0:0|0:0,0:0:0:0:
158,289,39056,1,8,0:0:0:0:
116,190,39192,1,0,0:0:0:0:
122,361,39328,6,0,P|180:368|210:349,1,70,4|0,0:0|0:0,0:0:0:0:
265,308,39601,2,0,L|276:231,1,70,8|0,0:0|0:0,0:0:0:0:
386,201,39874,2,0,P|352:245|266:231,1,140,0|8,0:0|0:0,0:0:0:0:
206,201,40283,1,0,0:0:0:0:
197,124,40419,6,0,L|299:28,1,140,0|8,0:0|0:0,0:0:0:0:
173,25,40828,2,0,L|71:121,1,140,0|0,0:0|0:0,0:0:0:0:
30,187,41237,2,0,P|31:232|49:253,1,70,8|0,0:0|0:0,0:0:0:0:
121,315,41510,6,0,P|186:329|248:271,1,140,0|8,0:0|0:0,0:0:0:0:
267,179,41919,2,0,L|337:306,1,140,0|0,0:0|0:0,0:0:0:0:
447,322,42328,1,8,0:0:0:0:
378,372,42465,1,0,0:0:0:0:
428,233,42601,6,0,P|463:163|444:99,1,140,0|8,0:0|0:0,0:0:0:0:
384,9,43010,2,0,P|349:79|368:143,1,140,0|0,0:0|0:0,0:0:0:0:
271,100,43419,1,8,0:0:0:0:
194,107,43556,1,0,0:0:0:0:
139,52,43692,6,0,P|71:46|60:53,1,70,4|0,0:0|0:0,0:0:0:0:
38,114,43965,2,0,L|28:196,1,70,8|0,0:0|0:0,0:0:0:0:
62,252,44237,2,0,P|126:267|166:206,1,140,0|8,0:0|0:0,0:0:0:0:
175,136,44646,1,0,0:0:0:0:
244,103,44783,6,0,L|386:103,1,140,0|8,0:0|0:0,0:0:0:0:
491,203,45192,2,0,L|349:203,1,140,0|0,0:0|0:0,0:0:0:0:
275,326,45601,1,8,0:0:0:0:
348,291,45737,1,0,0:0:0:0:
261,226,45874,6,0,P|214:207|125:227,1,140,0|8,0:0|0:0,0:0:0:0:
41,292,46283,2,0,B|11:220|11:220|20:148,1,140,0|0,0:0|0:0,0:0:0:0:
69,88,46692,2,0,L|142:64,1,70,8|0,0:0|0:0,0:0:0:0:
231,41,46965,6,0,P|302:27|340:95,1,140,0|8,0:0|0:0,0:0:0:0:
433,207,47374,2,0,P|362:221|324:153,1,140,0|0,0:0|0:0,0:0:0:0:
180,178,47783,1,8,0:0:0:0:
253,230,47919,1,0,0:0:0:0:
175,103,48056,6,0,P|117:135|107:165,1,70,4|0,0:0|0:0,0:0:0:0:
41,288,48328,1,8,0:0:0:0:
45,204,48465,1,0,0:0:0:0:
127,276,48601,2,0,P|170:328|246:325,1,140,0|8,0:0|0:0,0:0:0:0:
298,280,49010,1,0,0:0:0:0:
337,213,49146,6,0,P|324:151|301:132,2,70,0|0|8,0:0|0:0|0:0,0:0:0:0:
411,236,49556,2,0,P|410:149|375:81,1,140
332,47,49965,2,0,L|248:33,1,70,8|0,0:0|0:0,0:0:0:0:
185,31,50237,5,0,0:0:0:0:
116,66,50374,1,0,0:0:0:0:
208,185,50510,1,8,0:0:0:0:
185,110,50646,1,0,0:0:0:0:
127,267,50783,2,0,L|206:264,1,70
354,192,51056,2,0,L|275:195,1,70,8|0,0:0|0:0,0:0:0:0:
216,74,51328,6,0,P|263:35|312:42,1,105,4|0,0:0|0:0,0:0:0:0:
283,110,51601,6,0,L|399:99,1,105,4|0,0:0|0:0,0:0:0:0:
467,101,51874,6,0,B|487:155|462:190|462:190|451:177,1,105,4|0,0:0|0:0,0:0:0:0:
376,177,52146,6,0,L|368:269,1,70,8|0,0:0|0:0,0:0:0:0:
450,309,52419,5,4,0:0:0:0:
378,357,52556,1,0,0:0:0:0:
369,246,52692,2,0,L|294:244,1,70,8|0,0:0|0:0,0:0:0:0:
223,305,52965,2,0,L|136:310,1,70,0|0,0:0|0:0,0:0:0:0:
34,244,53237,1,8,0:0:0:0:
73,314,53374,1,0,0:0:0:0:
121,206,53510,6,0,L|109:122,1,70,0|0,0:0|0:0,0:0:0:0:
186,137,53783,2,0,L|195:67,1,70,8|0,0:0|0:0,0:0:0:0:
278,93,54056,2,0,L|268:23,1,70,0|0,0:0|0:0,0:0:0:0:
368,53,54328,2,0,L|377:122,1,70,8|0,0:0|0:0,0:0:0:0:
437,220,54601,6,0,P|402:213|338:227,1,70,0|0,0:0|0:0,0:0:0:0:
244,331,54874,2,0,P|279:338|343:324,1,70,8|0,0:0|0:0,0:0:0:0:
426,240,55146,2,0,P|391:233|327:247,1,70,0|0,0:0|0:0,0:0:0:0:
233,351,55419,2,0,P|268:358|332:344,1,70,8|0,0:0|0:0,0:0:0:0:
194,250,55692,6,0,L|187:170,1,70,0|0,0:0|0:0,0:0:0:0:
68,94,55965,2,0,L|75:174,1,70,8|0,0:0|0:0,0:0:0:0:
214,263,56237,2,0,L|207:183,1,70,0|0,0:0|0:0,0:0:0:0:
88,107,56510,2,0,L|95:187,1,70,8|0,0:0|0:0,0:0:0:0:
191,71,56783,6,0,P|219:35|269:27,2,70,0|0|8,0:0|0:0|0:0,0:0:0:0:
317,76,57192,1,0,0:0:0:0:
342,184,57328,2,0,L|338:259,1,70,0|0,0:0|0:0,0:0:0:0:
431,324,57601,2,0,L|427:254,1,70,8|0,0:0|0:0,0:0:0:0:
430,160,57874,6,0,P|485:162|509:181,2,70,0|0|8,0:0|0:0|0:0,0:0:0:0:
356,83,58283,1,0,0:0:0:0:
243,37,58419,2,0,L|150:43,1,70,0|0,0:0|0:0,0:0:0:0:
37,129,58692,2,0,L|130:123,1,70,8|0,0:0|0:0,0:0:0:0:
184,128,58965,5,0,0:0:0:0:
245,173,59101,1,0,0:0:0:0:
272,245,59237,1,8,0:0:0:0:
263,321,59374,1,0,0:0:0:0:
199,276,59510,2,0,L|122:278,1,70,0|0,0:0|0:0,0:0:0:0:
32,193,59783,2,0,L|109:195,1,70,8|0,0:0|0:0,0:0:0:0:
159,128,60056,6,0,P|185:78|213:69,1,70,0|0,0:0|0:0,0:0:0:0:
277,26,60328,2,0,L|357:26,1,70,8|0,0:0|0:0,0:0:0:0:
462,47,60601,2,0,P|485:134|455:180,1,140,0|8,0:0|0:0,0:0:0:0:
401,125,61010,1,0,0:0:0:0:
326,103,61146,6,0,L|243:111,1,70,4|0,0:0|0:0,0:0:0:0:
216,175,61419,2,0,L|133:183,1,70,8|0,0:0|0:0,0:0:0:0:
108,114,61692,2,0,P|68:180|93:238,1,140,0|8,0:0|0:0,0:0:0:0:
146,181,62101,1,0,0:0:0:0:
144,330,62237,6,0,L|294:332,1,140,0|8,0:0|0:0,0:0:0:0:
361,314,62646,2,0,P|391:258|360:176,1,140
321,125,63056,2,0,P|292:173|298:211,1,70,8|0,0:0|0:0,0:0:0:0:
437,74,63328,6,0,L|270:36,1,140,0|8,0:0|0:0,0:0:0:0:
105,63,63737,2,0,L|272:101,1,140,0|0,0:0|0:0,0:0:0:0:
92,226,64146,1,8,0:0:0:0:
125,150,64283,1,0,0:0:0:0:
187,243,64419,6,0,P|189:346|230:363,1,140,0|8,0:0|0:0,0:0:0:0:
313,341,64828,2,0,P|333:277|290:225,1,140,0|0,0:0|0:0,0:0:0:0:
133,152,65237,1,8,0:0:0:0:
205,220,65374,1,0,0:0:0:0:
267,120,65510,6,0,L|269:40,1,70,4|0,0:0|0:0,0:0:0:0:
362,168,65783,2,0,L|360:88,1,70,8|0,0:0|0:0,0:0:0:0:
450,192,66056,2,0,B|477:253|477:253|471:333,1,140,0|8,0:0|0:0,0:0:0:0:
379,291,66465,1,0,0:0:0:0:
297,315,66601,6,0,L|298:414,2,70,0|0|8,0:0|0:0|0:0,0:0:0:0:
294,200,67010,2,0,P|175:180|141:205,1,140
176,325,67419,2,0,P|148:297|143:252,1,70,8|0,0:0|0:0,0:0:0:0:
164,185,67692,6,0,L|61:186,1,70
147,98,67965,2,0,L|250:99,1,70,8|0,0:0|0:0,0:0:0:0:
294,134,68237,1,0,0:0:0:0:
368,154,68374,1,0,0:0:0:0:
437,121,68510,1,8,0:0:0:0:
467,50,68646,1,0,0:0:0:0:
368,154,68783,6,0,L|377:254,1,70,4|0,0:0|0:0,0:0:0:0:
232,293,69056,2,0,L|228:193,1,70,4|0,0:0|0:0,0:0:0:0:
278,208,69328,2,0,P|196:181|277:241,1,280,4|0,0:0|0:0,0:0:0:0:
66,192,87328,6,0,P|53:153|60:103,1,70,0|0,0:0|0:0,0:0:0:0:
162,52,87601,1,2,0:0:0:0:
129,142,87737,1,0,0:0:0:0:
269,160,87874,1,0,0:0:0:0:
205,110,88010,1,0,0:0:0:0:
228,224,88146,2,0,P|281:234|317:224,1,70,2|0,0:0|0:0,0:0:0:0:
491,89,88419,6,0,L|492:159,1,70
417,236,88692,1,2,0:0:0:0:
478,307,88828,1,0,0:0:0:0:
422,161,88965,2,0,P|384:167|349:207,1,70
280,285,89237,2,0,L|193:284,1,70,2|0,0:0|0:0,0:0:0:0:
141,227,89510,5,0,0:0:0:0:
61,182,89646,2,0,L|1:168,2,35,0|0|2,0:0|0:0|0:0,0:0:0:0:
79,278,89919,1,0,0:0:0:0:
120,120,90056,2,0,L|203:119,1,70,0|0,0:0|0:0,0:0:0:0:
172,41,90328,2,0,L|262:40,1,70,2|0,0:0|0:0,0:0:0:0:
321,39,90601,6,0,P|347:93|339:133,1,70,0|0,0:0|0:0,0:0:0:0:
304,174,90874,1,2,0:0:0:0:
239,215,91010,2,0,L|230:265,9,35,0|0|0|0|0|0|0|0|0|0,0:0|0:0|0:0|0:0|0:0|0:0|0:0|0:0|0:0|0:0,0:0:0:0:
241,196,91692,5,0,0:0:0:0:
116,286,91828,1,0,0:0:0:0:
151,203,91965,1,2,0:0:0:0:
210,336,92101,1,0,0:0:0:0:
301,313,92237,2,0,L|396:322,1,70,0|0,0:0|0:0,0:0:0:0:
491,253,92510,2,0,L|396:244,1,70,2|0,0:0|0:0,0:0:0:0:
335,171,92783,6,0,P|337:108|321:76,1,70,0|0,0:0|0:0,0:0:0:0:
247,19,93056,2,0,P|245:82|261:114,1,70,2|0,0:0|0:0,0:0:0:0:
216,158,93328,1,0,0:0:0:0:
140,143,93465,1,0,0:0:0:0:
76,99,93601,2,0,P|13:119|0:141,1,70,2|0,0:0|0:0,0:0:0:0:
24,196,93874,6,0,L|27:280,1,70,0|0,0:0|0:0,0:0:0:0:
103,271,94146,2,0,L|100:355,1,70,2|0,0:0|0:0,0:0:0:0:
181,225,94419,2,0,L|184:309,1,70,0|0,0:0|0:0,0:0:0:0:
262,176,94692,2,0,L|259:260,1,70,2|0,0:0|0:0,0:0:0:0:
348,157,94965,6,0,P|419:162|439:147,1,70,0|0,0:0|0:0,0:0:0:0:
505,56,95237,2,0,P|470:50|438:62,1,70,2|0,0:0|0:0,0:0:0:0:
321,36,95510,1,0,0:0:0:0:
244,44,95646,1,0,0:0:0:0:
211,114,95783,2,0,L|124:127,1,70,2|0,0:0|0:0,0:0:0:0:
46,179,96056,6,0,L|28:93,1,70,0|0,0:0|0:0,0:0:0:0:
116,226,96328,2,0,L|102:295,1,70,2|0,0:0|0:0,0:0:0:0:
202,358,96601,2,0,L|184:272,1,70,0|0,0:0|0:0,0:0:0:0:
291,256,96874,2,0,L|277:325,1,70,2|0,0:0|0:0,0:0:0:0:
366,203,97147,6,0,P|424:201|445:185,1,70,0|0,0:0|0:0,0:0:0:0:
493,134,97419,1,2,0:0:0:0:
435,71,97556,1,0,0:0:0:0:
355,100,97692,2,0,L|280:103,1,70
269,187,97965,2,0,L|194:184,1,70,2|0,0:0|0:0,0:0:0:0:
145,118,98238,5,0,0:0:0:0:
61,110,98374,2,0,L|36:63,2,35,0|0|2,0:0|0:0|0:0,0:0:0:0:
34,190,98647,1,0,0:0:0:0:
84,257,98783,2,0,L|166:259,1,70
286,345,99056,2,0,L|204:343,1,70,2|0,0:0|0:0,0:0:0:0:
369,267,99328,5,0,0:0:0:0:
402,360,99465,1,0,0:0:0:0:
283,261,99601,1,2,0:0:0:0:
355,163,99738,2,0,L|412:153,9,35,0|0|0|0|0|0|0|0|0|0,0:0|0:0|0:0|0:0|0:0|0:0|0:0|0:0|0:0|0:0,0:0:0:0:
326,168,100419,5,0,0:0:0:0:
167,90,100556,1,0,0:0:0:0:
214,164,100692,1,2,0:0:0:0:
236,38,100828,1,0,0:0:0:0:
99,50,100965,2,0,P|88:105|99:132,1,70,0|0,0:0|0:0,0:0:0:0:
145,186,101238,2,0,L|159:276,1,70,2|0,0:0|0:0,0:0:0:0:
85,355,101510,6,0,L|71:265,1,70,0|0,0:0|0:0,0:0:0:0:
205,328,101783,1,2,0:0:0:0:
280,342,101919,1,0,0:0:0:0:
346,303,102056,2,0,L|360:234,1,70,0|0,0:0|0:0,0:0:0:0:
482,146,102328,2,0,L|468:215,1,70,2|0,0:0|0:0,0:0:0:0:
405,110,102601,5,2,0:0:0:0:
216,36,102874,1,2,0:1:0:0:
230,252,103155,5,4,0:2:0:0:
277,157,103291,1,4,0:2:0:0:
94,35,103564,5,0,0:0:0:0:
141,130,103700,1,4,0:0:0:0:
256,192,103768,12,0,104816,0:0:0:0:
345,73,104952,5,0,0:0:0:0:
313,144,105088,2,0,P|369:146|395:130,1,70,2|0,0:0|0:0,0:0:0:0:
254,90,105361,2,0,P|234:139|240:170,1,70,0|0,0:0|0:0,0:0:0:0:
304,353,105634,2,0,P|324:304|318:273,1,70,2|0,0:0|0:0,0:0:0:0:
264,237,105906,5,0,0:0:0:0:
187,228,106043,1,0,0:0:0:0:
133,282,106179,2,0,L|51:278,1,70,2|0,0:0|0:0,0:0:0:0:
0,179,106452,2,0,L|82:183,1,70,0|0,0:0|0:0,0:0:0:0:
116,120,106725,1,2,0:0:0:0:
185,87,106861,1,0,0:0:0:0:
260,99,106997,6,0,P|314:107|350:92,1,70,0|0,0:0|0:0,0:0:0:0:
472,37,107270,2,0,P|418:29|382:44,1,70,2|0,0:0|0:0,0:0:0:0:
462,145,107543,2,0,L|459:223,1,70,0|0,0:0|0:0,0:0:0:0:
378,235,107816,2,0,L|381:313,1,70,2|0,0:0|0:0,0:0:0:0:
283,322,108088,6,0,P|229:341|195:327,2,70,0|0|2,0:0|0:0|0:0,0:0:0:0:
282,239,108497,2,0,P|207:224|135:233,1,140
107,257,108838,1,0,0:0:0:0:
77,282,108906,2,0,L|25:273,2,35,2|0|0,0:0|0:0|0:0,0:0:0:0:
61,187,109179,6,0,L|52:106,1,70
185,98,109452,2,0,L|130:158,1,70,2|0,0:0|0:0,0:0:0:0:
148,16,109725,2,0,L|229:17,1,70
340,90,109997,2,0,L|259:92,1,70,2|0,0:0|0:0,0:0:0:0:
178,167,110270,6,0,L|189:252,1,70
338,191,110543,2,0,L|256:190,1,70,2|0,0:0|0:0,0:0:0:0:
269,280,110816,2,0,L|350:280,1,70
418,347,111088,2,0,L|419:258,1,70,2|0,0:0|0:0,0:0:0:0:
367,100,111361,6,0,L|358:177,2,70,4|2|0,0:0|0:0|0:0,0:0:0:0:
499,178,112179,1,2,0:0:0:0:
499,178,112452,2,0,L|485:257,1,70,4|2,0:0|0:0,0:0:0:0:
413,353,112997,2,0,L|399:274,1,70,4|0,0:0|0:0,0:0:0:0:
261,257,113406,1,4,0:3:0:0:
319,325,113543,5,0,0:0:0:0:
350,180,113679,1,0,0:0:0:0:
231,180,113816,2,0,P|192:206|180:248,1,70,2|0,0:0|0:0,0:0:0:0:
166,328,114088,2,0,L|77:330,1,70,0|0,0:0|0:0,0:0:0:0:
0,239,114361,2,0,L|89:241,1,70,2|0,0:0|0:0,0:0:0:0:
112,175,114634,5,0,0:0:0:0:
82,52,114770,1,0,0:0:0:0:
219,128,114906,1,2,0:0:0:0:
135,103,115043,1,0,0:0:0:0:
229,18,115179,2,0,P|263:15|314:14,1,70
401,40,115452,2,0,L|412:136,1,70,2|0,0:0|0:0,0:0:0:0:
340,239,115725,6,0,L|329:143,2,70,0|0|2,0:0|0:0|0:0,0:0:0:0:
376,316,116134,1,0,0:0:0:0:
300,351,116270,2,0,P|252:372|209:362,1,70
206,291,116543,2,0,P|158:270|115:280,1,70,2|0,0:0|0:0,0:0:0:0:
4,236,116816,5,0,0:0:0:0:
55,307,116952,1,0,0:0:0:0:
117,110,117088,1,2,0:0:0:0:
183,169,117225,2,0,L|326:162,1,140,0|0,0:0|0:0,0:0:0:0:
394,130,117634,2,0,L|383:69,2,35,2|0|0,0:0|0:0|0:0,0:0:0:0:
447,185,117906,6,0,P|462:265|458:277,1,70,0|0,0:0|0:0,0:0:0:0:
404,324,118179,2,0,L|326:331,1,70,2|0,0:0|0:0,0:0:0:0:
266,234,118452,2,0,L|344:227,1,70
271,384,118725,2,0,L|251:312,1,70,2|0,0:0|0:0,0:0:0:0:
164,270,118997,6,0,L|170:349,1,70
269,230,119270,2,0,P|278:173|267:145,1,70,2|0,0:0|0:0,0:0:0:0:
148,71,119543,1,0,0:0:0:0:
200,158,119679,1,0,0:0:0:0:
296,50,119816,2,0,L|374:50,1,70,2|0,0:0|0:0,0:0:0:0:
473,176,120088,6,0,P|470:129|456:101,2,70,4|2|0,0:0|0:0|0:0,0:0:0:0:
397,291,120906,1,2,0:0:0:0:
397,291,121179,2,0,L|314:297,1,70,4|2,0:0|0:0,0:0:0:0:
230,366,121725,2,0,L|147:372,1,70,4|0,0:0|0:0,0:0:0:0:
11,289,122134,1,4,0:3:0:0:
71,376,122270,5,0,0:0:0:0:
145,294,122406,1,0,0:0:0:0:
83,228,122543,2,0,P|87:185|74:143,1,70,2|0,0:0|0:0,0:0:0:0:
0,37,122816,2,0,P|-4:80|9:122,1,70
98,71,123088,2,0,L|180:70,1,70,2|0,0:0|0:0,0:0:0:0:
348,38,123361,5,0,0:0:0:0:
246,137,123497,1,0,0:0:0:0:
222,11,123634,1,2,0:0:0:0:
348,38,123770,1,0,0:0:0:0:
433,131,123906,2,0,L|427:210,1,70
368,278,124179,2,0,L|345:201,1,70,2|0,0:0|0:0,0:0:0:0:
215,152,124452,5,0,0:0:0:0:
301,123,124588,1,0,0:0:0:0:
227,288,124725,2,0,P|182:301|135:281,1,70,2|0,0:0|0:0,0:0:0:0:
54,233,124997,2,0,P|57:274|58:312,1,70
116,161,125270,1,2,0:0:0:0:
32,110,125406,1,0,0:0:0:0:
112,69,125543,6,0,L|114:-5,2,70,0|0|2,0:0|0:0|0:0,0:0:0:0:
116,161,125952,2,0,P|177:193|269:160,1,140
305,98,126361,2,0,L|295:50,2,35,2|0|0,0:0|0:0|0:0,0:0:0:0:
431,118,126634,6,0,L|426:191,1,70
342,282,126906,2,0,L|338:213,1,70,2|0,0:0|0:0,0:0:0:0:
274,336,127179,1,0,0:0:0:0:
232,260,127316,1,0,0:0:0:0:
117,356,127452,1,2,0:0:0:0:
194,334,127588,1,0,0:0:0:0:
146,246,127725,6,0,L|155:156,1,70
60,60,127997,2,0,L|51:150,1,70,2|0,0:0|0:0,0:0:0:0:
203,96,128270,2,0,L|123:94,1,70
230,198,128543,2,0,L|315:206,1,70,2|0,0:0|0:0,0:0:0:0:
459,87,128816,6,0,P|470:52|462:5,2,70,4|2|0,0:0|0:0|0:0,0:0:0:0:
392,171,129634,1,2,0:0:0:0:
392,171,129906,2,0,L|322:166,1,70,4|2,0:0|0:0,0:0:0:0:
486,249,130452,2,0,L|404:254,1,70,4|0,0:0|0:0,0:0:0:0:
332,259,130861,1,4,0:3:0:0:
292,346,130997,6,0,P|240:369|207:357,1,70
99,295,131270,1,2,0:0:0:0:
140,366,131406,1,0,0:0:0:0:
188,271,131543,2,0,L|198:195,1,70,0|0,0:0|0:0,0:0:0:0:
281,211,131816,2,0,L|291:135,1,70,2|0,0:0|0:0,0:0:0:0:
363,66,132088,5,0,0:0:0:0:
298,24,132225,1,0,0:0:0:0:
221,31,132361,1,2,0:0:0:0:
183,98,132497,1,0,0:0:0:0:
176,174,132634,2,0,L|89:177,1,70,0|0,0:0|0:0,0:0:0:0:
2,261,132906,2,0,L|89:264,1,70,2|0,0:0|0:0,0:0:0:0:
171,282,133179,6,0,L|164:353,1,70,0|0,0:0|0:0,0:0:0:0:
259,236,133452,2,0,L|266:307,1,70,2|0,0:0|0:0,0:0:0:0:
355,193,133725,2,0,L|348:264,1,70,0|0,0:0|0:0,0:0:0:0:
431,151,133997,2,0,L|438:222,1,70,2|0,0:0|0:0,0:0:0:0:
426,56,134270,6,0,P|458:43|505:48,2,70,0|0|2,0:0|0:0|0:0,0:0:0:0:
366,113,134679,2,0,P|287:134|231:113,1,140
201,34,135088,2,0,L|197:0,2,35,2|0|0,0:0|0:0|0:0,0:0:0:0:
159,126,135361,6,0,P|162:161|142:213,1,70,0|0,0:0|0:0,0:0:0:0:
47,288,135634,2,0,P|38:254|42:220,1,70,2|0,0:0|0:0,0:0:0:0:
141,277,135906,2,0,L|160:362,1,70
245,303,136179,2,0,P|250:273|258:227,1,70,2|0,0:0|0:0,0:0:0:0:
280,114,136452,6,0,P|322:143|353:166,1,70
406,263,136725,2,0,P|370:250|325:228,1,70,2|0,0:0|0:0,0:0:0:0:
208,157,136997,2,0,L|191:70,1,70
128,207,137270,2,0,P|131:240|133:276,1,70,2|0,0:0|0:0,0:0:0:0:
241,330,137543,6,0,L|315:333,2,70,4|2|0,0:0|0:0|0:0,0:0:0:0:
391,253,138361,1,2,0:0:0:0:
391,253,138634,2,0,P|409:209|406:180,1,70,4|2,0:0|0:0,0:0:0:0:
268,80,139179,1,8,0:0:0:0:
321,156,139316,1,8,0:0:0:0:
314,24,139452,1,8,0:0:0:0:
190,102,139588,1,8,0:0:0:0:
190,102,139725,6,0,L|106:98,1,70,4|0,0:0|0:0,0:0:0:0:
69,211,139997,1,8,0:0:0:0:
221,253,140134,1,0,0:0:0:0:
131,284,140270,1,0,0:0:0:0:
177,180,140406,1,0,0:0:0:0:
286,187,140543,2,0,P|322:200|370:192,1,70,8|0,0:0|0:0,0:0:0:0:
409,145,140816,6,0,L|439:-5,1,140,0|8,0:0|0:0,0:0:0:0:
494,168,141225,2,0,L|464:318,1,140,0|0,0:0|0:0,0:0:0:0:
394,333,141634,1,8,0:0:0:0:
316,336,141770,1,0,0:0:0:0:
288,264,141906,6,0,P|199:268|133:294,1,140,0|8,0:0|0:0,0:0:0:0:
7,214,142316,2,0,P|76:213|143:193,1,140,0|0,0:0|0:0,0:0:0:0:
182,126,142725,2,0,P|227:86|250:85,1,70,8|0,0:0|0:0,0:0:0:0:
309,68,142997,6,0,P|408:80|427:138,1,140,0|8,0:0|0:0,0:0:0:0:
500,255,143406,2,0,P|401:243|382:185,1,140,0|0,0:0|0:0,0:0:0:0:
243,190,143816,1,8,0:0:0:0:
319,254,143952,1,0,0:0:0:0:
316,137,144088,6,0,L|308:65,1,70,4|0,0:0|0:0,0:0:0:0:
219,21,144361,2,0,L|227:93,1,70,8|0,0:0|0:0,0:0:0:0:
124,84,144634,2,0,P|52:105|53:167,1,140,0|8,0:0|0:0,0:0:0:0:
82,230,145043,1,0,0:0:0:0:
126,292,145179,6,0,P|186:331|259:286,1,140,0|8,0:0|0:0,0:0:0:0:
283,240,145588,2,0,P|346:217|401:255,1,140,0|0,0:0|0:0,0:0:0:0:
461,306,145997,2,0,L|494:244,1,70,8|0,0:0|0:0,0:0:0:0:
483,168,146270,6,0,L|412:39,1,140,0|8,0:0|0:0,0:0:0:0:
317,40,146679,2,0,L|388:169,1,140,0|0,0:0|0:0,0:0:0:0:
262,100,147088,1,8,0:0:0:0:
185,107,147225,1,0,0:0:0:0:
126,56,147361,6,0,P|40:87|21:157,1,140,0|8,0:0|0:0,0:0:0:0:
50,198,147770,2,0,B|51:277|51:277|85:339,1,140,0|0,0:0|0:0,0:0:0:0:
143,285,148179,1,8,0:0:0:0:
219,270,148316,1,0,0:0:0:0:
275,321,148452,6,0,P|326:355|356:348,1,70,4|0,0:0|0:0,0:0:0:0:
394,310,148725,2,0,L|405:222,1,70,8|0,0:0|0:0,0:0:0:0:
477,219,148997,2,0,L|488:131,1,70,0|0,0:0|0:0,0:0:0:0:
431,10,149270,1,8,0:0:0:0:
511,57,149406,1,0,0:0:0:0:
383,80,149543,6,0,L|243:86,1,140,0|8,0:0|0:0,0:0:0:0:
197,166,149952,2,0,L|337:160,1,140,0|0,0:0|0:0,0:0:0:0:
317,234,150361,1,8,0:0:0:0:
285,304,150497,1,0,0:0:0:0:
170,260,150634,6,0,P|100:271|68:213,1,140,0|8,0:0|0:0,0:0:0:0:
0,96,151043,2,0,P|70:85|102:143,1,140,0|0,0:0|0:0,0:0:0:0:
172,91,151452,2,0,L|248:86,1,70,8|0,0:0|0:0,0:0:0:0:
336,43,151725,6,0,P|324:163|343:208,1,140,0|8,0:0|0:0,0:0:0:0:
458,363,152134,2,0,P|470:243|451:198,1,140,0|0,0:0|0:0,0:0:0:0:
388,241,152543,1,8,0:0:0:0:
337,299,152679,1,0,0:0:0:0:
278,348,152816,6,0,L|191:348,1,70,4|0,0:0|0:0,0:0:0:0:
205,270,153088,2,0,L|118:270,1,70,8|0,0:0|0:0,0:0:0:0:
66,234,153361,2,0,P|22:155|51:108,1,140,0|8,0:0|0:0,0:0:0:0:
96,64,153770,1,0,0:0:0:0:
179,94,153906,6,0,L|187:18,2,70,0|0|8,0:0|0:0|0:0,0:0:0:0:
176,166,154316,2,0,P|235:189|312:158,1,140
330,86,154725,2,0,P|352:74|415:79,1,70,8|0,0:0|0:0,0:0:0:0:
444,132,154997,6,0,L|451:218,1,70,0|0,0:0|0:0,0:0:0:0:
372,191,155270,2,0,L|378:279,1,70,8|0,0:0|0:0,0:0:0:0:
289,252,155543,2,0,L|282:342,1,70,0|0,0:0|0:0,0:0:0:0:
210,204,155816,2,0,L|203:290,1,70,8|0,0:0|0:0,0:0:0:0:
126,178,156088,5,8,0:0:0:0:
64,69,156225,1,0,0:0:0:0:
248,120,156361,5,8,0:0:0:0:
146,95,156497,1,0,0:0:0:0:
224,31,156634,5,8,0:0:0:0:
