osu file format v14

[General]
AudioFilename: Undertale Spider Dance (Muffet theme) Dual Mix.mp3
AudioLeadIn: 0
PreviewTime: 32783
Countdown: 0
SampleSet: Normal
StackLeniency: 0.6
Mode: 0
LetterboxInBreaks: 0
WidescreenStoryboard: 0

[Editor]
Bookmarks: 34979,69901,87362,139745
DistanceSpacing: 1.3
BeatDivisor: 2
GridSize: 32
TimelineZoom: 2.2

[Metadata]
Title:Spider Dance Dual Mix
TitleUnicode:Spider Dance Dual Mix
Artist:toby fox
ArtistUnicode:toby fox
Creator:Battle
Version:Hard
Source:UNDERTALE
Tags:boss music video game indie miss muffett theme Sharkie Raiden ferdk
BeatmapID:816367
BeatmapSetID:372723

[Difficulty]
HPDrainRate:5
CircleSize:4
OverallDifficulty:6
ApproachRate:7
SliderMultiplier:1.2
SliderTickRate:1

[Events]
//Background and Video events
0,0,"a.png",0,0
//Break Periods
2,69874,86428
//Storyboard Layer 0 (Background)
//Storyboard Layer 1 (Fail)
//Storyboard Layer 2 (Pass)
//Storyboard Layer 3 (Foreground)
//Storyboard Sound Samples

[TimingPoints]
56,272.727272727273,4,1,2,70,1,0
56,-100,4,1,2,70,0,1
6601,-100,4,2,2,60,0,0
8783,-100,4,1,2,70,0,1
15328,-100,4,2,2,60,0,0
17510,-100,4,1,2,70,0,1
24056,-100,4,2,2,60,0,0
26237,-100,4,1,2,70,0,1
32783,-100,4,2,2,60,0,0
34965,-100,4,1,2,40,0,0
35101,-100,4,2,2,60,0,0
39328,-100,4,1,2,40,0,0
39465,-100,4,2,2,60,0,0
43692,-100,4,1,2,40,0,0
43828,-100,4,2,2,60,0,0
48056,-100,4,1,2,40,0,0
48192,-100,4,2,2,60,0,0
51328,-100,4,2,2,70,0,0
51601,-100,4,2,2,70,0,0
51874,-100,4,2,2,70,0,0
52419,-100,4,1,2,40,0,0
52556,-100,4,2,2,60,0,0
61146,-100,4,1,2,40,0,0
61283,-100,4,2,2,50,0,0
65510,-100,4,1,2,50,0,0
65646,-100,4,2,2,40,0,0
67692,-100,4,2,2,35,0,0
69056,-100,4,2,2,30,0,0
69328,-100,4,2,2,40,0,0
69874,-100,4,2,2,5,0,0
87328,-100,4,1,2,50,0,0
103155,272.727272727273,4,1,2,70,1,0
103700,-100,4,1,2,60,0,0
104816,272.727272727273,4,1,2,70,1,0
104816,-100,4,1,2,70,0,1
111361,-100,4,2,2,60,0,0
113543,-100,4,1,2,70,0,1
120088,-100,4,2,2,60,0,0
122270,-100,4,1,2,70,0,1
128816,-100,4,2,2,60,0,0
130997,-100,4,1,2,70,0,1
137543,-100,4,2,2,60,0,0
139725,-100,4,1,2,40,0,0
139861,-100,4,2,2,60,0,0
144088,-100,4,1,2,40,0,0
144225,-100,4,2,2,60,0,0
148452,-100,4,1,2,40,0,0
148588,-100,4,2,2,60,0,0
152816,-100,4,1,2,55,0,0
152952,-100,4,2,2,50,0,0
153906,-100,4,2,2,45,0,0

[Colours]
Combo1 : 84,33,33
Combo2 : 255,128,192
Combo3 : 190,95,169
Combo4 : 148,148,148

[HitObjects]
66,111,56,6,0,L|152:107,1,60,0|0,0:0|0:0,0:0:0:0:
174,47,328,2,0,L|253:47,1,60,2|0,0:0|0:0,0:0:0:0:
309,66,601,2,0,P|354:63|404:126,1,120,0|2,0:0|0:0,0:0:0:0:
416,190,1010,1,0,0:0:0:0:
373,255,1146,6,0,L|290:257,1,60,0|0,0:0|0:0,0:0:0:0:
258,201,1419,2,0,L|184:197,1,60,2|0,0:0|0:0,0:0:0:0:
180,121,1692,2,0,L|106:117,2,60,0|0|2,0:0|0:0|0:0,0:0:0:0:
228,58,2101,1,0,0:0:0:0:
301,32,2237,6,0,P|335:23|381:27,1,60,0|0,0:0|0:0,0:0:0:0:
429,58,2510,2,0,L|439:141,1,60,2|0,0:0|0:0,0:0:0:0:
491,173,2783,2,0,L|501:256,1,60,0|0,0:0|0:0,0:0:0:0:
463,302,3056,2,0,P|429:318|393:310,1,60,2|0,0:0|0:0,0:0:0:0:
344,270,3328,6,0,P|350:222|351:189,2,60,0|0|2,0:0|0:0|0:0,0:0:0:0:
344,270,3737,2,0,P|261:288|216:262,1,120,0|0,0:0|0:0,0:0:0:0:
162,238,4146,2,0,P|146:195|157:164,1,60,2|0,0:0|0:0,0:0:0:0:
178,110,4419,6,0,L|183:48,1,60,0|0,0:0|0:0,0:0:0:0:
259,65,4692,2,0,L|254:3,1,60,2|0,0:0|0:0,0:0:0:0:
332,121,4965,2,0,L|337:59,1,60,0|0,0:0|0:0,0:0:0:0:
423,86,5237,2,0,L|418:24,1,60,2|0,0:0|0:0,0:0:0:0:
507,102,5510,6,0,L|512:164,1,60,0|0,0:0|0:0,0:0:0:0:
470,228,5783,2,0,L|404:254,1,60,2|0,0:0|0:0,0:0:0:0:
350,205,6056,2,0,P|281:156|237:177,1,120,0|2,0:0|0:0,0:0:0:0:
185,201,6465,1,0,0:0:0:0:
121,245,6601,6,0,P|81:206|99:136,2,120,4|2|0,0:0|0:0|0:0,0:0:0:0:
263,309,7419,1,2,0:0:0:0:
263,309,7692,2,0,L|397:308,1,120,4|2,0:0|0:0,0:0:0:0:
478,185,8237,2,0,L|344:186,1,120,4|0,0:0|0:0,0:0:0:0:
282,164,8646,1,4,0:3:0:0:
222,113,8783,6,0,L|217:26,1,60,0|0,0:0|0:0,0:0:0:0:
143,75,9056,2,0,L|148:-12,1,60,2|0,0:0|0:0,0:0:0:0:
70,134,9328,2,0,L|61:50,1,60,0|0,0:0|0:0,0:0:0:0:
0,167,9601,2,0,L|13:252,1,60,2|0,0:0|0:0,0:0:0:0:
65,280,9874,6,0,L|134:306,1,60,0|0,0:0|0:0,0:0:0:0:
190,264,10146,2,0,P|221:247|256:253,1,60,2|0,0:0|0:0,0:0:0:0:
306,296,10419,2,0,P|335:296|360:280,1,60,0|0,0:0|0:0,0:0:0:0:
418,227,10692,2,0,L|440:143,1,60,2|0,0:0|0:0,0:0:0:0:
446,91,10965,6,0,P|487:81|524:88,2,60,0|0|2,0:0|0:0|0:0,0:0:0:0:
368,105,11374,1,0,0:0:0:0:
368,105,11510,2,0,L|281:113,1,60,0|0,0:0|0:0,0:0:0:0:
265,176,11783,2,0,L|178:184,1,60,2|0,0:0|0:0,0:0:0:0:
127,188,12056,6,0,P|113:229|121:258,2,60,0|0|2,0:0|0:0|0:0,0:0:0:0:
127,188,12465,2,0,P|115:109|146:83,1,120,0|0,0:0|0:0,0:0:0:0:
207,49,12874,2,0,L|272:37,1,60,2|0,0:0|0:0,0:0:0:0:
343,30,13146,6,0,L|340:178,1,120,0|2,0:0|0:0,0:0:0:0:
347,228,13556,1,0,0:0:0:0:
347,228,13692,2,0,P|296:258|229:224,1,120,0|2,0:0|0:0,0:0:0:0:
195,176,14101,1,0,0:0:0:0:
195,176,14237,6,0,L|53:182,1,120,0|2,0:0|0:0,0:0:0:0:
52,105,14646,1,0,0:0:0:0:
52,105,14782,2,0,L|194:99,1,120,0|2,0:0|0:0,0:0:0:0:
233,50,15192,1,0,0:0:0:0:
233,50,15328,6,0,L|353:49,2,120,4|2|0,0:0|0:0|0:0,0:0:0:0:
81,89,16146,1,2,0:0:0:0:
81,89,16419,2,0,P|29:130|23:187,1,120,4|2,0:0|0:0,0:0:0:0:
88,322,16965,2,0,P|140:281|146:224,1,120,4|0,0:0|0:0,0:0:0:0:
175,157,17374,1,4,0:3:0:0:
232,104,17510,6,0,P|268:67|298:63,1,60,0|0,0:0|0:0,0:0:0:0:
351,77,17783,2,0,P|377:91|393:116,1,60,2|0,0:0|0:0,0:0:0:0:
452,166,18056,2,0,L|447:238,1,60,0|0,0:0|0:0,0:0:0:0:
385,266,18328,2,0,L|380:338,1,60,2|0,0:0|0:0,0:0:0:0:
305,346,18601,6,0,P|264:371|228:368,2,60,0|0|2,0:0|0:0|0:0,0:0:0:0:
301,267,19010,1,0,0:0:0:0:
301,189,19146,2,0,L|281:115,1,60,0|0,0:0|0:0,0:0:0:0:
223,83,19419,2,0,L|207:140,1,60,2|0,0:0|0:0,0:0:0:0:
156,200,19692,6,0,P|91:181|81:169,1,60,0|0,0:0|0:0,0:0:0:0:
28,154,19965,2,0,L|5:71,1,60,2|0,0:0|0:0,0:0:0:0:
90,91,20237,2,0,L|113:8,1,60,0|0,0:0|0:0,0:0:0:0:
173,71,20510,2,0,L|206:21,1,60,2|0,0:0|0:0,0:0:0:0:
284,28,20783,6,0,P|331:27|364:42,2,60,0|0|2,0:0|0:0|0:0,0:0:0:0:
284,28,21192,2,0,L|266:155,1,120,0|0,0:0|0:0,0:0:0:0:
292,220,21601,2,0,P|344:249|366:244,1,60,2|0,0:0|0:0,0:0:0:0:
419,251,21874,6,0,P|466:274|482:301,1,60,0|0,0:0|0:0,0:0:0:0:
410,329,22146,2,0,P|451:360|462:390,1,60,2|0,0:0|0:0,0:0:0:0:
332,322,22419,2,0,P|324:373|303:397,1,60,0|0,0:0|0:0,0:0:0:0:
256,335,22692,2,0,P|228:379|200:393,1,60,2|0,0:0|0:0,0:0:0:0:
179,318,22965,6,0,L|109:276,1,60,0|0,0:0|0:0,0:0:0:0:
138,209,23237,2,0,L|68:167,1,60,2|0,0:0|0:0,0:0:0:0:
56,105,23510,2,0,P|113:93|140:33,1,120,0|2,0:0|0:0,0:0:0:0:
214,16,23919,1,0,0:0:0:0:
214,16,24056,6,0,P|292:20|326:52,2,120,4|2|0,0:0|0:0|0:0,0:0:0:0:
197,171,24874,1,2,0:0:0:0:
197,171,25146,2,0,L|206:312,1,120,4|2,0:0|0:0,0:0:0:0:
342,363,25692,2,0,L|349:243,1,120,4|0,0:0|0:0,0:0:0:0:
408,191,26101,1,4,0:3:0:0:
400,112,26237,6,0,P|393:49|379:32,1,60,0|0,0:0|0:0,0:0:0:0:
326,89,26510,2,0,P|280:45|258:41,1,60,2|0,0:0|0:0,0:0:0:0:
254,119,26783,2,0,P|206:89|184:90,1,60,0|0,0:0|0:0,0:0:0:0:
194,167,27056,2,0,P|138:180|124:196,1,60,2|0,0:0|0:0,0:0:0:0:
182,241,27328,6,0,L|184:314,2,60,0|0|2,0:0|0:0|0:0,0:0:0:0:
259,229,27737,1,0,0:0:0:0:
327,269,27874,2,0,P|343:308|366:324,1,60,0|0,0:0|0:0,0:0:0:0:
424,357,28146,2,0,L|498:358,1,60,2|0,0:0|0:0,0:0:0:0:
510,284,28419,6,0,L|509:220,1,60,0|0,0:0|0:0,0:0:0:0:
431,216,28692,2,0,L|432:152,1,60,2|0,0:0|0:0,0:0:0:0:
353,163,28965,2,0,L|352:99,1,60,0|0,0:0|0:0,0:0:0:0:
299,44,29237,2,0,P|256:22|223:23,1,60,2|0,0:0|0:0,0:0:0:0:
171,47,29510,6,0,P|143:16|140:-7,2,60,0|0|2,0:0|0:0|0:0,0:0:0:0:
171,47,29919,2,0,B|190:120|190:120|183:187,1,120,0|0,0:0|0:0,0:0:0:0:
139,227,30328,2,0,P|105:232|72:221,1,60,2|0,0:0|0:0,0:0:0:0:
6,200,30601,6,0,L|6:365,1,120,0|2,0:0|0:0,0:0:0:0:
75,356,31010,1,0,0:0:0:0:
75,356,31146,2,0,B|132:366|132:366|226:351,1,120,0|2,0:0|0:0,0:0:0:0:
256,309,31556,1,0,0:0:0:0:
256,309,31692,6,0,P|310:319|382:265,1,120,0|2,0:0|0:0,0:0:0:0:
403,221,32101,1,0,0:0:0:0:
403,221,32237,2,0,B|410:160|410:160|383:76,1,120,0|2,0:0|0:0,0:0:0:0:
317,68,32646,1,0,0:0:0:0:
317,68,32783,6,0,P|269:55|195:83,2,120,4|2|0,0:0|0:0|0:0,0:0:0:0:
213,185,33601,1,2,0:0:0:0:
213,185,33874,2,0,P|281:203|331:181,1,120,4|2,0:0|0:0,0:0:0:0:
401,49,34419,1,8,0:0:0:0:
465,6,34556,1,8,0:0:0:0:
511,67,34692,1,8,0:0:0:0:
449,115,34828,1,8,0:0:0:0:
449,115,34965,6,0,L|440:203,1,60,4|0,0:0|0:0,0:0:0:0:
426,250,35237,2,0,P|346:279|308:256,1,120,8|0,0:0|0:0,0:0:0:0:
247,235,35646,1,0,0:0:0:0:
200,175,35783,2,0,L|123:196,1,60,8|0,0:0|0:0,0:0:0:0:
66,210,36056,6,0,P|29:142|48:80,1,120,0|8,0:0|0:0,0:0:0:0:
113,98,36465,2,0,P|169:80|203:32,1,120,0|0,0:0|0:0,0:0:0:0:
280,17,36874,2,0,L|361:27,1,60,8|0,0:0|0:0,0:0:0:0:
417,32,37146,6,0,L|406:160,1,120,0|8,0:0|0:0,0:0:0:0:
465,202,37556,2,0,L|454:330,1,120,0|0,0:0|0:0,0:0:0:0:
378,340,37965,2,0,P|318:347|301:341,1,60,8|0,0:0|0:0,0:0:0:0:
292,273,38237,6,0,B|290:197|290:197|266:142,1,120,0|8,0:0|0:0,0:0:0:0:
194,148,38646,2,0,B|196:72|196:72|220:17,1,120,0|0,0:0|0:0,0:0:0:0:
134,31,39056,2,0,L|53:35,1,60,8|0,0:0|0:0,0:0:0:0:
8,77,39328,6,0,P|0:115|7:143,1,60,4|0,0:0|0:0,0:0:0:0:
68,179,39601,2,0,P|96:232|80:310,1,120,8|0,0:0|0:0,0:0:0:0:
45,355,40010,1,0,0:0:0:0:
122,365,40146,2,0,P|164:367|195:346,1,60,8|0,0:0|0:0,0:0:0:0:
219,292,40419,6,0,L|220:145,1,120,0|8,0:0|0:0,0:0:0:0:
292,202,40828,2,0,L|291:349,1,120,0|0,0:0|0:0,0:0:0:0:
366,341,41237,2,0,P|423:359|431:357,1,60,8|0,0:0|0:0,0:0:0:0:
474,302,41510,6,0,B|491:230|491:230|478:180,1,120,0|8,0:0|0:0,0:0:0:0:
411,146,41919,2,0,B|368:85|368:85|323:61,1,120,0|0,0:0|0:0,0:0:0:0:
253,39,42328,2,0,P|200:31|174:44,1,60,8|0,0:0|0:0,0:0:0:0:
139,86,42601,6,0,P|37:104|18:129,1,120,0|8,0:0|0:0,0:0:0:0:
46,188,43010,2,0,P|148:170|167:145,1,120,0|0,0:0|0:0,0:0:0:0:
226,130,43419,2,0,B|266:135|266:135|300:147,1,60,8|0,0:0|0:0,0:0:0:0:
332,203,43692,6,0,L|323:275,1,60,4|0,0:0|0:0,0:0:0:0:
402,268,43965,2,0,L|411:340,1,60,8|0,0:0|0:0,0:0:0:0:
354,382,44237,2,0,L|213:377,1,120,0|8,0:0|0:0,0:0:0:0:
165,337,44646,1,0,0:0:0:0:
91,310,44783,6,0,P|48:267|35:199,1,120,0|8,0:0|0:0,0:0:0:0:
82,149,45192,2,0,P|141:147|191:115,1,120,0|0,0:0|0:0,0:0:0:0:
225,44,45601,2,0,P|263:20|295:22,1,60,8|0,0:0|0:0,0:0:0:0:
354,28,45874,6,0,P|452:70|464:101,1,120,0|8,0:0|0:0,0:0:0:0:
462,154,46283,2,0,L|450:296,1,120,0|0,0:0|0:0,0:0:0:0:
401,333,46692,2,0,P|340:348|330:341,1,60,8|0,0:0|0:0,0:0:0:0:
331,274,46965,6,0,L|344:140,1,120,0|8,0:0|0:0,0:0:0:0:
271,120,47374,2,0,L|259:239,1,120,0|0,0:0|0:0,0:0:0:0:
203,292,47783,2,0,P|157:315|138:313,1,60,8|0,0:0|0:0,0:0:0:0:
103,252,48056,6,0,L|35:206,1,60,4|0,0:0|0:0,0:0:0:0:
116,171,48328,2,0,L|75:99,1,60,8|0,0:0|0:0,0:0:0:0:
154,81,48601,2,0,P|214:88|267:47,1,120,0|8,0:0|0:0,0:0:0:0:
337,38,49010,1,0,0:0:0:0:
399,84,49146,6,0,L|459:85,2,60,0|0|8,0:0|0:0|0:0,0:0:0:0:
399,84,49556,2,0,P|406:153|372:208,1,120,0|0,0:0|0:0,0:0:0:0:
342,263,49965,1,8,0:0:0:0:
266,282,50101,1,0,0:0:0:0:
230,212,50237,6,0,L|218:133,1,60,0|0,0:0|0:0,0:0:0:0:
153,114,50510,2,0,L|143:173,1,60,8|0,0:0|0:0,0:0:0:0:
86,226,50783,2,0,P|22:291|31:320,1,120,0|8,0:0|0:0,0:0:0:0:
98,335,51192,1,0,0:0:0:0:
167,299,51328,6,0,L|280:298,1,90,4|0,0:0|0:0,0:0:0:0:
284,270,51601,6,0,L|397:269,1,90,4|0,0:0|0:0,0:0:0:0:
402,242,51874,6,0,P|425:162|406:116,1,120,4|8,0:0|0:0,0:0:0:0:
360,72,52283,1,0,0:0:0:0:
286,47,52419,6,0,L|210:34,1,60,4|0,0:0|0:0,0:0:0:0:
190,106,52692,2,0,L|114:93,1,60,8|0,0:0|0:0,0:0:0:0:
65,53,52965,2,0,P|19:95|23:154,1,120,0|8,0:0|0:0,0:0:0:0:
58,217,53374,1,0,0:0:0:0:
131,241,53510,6,0,L|120:316,1,60,0|0,0:0|0:0,0:0:0:0:
214,211,53783,2,0,L|203:286,1,60,8|0,0:0|0:0,0:0:0:0:
281,251,54056,2,0,L|292:326,1,60,0|0,0:0|0:0,0:0:0:0:
363,283,54328,2,0,L|374:358,1,60,8|0,0:0|0:0,0:0:0:0:
458,198,54601,6,0,L|472:135,1,60,0|0,0:0|0:0,0:0:0:0:
392,137,54874,2,0,L|391:75,1,60,8|0,0:0|0:0,0:0:0:0:
317,102,55146,2,0,L|310:38,1,60,0|0,0:0|0:0,0:0:0:0:
227,139,55419,2,0,L|238:78,1,60,8|0,0:0|0:0,0:0:0:0:
166,48,55692,6,0,P|103:35|93:40,1,60,0|0,0:0|0:0,0:0:0:0:
92,108,55965,2,0,P|30:126|23:135,1,60,8|0,0:0|0:0,0:0:0:0:
63,193,56237,2,0,P|9:229|6:239,1,60,0|0,0:0|0:0,0:0:0:0:
66,279,56510,2,0,P|50:341|55:351,1,60,8|0,0:0|0:0,0:0:0:0:
125,347,56783,6,0,L|207:353,3,60,0|0|8|0,0:0|0:0|0:0|0:0,0:0:0:0:
233,289,57328,2,0,L|315:295,3,60,0|0|8|0,0:0|0:0|0:0|0:0,0:0:0:0:
358,250,57874,5,0,0:0:0:0:
406,189,58010,1,0,0:0:0:0:
390,112,58146,2,0,P|379:51|363:38,1,60,8|0,0:0|0:0,0:0:0:0:
305,70,58419,2,0,P|266:21|246:17,1,60,0|0,0:0|0:0,0:0:0:0:
216,79,58692,2,0,P|161:49|141:53,1,60,8|0,0:0|0:0,0:0:0:0:
102,94,58965,5,0,0:0:0:0:
76,167,59101,1,0,0:0:0:0:
93,242,59237,2,0,P|46:312|58:339,2,120,8|0|8,0:0|0:0|0:0,0:0:0:0:
154,193,59919,1,0,0:0:0:0:
212,244,60056,6,0,L|276:241,1,60,0|0,0:0|0:0,0:0:0:0:
305,310,60328,2,0,L|369:307,1,60,8|0,0:0|0:0,0:0:0:0:
432,268,60601,2,0,P|462:206|459:192,1,60,0|0,0:0|0:0,0:0:0:0:
394,178,60874,2,0,P|381:110|371:100,1,60,8|0,0:0|0:0,0:0:0:0:
327,71,61146,6,0,L|179:70,1,120,4|8,0:0|0:0,0:0:0:0:
84,167,61692,2,0,L|203:166,1,120,0|8,0:0|0:0,0:0:0:0:
275,199,62101,1,0,0:0:0:0:
335,248,62237,6,0,L|346:318,1,60,0|0,0:0|0:0,0:0:0:0:
271,337,62510,1,8,0:0:0:0:
271,337,62646,2,0,P|173:348|151:335,1,120,0|0,0:0|0:0,0:0:0:0:
96,291,63056,1,8,0:0:0:0:
106,213,63192,1,0,0:0:0:0:
142,144,63328,6,0,P|239:152|260:137,1,120,0|8,0:0|0:0,0:0:0:0:
307,85,63737,2,0,P|362:65|418:83,1,120,0|0,0:0|0:0,0:0:0:0:
472,141,64146,1,8,0:0:0:0:
469,218,64283,1,0,0:0:0:0:
430,285,64419,6,0,L|291:292,1,120,0|8,0:0|0:0,0:0:0:0:
271,222,64828,2,0,L|132:229,1,120,0|0,0:0|0:0,0:0:0:0:
72,225,65237,2,0,P|49:197|43:171,1,60,8|0,0:0|0:0,0:0:0:0:
82,106,65510,6,0,L|116:44,1,60,4|0,0:0|0:0,0:0:0:0:
186,73,65783,2,0,P|239:93|312:76,1,120,8|0,0:0|0:0,0:0:0:0:
369,46,66192,1,0,0:0:0:0:
440,76,66328,2,0,L|459:149,1,60,8|0,0:0|0:0,0:0:0:0:
390,177,66601,6,0,L|371:104,2,60,0|0|8,0:0|0:0|0:0,0:0:0:0:
390,177,67010,2,0,P|361:252|318:258,1,120,0|0,0:0|0:0,0:0:0:0:
250,265,67419,2,0,L|241:336,1,60,8|0,0:0|0:0,0:0:0:0:
167,344,67692,6,0,L|156:278,1,60,0|0,0:0|0:0,0:0:0:0:
78,284,67965,2,0,L|89:218,1,60,8|0,0:0|0:0,0:0:0:0:
104,148,68237,1,0,0:0:0:0:
150,84,68374,1,0,0:0:0:0:
227,86,68510,2,0,P|303:88|310:85,1,60,8|0,0:0|0:0,0:0:0:0:
361,71,68783,6,0,P|415:93|438:148,2,120,4|4|4,0:0|0:0|0:0,0:0:0:0:
418,326,87328,6,0,L|341:320,1,60,0|0,0:0|0:0,0:0:0:0:
335,246,87601,2,0,L|258:240,1,60,2|0,0:0|0:0,0:0:0:0:
221,184,87874,1,0,0:0:0:0:
230,106,88010,1,0,0:0:0:0:
160,70,88146,2,0,P|130:68|101:76,1,60,2|0,0:0|0:0,0:0:0:0:
50,136,88419,6,0,L|42:202,1,60,0|0,0:0|0:0,0:0:0:0:
120,205,88692,2,0,L|128:271,1,60,2|0,0:0|0:0,0:0:0:0:
194,305,88965,2,0,P|256:330|271:325,1,60,0|0,0:0|0:0,0:0:0:0:
303,278,89237,1,2,0:0:0:0:
372,242,89374,1,0,0:0:0:0:
450,247,89510,6,0,P|472:199|469:180,1,60,0|0,0:0|0:0,0:0:0:0:
404,154,89783,2,0,P|393:102|379:88,1,60,2|0,0:0|0:0,0:0:0:0:
335,42,90056,2,0,L|203:46,1,120,0|2,0:0|0:0,0:0:0:0:
193,120,90465,2,0,L|325:116,1,120,0|0,0:0|0:0,0:0:0:0:
339,190,90874,5,2,0:0:0:0:
315,265,91010,1,0,0:0:0:0:
260,320,91146,2,0,L|188:325,1,60,0|0,0:0|0:0,0:0:0:0:
159,258,91419,2,0,L|87:263,1,60,0|0,0:0|0:0,0:0:0:0:
33,218,91692,6,0,P|23:168|33:136,1,60,0|0,0:0|0:0,0:0:0:0:
86,112,91965,2,0,L|91:36,1,60,2|0,0:0|0:0,0:0:0:0:
171,162,92237,2,0,L|166:86,1,60,0|0,0:0|0:0,0:0:0:0:
245,106,92510,2,0,L|250:30,1,60,2|0,0:0|0:0,0:0:0:0:
324,26,92783,6,0,P|378:18|405:29,1,60,0|0,0:0|0:0,0:0:0:0:
449,58,93056,2,0,L|457:127,1,60,2|0,0:0|0:0,0:0:0:0:
435,192,93328,2,0,L|447:278,1,60
374,289,93601,2,0,L|362:203,1,60,2|0,0:0|0:0,0:0:0:0:
312,172,93874,6,0,P|217:148|195:167,2,120,0|2|0,0:0|0:0|0:0,0:0:0:0:
294,248,94556,1,0,0:0:0:0:
264,320,94692,2,0,L|186:317,1,60,2|0,0:0|0:0,0:0:0:0:
125,316,94965,6,0,P|66:288|53:223,1,120,0|2,0:0|0:0,0:0:0:0:
69,163,95374,1,0,0:0:0:0:
146,164,95510,2,0,L|149:95,1,60
194,40,95783,1,2,0:0:0:0:
264,73,95919,1,0,0:0:0:0:
336,42,96056,6,0,P|417:53|436:94,1,120,0|2,0:0|0:0,0:0:0:0:
445,157,96465,1,0,0:0:0:0:
444,234,96601,2,0,L|371:229,1,60
358,304,96874,2,0,L|285:299,1,60,2|0,0:0|0:0,0:0:0:0:
236,251,97147,6,0,P|243:168|213:133,1,120,0|2,0:0|0:0,0:0:0:0:
166,88,97556,1,0,0:0:0:0:
102,48,97692,2,0,L|20:41,1,60,0|0,0:0|0:0,0:0:0:0:
11,114,97965,2,0,L|93:121,1,60,2|0,0:0|0:0,0:0:0:0:
107,188,98238,5,0,0:0:0:0:
102,263,98374,1,0,0:0:0:0:
148,326,98510,2,0,P|195:343|216:334,1,60,2|0,0:0|0:0,0:0:0:0:
266,296,98783,2,0,P|313:279|334:288,1,60,0|0,0:0|0:0,0:0:0:0:
395,303,99056,2,0,L|417:227,1,60,2|0,0:0|0:0,0:0:0:0:
447,177,99328,6,0,P|446:99|419:74,1,120,0|2,0:0|0:0,0:0:0:0:
341,57,99738,1,0,0:0:0:0:
297,121,99874,2,0,L|211:129,1,60,0|0,0:0|0:0,0:0:0:0:
215,201,100147,2,0,L|129:209,1,60,0|0,0:0|0:0,0:0:0:0:
80,231,100419,6,0,B|53:169|53:169|71:99,1,120,0|2,0:0|0:0,0:0:0:0:
100,47,100828,1,0,0:0:0:0:
149,107,100965,2,0,L|218:96,1,60
193,20,101238,2,0,L|262:9,1,60,2|0,0:0|0:0,0:0:0:0:
327,28,101510,6,0,P|394:82|388:122,1,120,0|2,0:0|0:0,0:0:0:0:
366,181,101919,1,0,0:0:0:0:
300,223,102056,2,0,L|300:308,1,60,0|0,0:0|0:0,0:0:0:0:
228,313,102328,2,0,L|228:228,1,60,2|0,0:0|0:0,0:0:0:0:
178,192,102601,6,0,L|42:183,1,120,2|2,0:0|0:1,0:0:0:0:
2,32,103155,2,0,L|84:20,1,60,4|4,0:2|0:2,0:0:0:0:
211,67,103564,2,0,L|293:55,1,60,0|4,0:0|0:0,0:0:0:0:
256,192,103768,12,0,104816,0:0:0:0:
128,142,105361,5,0,0:0:0:0:
191,96,105497,1,0,0:0:0:0:
268,88,105634,2,0,P|306:110|339:109,1,60,2|0,0:0|0:0,0:0:0:0:
399,115,105906,6,0,P|430:141|446:182,1,60,0|0,0:0|0:0,0:0:0:0:
442,235,106179,2,0,L|436:315,1,60,2|0,0:0|0:0,0:0:0:0:
368,330,106452,2,0,L|363:270,1,60,0|0,0:0|0:0,0:0:0:0:
306,216,106725,2,0,P|258:190|229:197,1,60,2|0,0:0|0:0,0:0:0:0:
179,210,106997,6,0,P|118:216|100:202,2,60,0|0|2,0:0|0:0|0:0,0:0:0:0:
180,131,107406,1,0,0:0:0:0:
239,80,107543,2,0,L|305:68,1,60,0|0,0:0|0:0,0:0:0:0:
348,129,107816,2,0,L|407:118,1,60,2|0,0:0|0:0,0:0:0:0:
481,95,108088,6,0,P|498:144|491:179,2,60,0|0|2,0:0|0:0|0:0,0:0:0:0:
481,95,108497,2,0,P|459:37|396:25,1,120,0|0,0:0|0:0,0:0:0:0:
334,52,108906,1,2,0:0:0:0:
257,68,109043,1,0,0:0:0:0:
188,32,109179,6,0,P|130:17|46:34,1,120,0|2,0:0|0:0,0:0:0:0:
20,83,109588,1,0,0:0:0:0:
20,83,109725,2,0,P|11:148|38:201,1,120,0|2,0:0|0:0,0:0:0:0:
108,216,110134,1,0,0:0:0:0:
108,216,110270,6,0,L|244:215,1,120,0|2,0:0|0:0,0:0:0:0:
302,241,110679,1,0,0:0:0:0:
302,241,110816,2,0,P|355:202|351:136,1,120,0|2,0:0|0:0,0:0:0:0:
324,81,111225,1,0,0:0:0:0:
394,47,111361,6,0,L|518:70,2,120,4|2|0,0:0|0:0|0:0,0:0:0:0:
302,173,112179,1,2,0:0:0:0:
302,173,112452,2,0,P|222:185|180:166,1,120,4|2,0:0|0:0,0:0:0:0:
65,73,112997,2,0,L|31:196,1,120,4|0,0:0|0:0,0:0:0:0:
17,265,113406,1,4,0:3:0:0:
84,303,113543,6,0,L|162:309,1,60,0|0,0:0|0:0,0:0:0:0:
192,246,113816,2,0,L|270:252,1,60,2|0,0:0|0:0,0:0:0:0:
329,259,114088,2,0,L|349:181,1,60,0|0,0:0|0:0,0:0:0:0:
421,212,114361,2,0,L|441:134,1,60,2|0,0:0|0:0,0:0:0:0:
450,76,114634,6,0,P|379:74|365:68,1,60,0|0,0:0|0:0,0:0:0:0:
333,25,114906,2,0,P|262:27|248:33,1,60,2|0,0:0|0:0,0:0:0:0:
220,80,115179,2,0,L|149:33,1,60,0|0,0:0|0:0,0:0:0:0:
104,90,115452,2,0,L|175:137,1,60,2|0,0:0|0:0,0:0:0:0:
164,200,115725,6,0,P|156:243|165:273,1,60,0|0,0:0|0:0,0:0:0:0:
236,269,115997,2,0,P|243:312|263:336,1,60,2|0,0:0|0:0,0:0:0:0:
313,276,116270,2,0,P|335:313|362:329,1,60,0|0,0:0|0:0,0:0:0:0:
389,256,116543,2,0,P|425:279|457:282,1,60,2|0,0:0|0:0,0:0:0:0:
452,204,116816,6,0,L|529:203,2,60,0|0|2,0:0|0:0|0:0,0:0:0:0:
452,204,117225,2,0,P|450:120|406:93,1,120,0|0,0:0|0:0,0:0:0:0:
349,121,117634,2,0,P|298:121|279:109,1,60,2|0,0:0|0:0,0:0:0:0:
223,78,117906,6,0,P|166:66|150:72,1,60,0|0,0:0|0:0,0:0:0:0:
175,143,118179,2,0,P|127:177|121:193,1,60,2|0,0:0|0:0,0:0:0:0:
73,233,118452,2,0,L|73:304,1,60,0|0,0:0|0:0,0:0:0:0:
141,331,118725,2,0,L|148:264,1,60,2|0,0:0|0:0,0:0:0:0:
220,244,118997,6,0,L|230:319,1,60,0|0,0:0|0:0,0:0:0:0:
285,356,119270,2,0,L|359:356,1,60,2|0,0:0|0:0,0:0:0:0:
380,286,119543,2,0,L|307:282,1,60,0|0,0:0|0:0,0:0:0:0:
289,210,119816,2,0,L|362:206,1,60,2|0,0:0|0:0,0:0:0:0:
418,171,120088,6,0,L|432:46,2,120,4|2|0,0:0|0:0|0:0,0:0:0:0:
344,308,120906,1,2,0:0:0:0:
344,308,121179,2,0,L|214:310,1,120,4|2,0:0|0:0,0:0:0:0:
88,230,121725,2,0,L|207:228,1,120,4|0,0:0|0:0,0:0:0:0:
284,213,122134,1,4,0:3:0:0:
308,139,122270,6,0,P|324:71|320:60,1,60,0|0,0:0|0:0,0:0:0:0:
262,38,122543,2,0,L|186:26,1,60,2|0,0:0|0:0,0:0:0:0:
169,99,122816,2,0,L|93:87,1,60,0|0,0:0|0:0,0:0:0:0:
42,128,123088,2,0,P|17:175|24:197,1,60,2|0,0:0|0:0,0:0:0:0:
42,253,123361,5,0,0:0:0:0:
110,289,123497,1,0,0:0:0:0:
173,240,123634,2,0,L|258:242,1,60,2|0,0:0|0:0,0:0:0:0:
271,309,123906,2,0,L|356:311,1,60,0|0,0:0|0:0,0:0:0:0:
405,286,124179,2,0,P|414:235|401:214,1,60,2|0,0:0|0:0,0:0:0:0:
388,155,124452,6,0,L|475:146,2,60,0|0|2,0:0|0:0|0:0,0:0:0:0:
322,111,124861,1,0,0:0:0:0:
260,63,124997,2,0,P|231:47|186:51,1,60,0|0,0:0|0:0,0:0:0:0:
148,100,125270,2,0,P|119:116|74:112,1,60,2|0,0:0|0:0,0:0:0:0:
20,86,125543,6,0,L|9:21,2,60,0|0|2,0:0|0:0|0:0,0:0:0:0:
13,164,125952,2,0,P|-2:223|22:297,1,120,0|0,0:0|0:0,0:0:0:0:
73,327,126361,2,0,L|137:324,1,60,2|0,0:0|0:0,0:0:0:0:
194,275,126634,6,0,P|196:229|183:207,1,60,0|0,0:0|0:0,0:0:0:0:
268,212,126906,2,0,P|253:168|233:152,1,60,2|0,0:0|0:0,0:0:0:0:
292,98,127179,2,0,P|249:81|224:86,1,60,0|0,0:0|0:0,0:0:0:0:
225,5,127452,2,0,P|182:23|168:44,1,60,2|0,0:0|0:0,0:0:0:0:
115,84,127725,6,0,L|45:80,1,60,0|0,0:0|0:0,0:0:0:0:
39,157,127997,2,0,L|109:153,1,60,2|0,0:0|0:0,0:0:0:0:
115,230,128270,2,0,L|45:226,1,60,0|0,0:0|0:0,0:0:0:0:
72,302,128543,2,0,L|142:298,1,60,2|0,0:0|0:0,0:0:0:0:
209,286,128816,6,0,P|270:278|314:331,2,120,4|2|0,0:0|0:0|0:0,0:0:0:0:
453,254,129634,2,0,L|450:128,1,120,2|4,0:0|0:0,0:0:0:0:
359,5,130179,2,0,L|356:124,1,120,2|4,0:0|0:0,0:0:0:0:
312,190,130588,1,0,0:0:0:0:
234,184,130725,2,0,P|187:188|161:177,1,60,0|4,0:0|0:3,0:0:0:0:
148,110,130997,6,0,L|136:43,1,60,0|0,0:0|0:0,0:0:0:0:
60,164,131270,2,0,L|68:96,1,60,2|0,0:0|0:0,0:0:0:0:
10,255,131543,2,0,L|-2:322,1,60,0|0,0:0|0:0,0:0:0:0:
76,299,131816,2,0,L|88:366,1,60,2|0,0:0|0:0,0:0:0:0:
158,317,132088,5,0,0:0:0:0:
235,312,132225,1,0,0:0:0:0:
297,357,132361,2,0,L|378:359,1,60,2|0,0:0|0:0,0:0:0:0:
358,280,132634,2,0,L|439:282,1,60,0|0,0:0|0:0,0:0:0:0:
470,223,132906,2,0,P|479:158|472:147,1,60,2|0,0:0|0:0,0:0:0:0:
442,99,133179,6,0,L|428:30,1,60,0|0,0:0|0:0,0:0:0:0:
356,155,133452,2,0,L|370:86,1,60,2|0,0:0|0:0,0:0:0:0:
290,94,133725,2,0,L|276:25,1,60,0|0,0:0|0:0,0:0:0:0:
200,22,133997,2,0,L|214:91,1,60,2|0,0:0|0:0,0:0:0:0:
203,158,134270,6,0,P|160:142|140:106,2,60,0|0|2,0:0|0:0|0:0,0:0:0:0:
203,158,134679,2,0,B|226:224|226:224|216:289,1,120,0|0,0:0|0:0,0:0:0:0:
174,338,135088,2,0,P|206:364|246:367,1,60,2|0,0:0|0:0,0:0:0:0:
298,346,135361,6,0,L|432:322,1,120,0|2,0:0|0:0,0:0:0:0:
444,251,135770,1,0,0:0:0:0:
444,251,135906,2,0,P|446:156|421:130,1,120,0|2,0:0|0:0,0:0:0:0:
376,87,136316,1,0,0:0:0:0:
376,87,136452,6,0,B|295:66|295:66|232:82,1,120,0|2,0:0|0:0,0:0:0:0:
198,123,136861,1,0,0:0:0:0:
198,123,136997,2,0,L|196:270,1,120,0|2,0:0|0:0,0:0:0:0:
154,307,137406,1,0,0:0:0:0:
154,307,137543,6,0,P|219:319|262:283,2,120,4|2|0,0:0|0:0|0:0,0:0:0:0:
49,190,138361,1,2,0:0:0:0:
49,190,138634,2,0,L|50:67,1,120,4|2,0:0|0:0,0:0:0:0:
131,27,139179,2,0,L|192:29,1,60,8|8,0:0|0:0,0:0:0:0:
241,88,139452,1,8,0:0:0:0:
318,96,139588,1,8,0:0:0:0:
372,39,139725,6,0,P|424:56|449:122,1,120,4|8,0:0|0:0,0:0:0:0:
437,189,140134,1,0,0:0:0:0:
409,261,140270,2,0,L|332:259,1,60,0|0,0:0|0:0,0:0:0:0:
315,330,140543,2,0,L|238:328,1,60,8|0,0:0|0:0,0:0:0:0:
188,287,140816,6,0,L|76:190,1,120,0|8,0:0|0:0,0:0:0:0:
124,135,141225,2,0,L|236:232,1,120,0|0,0:0|0:0,0:0:0:0:
284,177,141634,2,0,P|345:152|351:143,1,60,8|0,0:0|0:0,0:0:0:0:
359,82,141906,6,0,P|401:32|465:43,1,120,0|8,0:0|0:0,0:0:0:0:
482,106,142316,2,0,L|497:250,1,120,0|0,0:0|0:0,0:0:0:0:
448,288,142725,2,0,L|375:292,1,60,8|0,0:0|0:0,0:0:0:0:
335,232,142997,6,0,B|260:211|260:211|203:226,1,120,0|8,0:0|0:0,0:0:0:0:
168,281,143406,2,0,P|87:314|48:283,1,120,0|0,0:0|0:0,0:0:0:0:
19,238,143816,2,0,P|8:181|16:163,1,60,8|0,0:0|0:0,0:0:0:0:
57,120,144088,6,0,L|126:85,1,60,4|0,0:0|0:0,0:0:0:0:
175,136,144361,2,0,L|228:108,1,60,8|0,0:0|0:0,0:0:0:0:
287,56,144634,2,0,P|346:90|395:72,1,120,0|8,0:0|0:0,0:0:0:0:
461,39,145043,1,0,0:0:0:0:
484,113,145179,6,0,L|486:257,1,120,0|8,0:0|0:0,0:0:0:0:
412,261,145588,2,0,L|410:117,1,120,0|0,0:0|0:0,0:0:0:0:
346,95,145997,2,0,P|292:92|267:101,1,60,8|0,0:0|0:0,0:0:0:0:
223,139,146270,6,0,L|111:72,1,120,0|8,0:0|0:0,0:0:0:0:
59,128,146679,2,0,L|171:195,1,120,0|0,0:0|0:0,0:0:0:0:
230,227,147088,2,0,P|219:274|207:291,1,60,8|0,0:0|0:0,0:0:0:0:
142,317,147361,6,0,L|283:350,1,120,0|8,0:0|0:0,0:0:0:0:
332,318,147770,2,0,P|423:311|450:271,1,120,0|0,0:0|0:0,0:0:0:0:
465,220,148179,2,0,P|451:166|430:154,1,60,8|0,0:0|0:0,0:0:0:0:
379,130,148452,6,0,L|375:52,1,60,4|0,0:0|0:0,0:0:0:0:
297,75,148725,2,0,L|300:15,1,60,8|0,0:0|0:0,0:0:0:0:
221,17,148997,2,0,P|129:19|111:37,1,120,0|8,0:0|0:0,0:0:0:0:
84,107,149406,1,0,0:0:0:0:
130,169,149543,6,0,L|20:235,1,120,0|8,0:0|0:0,0:0:0:0:
42,307,149952,2,0,L|152:241,1,120,0|0,0:0|0:0,0:0:0:0:
208,199,150361,2,0,P|251:202|268:217,1,60,8|0,0:0|0:0,0:0:0:0:
299,282,150634,6,0,P|361:318|409:297,1,120,0|8,0:0|0:0,0:0:0:0:
456,246,151043,2,0,P|453:174|410:144,1,120,0|0,0:0|0:0,0:0:0:0:
356,100,151452,2,0,L|291:81,1,60,8|0,0:0|0:0,0:0:0:0:
232,40,151725,6,0,P|181:45|183:124,1,120,0|8,0:0|0:0,0:0:0:0:
214,166,152134,2,0,P|204:221|148:230,1,120,0|0,0:0|0:0,0:0:0:0:
74,203,152543,2,0,L|40:270,1,60,8|0,0:0|0:0,0:0:0:0:
90,320,152816,6,0,L|161:354,1,60,4|0,0:0|0:0,0:0:0:0:
219,324,153088,2,0,P|291:331|339:311,1,120,8|0,0:0|0:0,0:0:0:0:
370,244,153497,1,0,0:0:0:0:
370,165,153634,2,0,P|361:126|338:101,1,60,8|0,0:0|0:0,0:0:0:0:
279,75,153906,6,0,L|285:5,2,60,0|0|8,0:0|0:0|0:0,0:0:0:0:
279,75,154316,2,0,P|179:75|160:47,1,120,0|0,0:0|0:0,0:0:0:0:
103,30,154725,2,0,P|73:37|54:66,1,60,8|0,0:0|0:0,0:0:0:0:
43,136,154997,6,0,L|36:210,1,60,0|0,0:0|0:0,0:0:0:0:
115,200,155270,2,0,L|122:274,1,60,8|0,0:0|0:0,0:0:0:0:
211,178,155543,2,0,L|204:252,1,60,0|0,0:0|0:0,0:0:0:0:
283,131,155816,2,0,L|290:205,1,60,8|0,0:0|0:0,0:0:0:0:
338,251,156088,5,8,0:0:0:0:
408,284,156225,1,0,0:0:0:0:
480,256,156361,2,0,P|482:218|472:183,1,60,8|0,0:0|0:0,0:0:0:0:
441,126,156634,1,8,0:0:0:0:
