osu file format v14

[General]
AudioFilename: audio.mp3
AudioLeadIn: 0
PreviewTime: 31382
Countdown: 1
SampleSet: Soft
StackLeniency: 0.7
Mode: 0
LetterboxInBreaks: 0
WidescreenStoryboard: 1

[Editor]
DistanceSpacing: 1.2
BeatDivisor: 4
GridSize: 4
TimelineZoom: 1

[Metadata]
Title:Spider Dance
TitleUnicode:Spider Dance
Artist:toby fox
ArtistUnicode:toby fox
Creator:cheesiest
Version:Light Insane
Source:UNDERTALE
Tags:-kevincela-
BeatmapID:923537
BeatmapSetID:427841

[Difficulty]
HPDrainRate:5
CircleSize:4
OverallDifficulty:7
ApproachRate:8.5
SliderMultiplier:1.44
SliderTickRate:1

[Events]
//Background and Video events
0,0,"spiderdance.jpg",0,0
//Break Periods
//Storyboard Layer 0 (Background)
//Storyboard Layer 1 (Fail)
//Storyboard Layer 2 (Pass)
//Storyboard Layer 3 (Foreground)
//Storyboard Sound Samples

[TimingPoints]
78,260.869565217391,4,2,0,70,1,0
6338,-133.333333333333,4,2,0,70,0,0
8295,-100,4,2,0,70,0,0
14686,-133.333333333333,4,2,0,70,0,0
16643,-100,4,2,0,70,0,0
23034,-133.333333333333,4,2,0,70,0,0
24991,-100,4,2,0,70,0,0
31382,-133.333333333333,4,2,0,70,0,0
32947,-100,4,2,0,70,0,0
33469,-100,4,2,0,85,0,1
50164,-100,4,2,0,70,0,0
65295,-97.5609756097561,4,2,0,70,0,0
65817,-94.7867298578199,4,2,0,70,0,0
66860,-95.6937799043062,4,2,0,40,0,0
69860,-192.307692307692,4,2,0,40,0,0
71034,-95.6937799043062,4,2,0,40,0,0
74164,-192.307692307692,4,2,0,40,0,0
79382,-196.078431372549,4,2,0,40,0,0
83556,-100,4,2,0,70,0,0

[Colours]
Combo1 : 180,50,143
Combo2 : 171,22,171
Combo3 : 230,81,226
Combo4 : 111,19,104

[HitObjects]
19,250,78,6,0,P|51:297|132:300,1,144,0|0,1:0|1:0,0:0:0:0:
204,251,469,1,0,0:0:0:0:
282,289,599,2,0,L|294:374,1,72,0|0,1:0|0:0,0:0:0:0:
375,383,860,2,0,L|354:240,1,144,0|0,1:0|0:0,0:0:0:0:
276,203,1251,1,0,1:0:0:0:
348,155,1382,2,0,L|337:83,1,72,0|0,1:0|0:0,0:0:0:0:
251,70,1643,2,0,L|220:135,2,72,0|0|0,1:0|1:0|1:0,0:0:0:0:
306,3,2034,2,0,P|338:50|419:53,1,144,0|0,1:0|1:0,0:0:0:0:
487,106,2425,6,0,L|481:192,1,72,0|0,1:0|0:0,0:0:0:0:
404,216,2686,2,0,L|344:176,1,72,0|0,1:0|0:0,0:0:0:0:
265,214,2947,2,0,L|259:300,1,72,0|0,1:0|0:0,0:0:0:0:
253,372,3208,1,0,1:0:0:0:
182,324,3338,1,0,1:0:0:0:
95,317,3469,1,0,1:0:0:0:
17,352,3599,2,0,B|37:306|22:286|6:265|27:212,1,144,2|0,1:2|0:0,0:0:0:0:
108,176,3991,2,0,P|117:141|113:105,1,72,2|0,0:0|0:0,0:0:0:0:
43,54,4251,6,0,L|187:58,1,144,2|0,1:2|0:0,0:0:0:0:
333,147,4773,2,0,L|189:143,1,144,2|0,1:2|0:0,0:0:0:0:
335,232,5295,2,0,L|479:236,1,144,2|0,1:2|0:0,0:0:0:0:
329,317,5817,2,0,L|185:313,1,144,2|0,1:2|0:0,0:0:0:0:
39,224,6338,6,0,P|39:158|61:117,2,108.000004119873,2|0|2,1:2|0:0|1:2,0:0:0:0:
87,310,7121,1,0,0:0:0:0:
185,313,7382,2,0,P|234:291|268:250,1,108.000004119873,2|0,1:2|0:0,0:0:0:0:
292,153,7904,2,0,P|320:198|365:226,1,108.000004119873,2|2,1:2|0:0,0:0:0:0:
451,234,8295,1,0,0:0:0:0:
500,162,8425,6,0,P|501:92|460:34,1,144,6|2,1:2|1:2,0:0:0:0:
380,0,8817,1,0,0:0:0:0:
310,50,8947,2,0,L|242:26,1,72,2|0,1:2|0:0,0:0:0:0:
182,88,9208,2,0,L|317:135,1,144,2|0,1:2|0:0,0:0:0:0:
396,172,9599,1,2,1:2:0:0:
396,172,9730,2,0,L|372:240,1,72,2|0,1:2|0:0,0:0:0:0:
417,314,9991,2,0,P|362:269|291:271,1,144,2|0,1:2|1:0,0:0:0:0:
209,301,10382,2,0,P|148:267|121:201,1,144,2|2,1:2|1:2,0:0:0:0:
165,126,10773,6,0,P|176:92|176:56,1,72,0|0,1:0|0:0,0:0:0:0:
56,19,11034,2,0,P|56:54|68:88,1,72,2|0,1:2|0:0,0:0:0:0:
37,210,11295,2,0,L|43:287,1,72,2|0,1:2|0:0,0:0:0:0:
50,368,11556,1,2,1:2:0:0:
122,319,11686,1,0,1:0:0:0:
209,312,11817,1,0,1:0:0:0:
287,347,11947,2,0,B|261:277|301:277|275:205,1,144,2|0,1:2|0:0,0:0:0:0:
346,154,12338,2,0,L|341:118,2,36,2|0|2,0:0|0:0|0:0,0:0:0:0:
402,221,12599,6,0,P|335:241|275:205,1,144,2|2,1:2|1:2,0:0:0:0:
302,21,13121,2,0,B|330:42|336:83|336:83|346:154,1,144,2|2,1:2|1:2,0:0:0:0:
222,277,13643,2,0,B|194:256|188:215|188:215|178:144,1,144,2|2,1:2|1:2,0:0:0:0:
308,284,14164,2,0,P|274:345|206:362,1,144,2|2,1:2|1:2,0:0:0:0:
98,230,14686,6,0,B|83:123,1,108.000004119873,6|0,1:2|0:0,0:0:0:0:
54,30,15208,1,2,1:2:0:0:
149,51,15469,1,0,1:0:0:0:
243,71,15730,2,0,P|297:71|342:43,1,108.000004119873,2|0,1:2|0:0,0:0:0:0:
437,69,16251,2,0,P|465:114|465:167,1,108.000004119873,2|0,1:2|0:0,0:0:0:0:
420,243,16643,1,0,0:0:0:0:
346,199,16773,6,0,P|275:205|229:257,1,144,0|0,1:2|1:2,0:0:0:0:
220,344,17164,1,0,0:0:0:0:
150,293,17295,2,0,L|78:284,1,72,0|0,1:2|0:0,0:0:0:0:
0,321,17556,2,0,P|50:272|48:202,1,144,0|0,1:2|0:0,0:0:0:0:
18,120,17947,1,0,1:0:0:0:
104,135,18078,2,0,L|176:144,1,72,0|0,1:0|0:0,0:0:0:0:
257,113,18338,2,0,L|300:56,2,72,0|0|0,1:0|1:0|1:0,0:0:0:0:
242,200,18730,2,0,B|223:224|192:234|161:231|161:231|90:222,1,144,0|0,1:2|1:0,0:0:0:0:
110,313,19121,6,0,B|185:322,1,72,0|0,1:0|0:0,0:0:0:0:
269,333,19382,2,0,L|312:276,1,72,0|0,1:0|0:0,0:0:0:0:
365,206,19643,2,0,L|337:140,1,72,0|0,1:0|0:0,0:0:0:0:
303,59,19904,1,0,1:0:0:0:
252,129,20034,1,0,1:0:0:0:
172,164,20164,1,0,1:0:0:0:
121,233,20295,2,0,P|139:165|113:99,1,144,0|0,1:0|0:0,0:0:0:0:
55,35,20686,2,0,L|123:12,1,72,2|0,1:2|0:0,0:0:0:0:
193,65,20947,6,0,P|263:74|321:31,1,144,2|0,1:2|0:0,0:0:0:0:
468,121,21469,2,0,P|403:146|338:118,1,144,2|0,1:2|0:0,0:0:0:0:
169,156,21991,2,0,P|224:199|294:192,1,144,2|0,1:2|0:0,0:0:0:0:
380,341,22512,2,0,P|310:331|268:275,1,144,2|0,1:2|0:0,0:0:0:0:
103,223,23034,6,0,P|76:160|83:116,2,108.000004119873,2|0|2,1:2|0:0|1:2,0:0:0:0:
173,291,23817,1,0,0:0:0:0:
269,275,24077,2,0,P|327:238|345:198,1,108.000004119873,2|0,1:2|0:0,0:0:0:0:
320,110,24599,2,0,P|274:84|221:84,1,108.000004119873,0|2,1:0|0:0,0:0:0:0:
154,140,24991,1,0,0:0:0:0:
78,99,25121,6,0,L|92:242,1,144,2|2,1:2|1:2,0:0:0:0:
101,329,25512,1,0,0:0:0:0:
171,277,25643,2,0,P|196:268|240:269,1,72,2|0,1:2|0:0,0:0:0:0:
321,302,25904,2,0,B|339:252|319:232|299:212|317:162,1,144,2|0,1:2|0:0,0:0:0:0:
386,110,26295,1,2,1:2:0:0:
386,110,26425,2,0,L|376:38,1,72,2|0,1:2|0:0,0:0:0:0:
294,8,26686,2,0,P|252:64|183:80,1,144,2|0,1:2|1:0,0:0:0:0:
109,123,27077,2,0,P|88:191|116:256,1,144,2|2,1:2|1:2,0:0:0:0:
196,293,27469,6,0,L|216:368,1,72,2|0,1:2|0:0,0:0:0:0:
304,274,27730,2,0,L|322:204,1,72,2|0,1:2|0:0,0:0:0:0:
288,83,27991,2,0,L|238:134,1,72,2|0,1:2|0:0,0:0:0:0:
190,206,28251,1,2,1:2:0:0:
152,128,28382,1,0,1:0:0:0:
81,79,28512,1,0,1:0:0:0:
43,1,28643,2,0,P|49:71|12:132,1,144,2|0,1:2|0:0,0:0:0:0:
40,214,29034,2,0,L|22:246,2,36,2|0|0,0:0|0:0|0:0,0:0:0:0:
123,193,29295,6,0,P|81:137|11:131,1,144,2|2,1:2|1:2,0:0:0:0:
99,276,29817,2,0,P|141:331|211:337,1,144,2|2,1:2|1:2,0:0:0:0:
292,188,30338,2,0,P|222:198|182:255,1,144,2|2,1:2|1:2,0:0:0:0:
352,251,30860,2,0,P|379:187|349:124,1,144,2|2,1:2|1:2,0:0:0:0:
176,122,31382,6,0,L|119:30,2,108.000004119873,2|0|2,1:2|0:0|1:2,0:0:0:0:
178,219,32164,1,0,0:0:0:0:
99,276,32425,2,0,L|-8:286,1,108.000004119873,0|0,1:2|0:0,0:0:0:0:
112,195,32947,2,0,P|143:214|178:219,1,72,2|0,1:2|0:0,0:0:0:0:
262,166,33208,2,0,P|273:131|270:96,1,72,2|0,1:2|0:0,0:0:0:0:
263,262,33469,6,0,B|279:307|279:307|319:331|319:331|335:378,1,144,6|2,1:2|1:2,0:0:0:0:
420,330,33860,1,0,0:0:0:0:
512,363,33991,2,0,P|517:320|509:291,1,72,2|0,1:2|0:0,0:0:0:0:
434,232,34251,2,0,P|426:197|431:161,1,72,2|0,1:2|0:0,0:0:0:0:
502,95,34512,2,0,P|435:115|370:83,1,144,2|0,1:2|1:0,0:0:0:0:
277,58,34904,2,0,P|328:106|333:176,1,144,2|0,1:2|0:0,0:0:0:0:
295,267,35295,2,0,L|224:277,1,72,0|0,1:0|0:0,0:0:0:0:
187,368,35556,6,0,P|135:319|130:249,1,144,2|0,1:2|1:0,0:0:0:0:
167,157,35947,2,0,P|114:203|43:200,1,144,2|0,1:2|0:0,0:0:0:0:
12,107,36338,2,0,P|48:102|82:110,1,72,0|0,1:0|0:0,0:0:0:0:
167,60,36599,2,0,B|237:78|237:30|307:48,1,144,2|0,1:2|1:0,0:0:0:0:
398,86,36991,2,0,P|327:91|280:143,1,144,2|0,1:2|1:0,0:0:0:0:
294,240,37382,1,2,1:2:0:0:
370,180,37512,1,0,1:0:0:0:
465,156,37643,6,0,P|455:226|402:272,1,144,6|2,1:2|1:2,0:0:0:0:
325,332,38034,1,0,2:0:0:0:
230,314,38164,2,0,L|163:341,1,72,2|0,1:2|0:0,0:0:0:0:
74,302,38425,2,0,L|47:235,1,72,2|0,1:2|0:0,0:0:0:0:
115,165,38686,2,0,P|165:214|235:216,1,144,2|0,1:2|1:0,0:0:0:0:
299,142,39077,2,0,P|284:73|227:31,1,144,2|0,1:2|0:0,0:0:0:0:
133,59,39469,2,0,P|92:41|72:16,1,72,0|0,1:0|0:0,0:0:0:0:
0,84,39730,6,0,P|-12:153|21:215,1,144,2|0,1:2|1:0,0:0:0:0:
112,252,40121,2,0,B|182:270|182:222|252:240,1,144,2|0,1:2|0:0,0:0:0:0:
342,278,40512,2,0,P|364:305|376:339,1,72,0|0,1:0|0:0,0:0:0:0:
462,293,40773,2,0,P|427:231|439:161,1,144,2|0,1:2|1:0,0:0:0:0:
445,64,41164,2,0,P|407:124|341:148,1,144,2|0,1:2|1:0,0:0:0:0:
244,135,41556,1,2,1:2:0:0:
170,73,41686,1,0,1:0:0:0:
154,169,41817,6,0,B|146:216|146:216|110:246|110:246|103:295,1,144,6|2,1:2|1:2,0:0:0:0:
160,375,42208,1,0,0:0:0:0:
257,366,42338,2,0,P|287:353|315:324,1,72,2|0,1:2|0:0,0:0:0:0:
321,228,42599,2,0,P|347:247|386:256,1,72,2|0,1:2|0:0,0:0:0:0:
472,212,42860,2,0,P|481:125|436:72,1,144,2|0,1:2|0:0,0:0:0:0:
354,69,43251,2,0,B|282:60|288:108|217:100,1,144,2|0,1:2|0:0,0:0:0:0:
120,87,43643,2,0,P|96:59|84:26,1,72,0|0,1:0|0:0,0:0:0:0:
0,76,43904,6,0,P|24:104|-16:248,1,144,2|0,1:2|1:0,0:0:0:0:
95,275,44295,2,0,P|165:276|220:231,1,144,2|0,1:2|0:0,0:0:0:0:
290,301,44686,2,0,P|278:334|279:370,1,72,0|0,1:0|0:0,0:0:0:0:
375,353,44947,2,0,P|385:283|349:222,1,144,2|0,1:2|1:0,0:0:0:0:
280,153,45338,2,0,P|289:79|339:34,1,144,2|0,1:2|1:0,0:0:0:0:
436,51,45730,1,2,1:2:0:0:
374,126,45860,1,0,1:0:0:0:
349,222,45991,6,0,P|361:254|384:281,1,72,2|0,1:2|0:0,0:0:0:0:
279,369,46251,2,0,P|291:336|289:300,1,72,2|0,1:2|0:0,0:0:0:0:
220,179,46512,2,0,L|208:250,1,72,2|0,1:2|0:0,0:0:0:0:
107,346,46773,2,0,L|95:275,1,72,2|0,1:2|0:0,0:0:0:0:
81,137,47034,1,0,1:0:0:0:
81,137,47164,2,0,P|54:160|17:171,1,72,2|0,1:2|0:0,0:0:0:0:
0,65,47425,2,0,P|57:31|156:60,1,144,2|0,1:2|0:0,0:0:0:0:
186,124,47817,2,0,L|257:115,1,72,2|0,1:2|1:0,0:0:0:0:
286,22,48077,5,2,1:2:0:0:
353,94,48208,1,0,1:0:0:0:
322,187,48338,2,0,L|331:258,1,72,2|0,1:2|0:0,0:0:0:0:
263,379,48599,2,0,P|249:347|248:311,1,72,2|0,1:2|0:0,0:0:0:0:
194,183,48860,2,0,P|189:219|172:250,1,72,2|0,1:2|0:0,0:0:0:0:
98,374,49121,2,0,L|89:303,1,72,2|0,1:2|0:0,0:0:0:0:
13,229,49382,2,0,L|4:158,1,72,2|0,1:2|0:0,0:0:0:0:
63,69,49643,2,0,B|143:89|163:45|183:1|263:21,1,216,2|0,1:2|0:0,0:0:0:0:
348,68,50164,6,0,P|360:145|328:205,1,144,2|0,1:2|0:0,0:0:0:0:
256,246,50556,1,0,0:0:0:0:
172,224,50686,2,0,L|91:234,1,72,2|0,0:0|0:0,0:0:0:0:
54,158,50947,2,0,L|125:149,1,72,2|0,0:0|0:0,0:0:0:0:
147,63,51208,2,0,P|203:21|274:20,1,144,2|0,1:2|0:0,0:0:0:0:
348,68,51599,1,0,0:0:0:0:
432,48,51730,2,0,L|449:119,1,72,2|0,0:0|0:0,0:0:0:0:
365,138,51991,2,0,L|348:67,1,72,2|0,0:0|0:0,0:0:0:0:
425,201,52251,5,2,1:2:0:0:
401,285,52382,1,0,0:0:0:0:
317,307,52512,2,0,L|238:285,1,72,2|0,0:0|0:0,0:0:0:0:
163,308,52773,2,0,P|221:270|234:202,1,144,2|2,0:0|0:0,0:0:0:0:
93,106,53295,2,0,P|96:176|150:222,1,144,2|2,1:2|0:0,0:0:0:0:
234,200,53686,1,0,0:0:0:0:
174,138,53817,2,0,P|172:102|186:69,1,72,2|0,0:0|0:0,0:0:0:0:
270,48,54077,2,0,P|280:72|311:104,1,72,2|0,0:0|0:0,0:0:0:0:
396,126,54339,6,0,L|390:198,1,72,2|2,1:2|0:0,0:0:0:0:
431,274,54599,1,0,1:0:0:0:
344,272,54730,1,0,0:0:0:0:
264,306,54860,2,0,L|192:300,1,72,2|0,0:0|0:0,0:0:0:0:
119,254,55121,1,2,1:2:0:0:
195,214,55251,1,0,0:0:0:0:
123,168,55382,6,0,L|129:96,1,72,2|2,1:2|0:0,0:0:0:0:
91,18,55643,1,0,1:0:0:0:
177,24,55773,1,0,0:0:0:0:
250,73,55904,2,0,L|321:78,1,72,2|0,0:0|0:0,0:0:0:0:
396,126,56165,1,2,1:2:0:0:
400,40,56295,1,0,0:0:0:0:
474,87,56425,6,0,P|483:120|477:158,1,72,2|0,1:2|0:0,0:0:0:0:
409,212,56686,2,0,P|404:248|414:283,1,72,2|0,1:2|0:0,0:0:0:0:
489,330,56947,2,0,L|428:369,1,72,2|0,1:2|0:0,0:0:0:0:
347,340,57208,2,0,L|275:344,1,72,2|0,1:2|0:0,0:0:0:0:
189,359,57469,1,2,1:2:0:0:
219,277,57599,1,0,1:0:0:0:
203,190,57730,1,0,1:2:0:0:
143,126,57860,1,0,1:0:0:0:
229,107,57991,2,0,L|257:41,1,72,2|0,1:2|0:0,0:0:0:0:
342,22,58252,2,0,L|397:69,1,72,2|0,1:2|0:0,0:0:0:0:
400,163,58512,6,0,P|330:154|272:194,1,144,2|2,1:2|1:2,0:0:0:0:
219,277,58904,1,0,0:0:0:0:
141,221,59034,2,0,L|56:212,1,72,2|0,1:2|0:0,0:0:0:0:
43,120,59295,2,0,L|114:127,1,72,2|0,1:2|0:0,0:0:0:0:
155,39,59556,2,0,P|208:0|283:8,1,144,2|0,1:2|1:0,0:0:0:0:
359,67,59947,2,0,L|340:212,1,144,2|0,1:2|0:0,0:0:0:0:
416,269,60339,2,0,P|450:279|485:278,1,72,0|0,1:0|0:0,0:0:0:0:
326,306,60600,6,0,P|256:296|198:337,1,144,2|0,1:2|1:0,0:0:0:0:
131,265,60991,2,0,P|174:209|167:133,1,144,2|0,1:2|0:0,0:0:0:0:
91,84,61382,2,0,P|48:88|14:110,1,72,0|0,1:0|0:0,0:0:0:0:
178,41,61643,2,0,B|231:46|246:23|261:0|314:6,1,144,2|0,1:2|1:0,0:0:0:0:
394,62,62034,2,0,P|398:132|355:188,1,144,2|0,1:2|1:0,0:0:0:0:
258,191,62425,1,2,1:2:0:0:
310,274,62556,1,0,1:0:0:0:
265,360,62686,6,0,L|336:367,1,72,2|0,1:2|0:0,0:0:0:0:
213,277,62947,2,0,L|141:269,1,72,2|0,1:2|0:0,0:0:0:0:
62,212,63208,2,0,P|52:172|56:140,1,72,2|0,1:2|0:0,0:0:0:0:
156,46,63469,2,0,P|159:81|149:116,1,72,2|0,1:2|0:0,0:0:0:0:
258,191,63730,1,2,1:2:0:0:
258,191,63860,2,0,L|328:178,1,72,2|0,1:2|0:0,0:0:0:0:
424,226,64121,2,0,P|432:155|396:96,1,144,2|0,1:2|0:0,0:0:0:0:
299,85,64512,2,0,L|277:16,1,72,2|0,1:2|1:0,0:0:0:0:
180,5,64773,5,0,1:0:0:0:
142,66,64904,1,0,1:0:0:0:
78,100,65034,2,0,L|6:98,1,72,0|0,1:0|0:0,0:0:0:0:
4,170,65295,2,0,B|76:172|76:172|117:173|140:138,1,147.600002252197,0|0,1:0|1:0,0:0:0:0:
73,244,65817,2,0,B|155:246|201:176,1,151.920003129456,0|0,1:0|1:0,0:0:0:0:
70,316,66338,2,0,B|193:319|262:214,1,227.880004694183,0|0,1:0|0:0,0:0:0:0:
265,143,66860,6,0,P|262:214|323:252,1,150.480001435089,0|0,1:0|0:0,0:0:0:0:
387,217,67251,2,0,P|390:146|329:108,1,150.480001435089,2|0,0:0|0:0,0:0:0:0:
326,180,67642,1,2,0:0:0:0:
203,104,67904,2,0,P|143:65|79:99,1,150.480001435089,0|0,1:0|0:0,0:0:0:0:
77,172,68295,2,0,P|136:210|200:176,1,150.480001435089,2|0,0:0|0:0,0:0:0:0:
140,138,68686,1,2,0:0:0:0:
135,282,68947,5,2,1:2:0:0:
197,321,69077,1,2,0:0:0:0:
271,313,69208,1,2,0:0:0:0:
326,180,69469,1,2,0:0:0:0:
198,248,69730,1,0,0:0:0:0:
198,248,69860,2,0,P|197:320|240:381,1,149.759999085937,2|0,0:0|0:0,0:0:0:0:
198,248,71034,6,0,P|201:177|140:139,1,150.480001435089,0|0,1:0|0:0,0:0:0:0:
76,174,71425,2,0,P|73:245|134:283,1,150.480001435089,2|0,0:0|0:0,0:0:0:0:
137,211,71816,1,2,0:0:0:0:
260,287,72078,2,0,P|320:326|384:292,1,150.480001435089,0|0,1:0|0:0,0:0:0:0:
386,219,72469,2,0,P|327:181|263:215,1,150.480001435089,2|0,0:0|0:0,0:0:0:0:
323,253,72860,1,2,0:0:0:0:
328,109,73121,5,0,1:0:0:0:
192,78,73382,1,2,0:0:0:0:
137,211,73643,1,2,0:0:0:0:
137,211,73773,1,2,0:0:0:0:
265,143,74034,1,0,0:0:0:0:
265,143,74164,2,0,P|266:71|223:10,1,149.759999085937,2|0,1:2|0:0,0:0:0:0:
265,143,75208,6,0,P|358:243|328:109,1,374.399997714844,2|0,1:2|0:0,0:0:0:0:
326,180,76773,1,2,1:2:0:0:
308,211,76903,1,0,0:0:0:0:
289,241,77034,1,2,0:0:0:0:
271,272,77164,1,0,0:0:0:0:
252,302,77295,6,0,P|415:292|435:88,1,374.399997714844,0|0,1:0|0:0,0:0:0:0:
399,57,78860,1,2,1:2:0:0:
367,42,78990,1,0,0:0:0:0:
330,37,79121,1,2,0:0:0:0:
293,39,79251,1,0,0:0:0:0:
260,53,79382,6,0,B|215:77|187:122|183:173|183:173|326:180|326:180|322:232|294:277|254:301,1,367.200002241211,2|0,1:2|0:0,0:0:0:0:
252,302,80947,2,0,L|201:247,1,73.4400004482422,2|0,1:2|0:0,0:0:0:0:
183,173,81469,6,0,B|158:128|114:100|63:96,1,146.880000896484,2|2,1:2|0:0,0:0:0:0:
260,53,82512,2,0,B|284:98|329:126|380:130,1,146.880000896484,2|0,1:2|0:0,0:0:0:0:
327,312,83556,6,0,P|267:306|217:244,1,144,2|0,1:2|0:0,0:0:0:0:
171,170,83947,2,0,L|303:229,1,144,2|0,0:0|0:0,0:0:0:0:
388,212,84338,2,0,P|410:184|418:149,1,72,2|0,0:0|0:0,0:0:0:0:
498,117,84599,2,0,P|445:68|376:74,1,144,2|0,1:2|0:0,0:0:0:0:
332,147,84991,2,0,L|325:4,1,144,2|0,0:0|0:0,0:0:0:0:
250,45,85382,2,0,P|187:13|167:-48,1,72,2|0,0:0|0:0,0:0:0:0:
112,56,85643,6,0,L|115:127,1,72,2|0,1:2|0:0,0:0:0:0:
39,169,85904,1,2,0:0:0:0:
43,3,86164,1,2,1:2:0:0:
59,193,86425,1,2,0:0:0:0:
59,193,86556,2,0,B|97:229|170:226|186:186|185:177|186:170|202:130|275:127|312:162,1,288,2|0,0:0|0:0,0:0:0:0:
341,245,87208,2,0,L|345:317,1,72,2|0,1:2|0:0,0:0:0:0:
260,300,87469,2,0,L|256:228,1,72,2|0,0:0|0:0,0:0:0:0:
312,162,87730,6,0,B|349:150|382:169|382:169|415:188|451:175,1,144,2|0,1:2|0:0,0:0:0:0:
490,252,88121,2,0,L|509:110,1,144,2|0,0:0|0:0,0:0:0:0:
424,93,88512,2,0,L|420:21,1,72,2|0,0:0|0:0,0:0:0:0:
334,4,88773,2,0,P|295:42|204:35,1,144,2|0,1:2|0:0,0:0:0:0:
146,97,89164,2,0,B|158:134|139:167|139:167|120:200|133:236,1,144,2|0,0:0|0:0,0:0:0:0:
71,297,89556,2,0,P|37:285|2:287,1,72,2|0,0:0|0:0,0:0:0:0:
156,321,89817,6,0,P|189:332|225:330,1,72,2|0,1:2|0:0,0:0:0:0:
302,290,90077,1,2,0:0:0:0:
292,277,90338,1,2,1:2:0:0:
292,277,90469,2,0,P|278:224|330:148,1,144,2|0,0:0|0:0,0:0:0:0:
380,85,90860,2,0,L|364:229,1,144,2|2,1:2|0:0,0:0:0:0:
398,309,91251,1,0,0:0:0:0:
450,239,91382,2,0,L|466:95,1,144,2|2,1:2|0:0,0:0:0:0:
320,23,91904,6,0,P|349:86|323:151,1,144,2|0,1:2|0:0,0:0:0:0:
239,172,92295,2,0,B|200:174|173:147|173:147|146:120|108:123,1,144,2|0,0:0|0:0,0:0:0:0:
23,142,92686,2,0,P|-1:190|6:242,1,72,2|0,0:0|0:0,0:0:0:0:
38,286,92947,2,0,P|98:253|168:268,1,144,2|0,1:2|0:0,0:0:0:0:
208,348,93338,2,0,L|230:205,1,144,2|0,0:0|0:0,0:0:0:0:
292,142,93730,2,0,P|324:156|360:157,1,72,2|0,0:0|0:0,0:0:0:0:
423,95,93991,6,0,L|434:23,1,72,2|0,1:2|0:0,0:0:0:0:
445,179,94251,1,2,0:0:0:0:
496,338,94512,1,2,1:2:0:0:
431,209,94773,1,2,0:0:0:0:
431,209,94904,2,0,B|331:173|299:239|267:305|168:268,1,288,2|0,0:0|0:0,0:0:0:0:
146,183,95556,2,0,L|157:111,1,72,2|0,1:2|0:0,0:0:0:0:
73,88,95817,2,0,L|62:160,1,72,2|0,0:0|0:0,0:0:0:0:
1,220,96077,6,0,P|10:288|92:331,1,144,2|0,1:2|0:0,0:0:0:0:
150,299,96469,2,0,B|187:287|220:306|220:306|253:325|289:312,1,144,2|0,0:0|0:0,0:0:0:0:
369,280,96860,2,0,P|415:305|438:353,1,72,2|0,0:0|0:0,0:0:0:0:
476,249,97121,2,0,P|418:208|408:139,1,144,2|0,1:2|0:0,0:0:0:0:
471,79,97512,2,0,L|329:105,1,144,2|0,0:0|0:0,0:0:0:0:
248,70,97904,2,0,P|248:17|278:-25,1,72,2|0,0:0|0:0,0:0:0:0:
260,158,98164,6,0,P|260:211|230:254,1,72,2|0,1:2|0:0,0:0:0:0:
114,214,98425,2,0,P|143:193|178:185,1,72,2|0,1:2|0:0,0:0:0:0:
305,297,98686,1,0,1:0:0:0:
305,297,98817,2,0,P|237:312|179:272,1,144,2|0,1:2|0:0,0:0:0:0:
29,190,99208,2,0,P|87:229|97:299,1,144,2|2,1:2|0:0,0:0:0:0:
108,384,99599,1,2,0:0:0:0:
108,384,99664,1,2,0:0:0:0:
108,384,99730,2,0,L|12:275,1,144,2|2,1:2|0:0,0:0:0:0:
45,104,100251,5,6,1:2:0:0:
