osu file format v14

[General]
AudioFilename: audio.mp3
AudioLeadIn: 0
PreviewTime: 31382
Countdown: 1
SampleSet: Soft
StackLeniency: 0.7
Mode: 0
LetterboxInBreaks: 0
WidescreenStoryboard: 1

[Editor]
Bookmarks: 77034
DistanceSpacing: 1.16
BeatDivisor: 4
GridSize: 4
TimelineZoom: 1

[Metadata]
Title:Spider Dance
TitleUnicode:Spider Dance
Artist:toby fox
ArtistUnicode:toby fox
Creator:cheesiest
Version:Hard
Source:UNDERTALE
Tags:-kevincela-
BeatmapID:926459
BeatmapSetID:427841

[Difficulty]
HPDrainRate:5
CircleSize:4
OverallDifficulty:6
ApproachRate:7.5
SliderMultiplier:1.2
SliderTickRate:1

[Events]
//Background and Video events
0,0,"spiderdance.jpg",0,0
//Break Periods
//Storyboard Layer 0 (Background)
//Storyboard Layer 1 (Fail)
//Storyboard Layer 2 (Pass)
//Storyboard Layer 3 (Foreground)
//Storyboard Sound Samples

[TimingPoints]
78,260.869565217391,4,2,0,70,1,0
6338,-133.333333333333,4,2,0,70,0,0
8425,-100,4,2,0,70,0,0
14686,-133.333333333333,4,2,0,70,0,0
16773,-100,4,2,0,70,0,0
23034,-133.333333333333,4,2,0,70,0,0
25121,-100,4,2,0,70,0,0
31382,-133.333333333333,4,2,0,70,0,0
32947,-101.522842639594,4,2,0,70,0,0
33469,-81.25,4,2,0,70,0,1
34512,-78.7401574803149,4,2,0,70,0,1
34904,-81.25,4,2,0,70,0,1
50164,-92.8850083596508,4,2,0,70,0,0
58512,-81.25,4,2,0,70,0,1
66860,-120.481927710843,4,2,0,70,0,0
75208,-115.848007414272,4,2,0,70,0,0
77034,-120.481927710843,4,2,0,70,0,0
83556,-92.8850083596508,4,2,0,70,0,0
84991,-93.8967136150235,4,2,0,70,0,0
85382,-92.8850083596508,4,2,0,70,0,0

[Colours]
Combo1 : 180,50,143
Combo2 : 171,22,171
Combo3 : 230,81,226
Combo4 : 111,19,104

[HitObjects]
4,60,78,6,0,P|28:108|100:132,1,120,0|0,0:0|0:0,0:0:0:0:
155,101,469,1,0,0:0:0:0:
216,144,599,2,0,L|224:203,2,60
358,92,1121,2,0,L|374:210,1,120,0|0,0:0|0:0,0:0:0:0:
444,239,1512,1,0,0:0:0:0:
385,286,1643,2,0,P|352:234|284:220,1,120
248,274,2034,2,0,B|190:288|189:248|131:262,1,120
81,318,2425,5,0,0:0:0:0:
227,354,2686,2,0,L|286:346,2,60
224,203,3208,2,0,L|216:144,2,60
298,218,3599,2,0,B|352:194|329:161|383:138,1,120
458,154,3991,2,0,L|466:213,1,60
477,289,4251,6,0,P|422:260|356:282,1,120
251,367,4773,2,0,L|369:349,1,120
298,218,5295,2,0,B|244:242|267:275|213:298,1,120
140,166,5817,2,0,L|259:149,1,120
141,241,6338,6,0,P|123:292|134:344,1,90.0000034332277
213,298,6860,1,0,0:0:0:0:
259,376,7121,1,0,0:0:0:0:
330,273,7382,1,0,0:0:0:0:
342,184,7643,1,0,0:0:0:0:
426,154,7904,2,0,P|430:199|414:241,1,90.0000034332277
342,184,8425,6,0,P|282:185|231:215,1,120
198,283,8817,1,0,0:0:0:0:
157,220,8947,2,0,L|153:148,2,60
239,346,9469,2,0,P|293:370|352:364,1,120
411,318,9860,1,0,0:0:0:0:
429,245,9991,2,0,P|409:189|365:150,1,120
290,140,10382,2,0,P|346:121|386:77,1,120
407,5,10773,5,0,0:0:0:0:
257,24,11034,2,0,L|290:140,1,120
429,198,11556,2,0,L|411:316,1,120
352,363,11947,2,0,P|293:370|239:346,1,120
198,283,12339,1,0,0:0:0:0:
76,368,12599,6,0,L|94:250,1,120
225,174,13121,2,0,L|192:59,1,120
42,62,13643,2,0,L|74:176,1,120
207,247,14164,2,0,L|189:365,1,120
336,322,14686,6,0,P|352:281|347:237,1,90.0000034332277
314,153,15208,1,0,0:0:0:0:
403,166,15469,1,0,0:0:0:0:
324,65,15729,1,0,0:0:0:0:
241,99,15990,1,0,0:0:0:0:
168,45,16251,2,0,P|151:86|156:130,1,90.0000034332277
229,188,16773,6,0,B|172:188|172:212|112:212,1,120
46,176,17164,1,0,0:0:0:0:
48,251,17295,2,0,P|45:280|30:312,2,60
44,101,17817,2,0,P|46:71|112:2,1,120
179,7,18208,1,0,0:0:0:0:
140,71,18338,2,0,P|151:129|193:171,1,120
269,182,18730,2,0,B|325:175|323:148|380:141,1,120
455,157,19121,5,0,0:0:0:0:
347,53,19382,2,0,L|339:-6,2,60
269,182,19904,2,0,L|276:241,2,60
240,112,20295,2,0,B|189:80|175:118|126:86,1,120
71,139,20686,2,0,L|38:189,1,60
19,262,20947,6,0,P|55:217|113:206,1,120
264,199,21469,2,0,P|227:245|169:256,1,120
246,126,21991,2,0,L|348:208,1,120
434,84,22512,2,0,L|340:8,1,120
394,150,23034,6,0,P|448:160|492:136,1,90.0000034332277
505,61,23556,1,0,0:0:0:0:
432,9,23817,1,0,0:0:0:0:
328,89,24077,1,0,0:0:0:0:
246,126,24338,1,0,0:0:0:0:
183,61,24599,2,0,P|144:50|97:63,1,90.0000034332277
39,134,25121,6,0,L|45:266,1,120
87,315,25512,1,0,0:0:0:0:
12,322,25643,2,0,P|-16:340|-32:364,2,60
162,308,26164,2,0,P|208:284|244:204,1,120
229,152,26556,1,0,0:0:0:0:
172,105,26686,2,0,P|120:100|56:136,1,120
30,199,27077,2,0,P|32:229|89:302,1,120
116,368,27469,5,0,0:0:0:0:
231,271,27730,2,0,L|229:152,1,120
139,31,28251,2,0,P|183:71|242:78,1,120
300,127,28643,2,0,P|323:181|310:238,1,120
337,309,29034,1,0,0:0:0:0:
253,185,29295,6,0,P|239:242|263:297,1,120
410,321,29817,2,0,P|450:277|456:219,1,120
457,68,30338,2,0,L|397:172,1,120
337,309,30860,2,0,L|323:189,1,120
256,55,31382,6,0,L|245:144,1,90.0000034332277
156,133,31904,1,0,0:0:0:0:
167,43,32164,1,0,0:0:0:0:
66,121,32425,2,0,P|71:164|99:204,1,90.0000034332277
192,216,32947,1,0,0:0:0:0:
235,177,33077,1,0,0:0:0:0:
245,120,33207,1,0,0:0:0:0:
219,68,33338,1,0,0:0:0:0:
167,44,33469,6,0,P|248:50|300:11,1,147.692307692308
480,49,33991,2,0,L|434:107,1,73.8461538461538
365,133,34251,2,0,L|354:206,1,73.8461538461538
285,233,34512,2,0,P|359:241|416:291,1,152.39999883728
385,359,34904,2,0,B|339:371|339:371|286:360|286:360|242:374,1,147.692307692308
200,313,35295,1,0,0:0:0:0:
24,258,35556,6,0,P|61:185|48:100,1,147.692307692308
16,59,35947,2,0,B|60:76|60:76|113:70|113:70|156:89,1,147.692307692308
204,32,36338,1,0,0:0:0:0:
226,216,36599,2,0,P|283:173|385:194,1,147.692307692308
411,226,36991,2,0,P|402:155|471:77,1,147.692307692308
512,70,37382,1,0,0:0:0:0:
457,21,37512,1,0,0:0:0:0:
386,44,37643,6,0,P|314:46|243:-29,1,147.692307692308
86,72,38164,2,0,P|74:108|76:144,1,73.8461538461538
113,209,38425,2,0,P|138:225|182:236,1,73.8461538461538
252,215,38686,2,0,P|287:223|357:336,1,147.692307692308
345,379,39077,2,0,B|377:343|377:343|425:327|425:327|457:291,1,147.692307692308
468,217,39469,1,0,0:0:0:0:
385,50,39730,6,0,P|357:117|295:154,1,147.692307692308
252,215,40121,2,0,P|251:142|207:84,1,147.692307692308
179,16,40512,1,0,0:0:0:0:
116,188,40773,2,0,P|179:151|207:84,1,147.692307692308
250,24,41164,2,0,B|314:62|314:62|386:50,1,147.692307692308
441,0,41556,1,0,0:0:0:0:
458,72,41686,1,0,0:0:0:0:
405,123,41817,6,0,P|405:195|449:253,1,147.692307692308
274,313,42338,2,0,P|273:240|235:189,1,73.8461538461538
228,182,42599,2,0,P|215:154|216:105,1,73.8461538461538
237,40,42860,2,0,P|183:88|110:96,1,147.692307692308
46,61,43251,2,0,B|29:100|49:136|49:136|69:172|52:211,1,147.692307692308
0,254,43643,1,0,0:0:0:0:
148,362,43903,6,0,P|159:290|126:226,1,147.692307692308
182,176,44295,2,0,P|242:216|315:215,1,147.692307692308
370,166,44686,1,0,0:0:0:0:
277,6,44947,2,0,P|266:78|300:143,1,147.692307692308
370,166,45338,2,0,B|367:216|367:216|395:252|395:252|392:303,1,147.692307692308
463,327,45730,1,0,0:0:0:0:
409,377,45860,1,0,0:0:0:0:
338,356,45991,6,0,B|287:358|287:358|252:329|252:329|202:332,1,147.692307692308
17,314,46512,2,0,B|68:311|68:311|100:280|100:280|150:277,1,147.692307692308
333,244,47034,1,0,0:0:0:0:
333,244,47164,2,0,B|281:246|281:246|246:217|246:217|196:219,2,147.692307692308
388,192,47817,2,0,P|384:140|359:111,1,73.8461538461538
360,51,48077,5,0,0:0:0:0:
303,98,48208,1,0,0:0:0:0:
230,108,48338,2,0,P|178:95|161:82,1,73.8461538461538
114,24,48599,2,0,P|135:105|106:171,1,147.692307692308
0,305,49121,2,0,P|49:252|120:237,1,147.692307692308
301,263,49643,2,0,P|237:299|182:193,1,221.538461538462
242,150,50164,6,0,P|264:80|243:11,1,129.191998044457
91,13,50686,2,0,L|88:78,1,64.5959990222285
42,135,50947,2,0,L|45:200,1,64.5959990222285
4,260,51208,2,0,P|66:248|126:270,1,129.191998044457
253,372,51730,2,0,L|256:307,1,64.5959990222285
302,250,51991,2,0,L|299:185,1,64.5959990222285
268,120,52251,6,0,P|327:142|390:130,1,129.191998044457
497,252,52773,2,0,P|437:229|374:241,1,129.191998044457
500,139,53295,2,0,P|484:72|433:28,1,129.191998044457
369,22,53686,1,0,0:0:0:0:
306,59,53817,2,0,P|245:43|207:2,1,64.5959990222285
184,82,54077,2,0,P|184:115|174:145,1,64.5959990222285
114,186,54338,6,0,P|174:167|235:185,1,129.191998044457
295,230,54730,1,0,0:0:0:0:
228,259,54860,2,0,L|219:335,1,64.5959990222285
154,352,55121,2,0,L|103:312,1,64.5959990222285
36,341,55382,2,0,B|47:299|47:299|35:259|35:259|47:216,1,129.191998044457
114,186,55773,1,0,0:0:0:0:
55,144,55904,2,0,P|50:107|63:69,1,64.5959990222285
115,37,56164,2,0,P|146:38|177:53,1,64.5959990222285
209,118,56425,6,0,L|352:108,1,129.191998044457
409,128,56817,1,0,0:0:0:0:
464,176,56947,2,0,P|472:204|472:252,1,64.5959990222285
437,303,57207,2,0,P|412:317|365:330,1,64.5959990222285
307,308,57468,1,0,0:0:0:0:
254,359,57599,1,0,0:0:0:0:
183,376,57729,1,0,0:0:0:0:
113,355,57860,1,0,0:0:0:0:
62,301,57991,2,0,L|46:239,1,64.5959990222285
65,169,58251,2,0,L|79:106,1,64.5959990222285
80,32,58512,6,0,P|146:69|222:52,1,147.692307692308
397,28,59034,2,0,P|404:68|393:109,1,73.8461538461538
360,164,59295,2,0,P|371:198|394:226,1,73.8461538461538
470,227,59556,2,0,P|402:231|362:302,1,147.692307692308
404,357,59947,2,0,L|255:369,1,147.692307692308
215,306,60338,1,0,0:0:0:0:
26,255,60600,6,0,L|175:243,1,147.692307692308
247,240,60991,2,0,P|199:185|203:113,1,147.692307692308
249,55,61382,1,0,0:0:0:0:
410,150,61643,2,0,P|398:201|306:250,1,147.692307692308
275,308,62034,2,0,B|273:258|273:258|295:216|295:216|294:166,1,147.692307692308
346,112,62425,1,0,0:0:0:0:
273,95,62556,1,0,0:0:0:0:
203,114,62687,6,0,B|205:164|205:164|183:206|183:206|184:256,1,147.692307692308
6,301,63207,2,0,B|56:300|56:300|98:322|98:322|148:320,1,147.692307692308
327,275,63730,1,0,0:0:0:0:
327,275,63860,2,0,B|277:276|277:276|235:254|235:254|185:256,2,147.692307692308
394,244,64512,2,0,P|405:211|397:169,1,73.8461538461538
381,101,64773,5,0,0:0:0:0:
328,153,64904,1,0,0:0:0:0:
256,168,65034,2,0,P|222:164|187:144,1,73.8461538461538
135,93,65295,2,0,P|145:158|110:236,1,147.692307692308
0,380,65817,2,0,P|51:338|136:330,1,147.692307692308
317,354,66338,2,0,P|222:368|207:266,1,221.538461538462
241,172,66860,6,0,P|243:133|119:50,1,199.200002887573
172,245,67904,2,0,P|204:266|338:200,1,199.200002887573
144,148,68947,2,0,L|47:176,1,99.6000014437866
77,273,69469,2,0,L|174:245,1,99.6000014437866
197,238,69860,2,0,B|292:222|284:310|379:294,1,199.200002887573
403,286,71034,6,0,P|437:268|447:119,1,199.200002887573
289,163,72078,2,0,P|286:201|410:284,1,199.200002887573
358,91,73121,1,0,0:0:0:0:
261,67,73382,1,0,0:0:0:0:
192,140,73643,2,0,B|97:156|105:68|10:84,2,199.200002887573
386,188,75208,6,0,P|339:366|192:140,1,621.504001138008
289,164,77034,1,0,0:0:0:0:
261,68,77295,2,0,P|226:46|164:44,1,99.6000014437866
95,116,77817,2,0,L|192:140,1,99.6000014437866
216,146,78208,2,0,B|303:186|318:98|406:139,1,199.200002887573
423,158,78860,2,0,L|399:255,1,99.6000014437866
432,348,79382,6,0,P|399:254|230:387,1,398.400005775147
68,248,80947,2,0,P|81:204|75:152,1,99.6000014437866
42,57,81469,2,0,P|113:175|201:168,1,199.200002887573
356,144,82512,2,0,P|446:175|476:267,1,199.200002887573
254,379,83556,6,0,P|249:316|277:258,1,129.191998044457
345,231,83947,2,0,B|300:232|300:232|268:208|268:208|223:208,1,129.191998044457
154,231,84338,1,0,0:0:0:0:
17,279,84599,2,0,P|74:306|138:301,1,129.191998044457
209,280,84991,2,0,L|169:159,1,127.800000487518
239,138,85382,1,0,0:0:0:0:
376,90,85643,6,0,P|318:62|254:67,1,129.191998044457
102,186,86164,2,0,P|159:213|223:208,1,129.191998044457
367,163,86686,1,0,0:0:0:0:
239,138,86946,1,0,0:0:0:0:
111,113,87208,2,0,P|77:116|49:134,1,64.5959990222285
35,209,87469,2,0,P|52:238|79:255,1,64.5959990222285
154,231,87730,6,0,B|215:214|215:270|276:254,1,129.191998044457
334,299,88121,2,0,P|329:235|357:177,1,129.191998044457
426,155,88512,1,0,0:0:0:0:
308,41,88773,2,0,P|255:77|191:82,1,129.191998044457
148,24,89164,2,0,L|166:151,1,129.191998044457
141,221,89556,1,0,0:0:0:0:
248,340,89817,2,0,L|257:276,1,64.5959990222285
323,244,90077,2,0,L|332:307,1,64.5959990222285
