osu file format v14

[General]
AudioFilename: audio.mp3
AudioLeadIn: 0
PreviewTime: 31382
Countdown: 1
SampleSet: Soft
StackLeniency: 0.7
Mode: 0
LetterboxInBreaks: 0
WidescreenStoryboard: 0

[Editor]
DistanceSpacing: 0.6
BeatDivisor: 4
GridSize: 4
TimelineZoom: 1

[Metadata]
Title:Spider Dance
TitleUnicode:Spider Dance
Artist:toby fox
ArtistUnicode:toby fox
Creator:cheesiest
Version:Extra
Source:UNDERTALE
Tags:-kevincela-
BeatmapID:923536
BeatmapSetID:427841

[Difficulty]
HPDrainRate:6
CircleSize:4.5
OverallDifficulty:8
ApproachRate:9.6
SliderMultiplier:1.76
SliderTickRate:1

[Events]
//Background and Video events
0,0,"spiderdance.jpg",0,0
//Break Periods
//Storyboard Layer 0 (Background)
//Storyboard Layer 1 (Fail)
//Storyboard Layer 2 (Pass)
//Storyboard Layer 3 (Foreground)
//Storyboard Sound Samples

[TimingPoints]
78,260.869565217391,4,2,0,70,1,0
3599,-96.5250965250965,4,2,0,70,0,0
3860,-100,4,2,0,70,0,0
9208,-96.5250965250965,4,2,0,70,0,0
9599,-100,4,2,0,70,0,0
20295,-94.7867298578199,4,2,0,70,0,0
20947,-100,4,2,0,70,0,0
25904,-98.5221674876847,4,2,0,70,0,0
26164,-100,4,2,0,70,0,0
33469,-100,4,2,0,85,0,1
50164,-94.7867298578199,4,2,0,70,0,0
50425,-100,4,2,0,70,0,0
51208,-94.7867298578199,4,2,0,70,0,0
51730,-100,4,2,0,70,0,0
66860,-100,4,2,0,40,0,0
67643,-200,4,2,0,40,0,0
68947,-100,4,2,0,40,0,0
69860,-189.57345971564,4,2,0,40,0,0
71034,-100,4,2,0,40,0,0
71817,-200,4,2,0,40,0,0
73121,-100,4,2,0,40,0,0
73773,-94.7867298578199,4,2,0,40,0,0
74164,-192.307692307692,4,2,0,40,0,0
77556,-100,4,2,0,40,0,0
78208,-189.57345971564,4,2,0,40,0,0
79382,-192.307692307692,4,2,0,40,0,0
80947,-200,4,2,0,40,0,0
81469,-100,4,2,0,40,0,0
82121,-94.7867298578199,4,2,0,40,0,0
82512,-189.57345971564,4,2,0,40,0,0
83556,-100,4,2,0,70,0,0
98817,-95.1474785918173,4,2,0,70,0,0

[Colours]
Combo1 : 180,50,143
Combo2 : 171,22,171
Combo3 : 230,81,226
Combo4 : 111,19,104

[HitObjects]
156,95,78,6,0,P|148:35|159:7,1,88,0|0,1:0|0:0,0:0:0:0:
302,190,338,2,0,P|310:250|298:277,1,88,0|0,1:0|0:0,0:0:0:0:
67,310,599,2,0,L|141:357,1,88,0|0,1:0|0:0,0:0:0:0:
224,231,860,2,0,L|380:149,1,176,0|0,1:0|0:0,0:0:0:0:
463,23,1252,5,0,1:0:0:0:
456,192,1382,2,0,P|487:161|499:120,1,88,0|0,1:0|0:0,0:0:0:0:
302,1,1643,1,0,1:0:0:0:
380,150,1773,1,0,1:0:0:0:
463,23,1904,1,0,1:0:0:0:
304,108,2034,2,0,P|243:116|216:104,1,88,0|0,1:0|0:0,0:0:0:0:
62,189,2295,5,0,1:0:0:0:
140,58,2426,1,0,1:0:0:0:
139,147,2555,1,0,0:0:0:0:
262,29,2686,1,0,1:0:0:0:
216,104,2816,1,0,0:0:0:0:
381,66,2946,1,0,1:0:0:0:
304,108,3077,1,0,0:0:0:0:
465,157,3207,5,0,1:0:0:0:
458,24,3338,1,0,1:0:0:0:
379,154,3468,1,0,1:0:0:0:
262,29,3599,2,0,P|174:26|128:100,1,182.33600651041,2|0,1:2|0:0,0:0:0:0:
256,182,3990,1,2,1:2:0:0:
256,182,4055,1,0,0:0:0:0:
256,182,4121,1,0,0:0:0:0:
128,99,4251,6,0,L|40:95,1,88,2|0,1:2|0:0,0:0:0:0:
2,213,4512,1,0,0:0:0:0:
2,213,4642,1,0,0:0:0:0:
121,251,4773,2,0,L|168:176,1,88,2|0,1:2|0:0,0:0:0:0:
260,94,5034,1,0,0:0:0:0:
260,94,5164,1,0,0:0:0:0:
344,186,5295,6,0,L|384:264,1,88,2|0,1:2|0:0,0:0:0:0:
505,237,5556,1,0,0:0:0:0:
505,237,5686,1,0,0:0:0:0:
479,116,5816,2,0,L|391:112,1,88,2|0,1:2|0:0,0:0:0:0:
260,94,6077,1,0,0:0:0:0:
260,94,6208,1,0,0:0:0:0:
252,270,6338,5,2,1:2:0:0:
168,176,6599,1,0,0:0:0:0:
260,94,6860,1,2,1:2:0:0:
344,186,7121,1,0,0:0:0:0:
172,89,7382,5,2,1:2:0:0:
165,266,7643,1,0,0:0:0:0:
341,273,7903,1,2,1:2:0:0:
300,195,8034,1,0,0:0:0:0:
225,147,8164,1,2,0:0:0:0:
137,143,8295,1,0,0:0:0:0:
58,183,8425,6,0,P|30:192|-29:178,1,88,6|0,1:2|0:0,0:0:0:0:
142,55,8686,2,0,P|170:61|215:102,1,88,2|0,1:2|0:0,0:0:0:0:
341,273,8947,2,0,P|319:253|300:194,1,88,2|0,1:2|0:0,0:0:0:0:
392,45,9208,2,0,P|413:64|385:199,1,182.33600651041,2|0,1:2|0:0,0:0:0:0:
179,157,9599,5,2,1:2:0:0:
345,120,9730,2,0,L|257:116,1,88,2|0,1:2|0:0,0:0:0:0:
132,231,9991,1,2,1:2:0:0:
139,80,10121,1,0,1:0:0:0:
219,234,10252,1,0,1:0:0:0:
91,153,10382,2,0,P|48:164|17:193,1,88,2|0,1:2|3:0,3:0:0:0:
172,308,10642,5,2,1:2:0:0:
6,345,10773,1,0,1:0:0:0:
94,349,10903,1,0,0:0:0:0:
219,234,11034,1,2,1:2:0:0:
172,308,11165,1,0,0:0:0:0:
223,146,11295,1,2,1:2:0:0:
182,68,11426,1,0,0:0:0:0:
297,193,11556,5,2,1:2:0:0:
345,120,11687,1,0,1:0:0:0:
350,32,11817,1,0,1:0:0:0:
512,83,11948,2,0,P|461:154|385:196,1,176,2|0,1:2|0:0,0:0:0:0:
272,72,12339,1,2,1:2:0:0:
272,72,12404,1,2,0:0:0:0:
272,72,12470,1,2,0:0:0:0:
219,234,12599,5,2,1:2:0:0:
223,146,12730,1,0,0:0:0:0:
182,68,12860,2,0,L|107:20,1,88,2|0,1:2|0:0,0:0:0:0:
59,182,13121,1,2,1:2:0:0:
133,229,13251,1,0,0:0:0:0:
172,308,13382,2,0,L|246:355,1,88,2|0,1:2|0:0,0:0:0:0:
413,320,13644,5,2,1:2:0:0:
460,246,13774,1,0,0:0:0:0:
463,158,13905,2,0,L|422:79,1,88,2|0,1:2|0:0,0:0:0:0:
299,194,14164,1,2,1:2:0:0:
220,234,14294,1,0,0:0:0:0:
133,229,14425,2,0,L|54:269,1,88,2|0,1:2|0:0,0:0:0:0:
63,94,14686,5,6,1:2:0:0:
182,68,14947,1,0,0:0:0:0:
107,20,15208,1,2,1:2:0:0:
133,139,15469,1,0,1:0:0:0:
299,194,15730,5,2,1:2:0:0:
422,79,15991,1,0,0:0:0:0:
303,75,16252,1,2,1:2:0:0:
342,154,16382,1,0,0:0:0:0:
418,199,16512,1,0,0:0:0:0:
462,275,16643,1,0,0:0:0:0:
461,364,16773,6,0,P|408:347|384:319,1,88,0|0,1:2|0:0,0:0:0:0:
421,114,17034,2,0,P|430:156|418:198,1,88,0|0,1:2|0:0,0:0:0:0:
226,118,17295,2,0,L|303:75,1,88,0|0,1:2|0:0,0:0:0:0:
500,74,17556,2,0,P|519:158|495:242,1,176,0|0,1:2|0:0,0:0:0:0:
252,329,17947,5,0,1:0:0:0:
417,287,18077,2,0,L|292:285,1,88,0|0,1:0|0:0,0:0:0:0:
165,329,18338,1,0,1:0:0:0:
286,210,18468,1,0,1:0:0:0:
329,375,18599,1,0,1:0:0:0:
165,241,18729,2,0,P|129:248|88:284,1,88,0|0,1:2|0:0,0:0:0:0:
252,329,18990,5,0,1:0:0:0:
417,287,19121,1,0,1:0:0:0:
329,286,19251,1,0,0:0:0:0:
450,167,19382,1,0,1:0:0:0:
373,210,19512,1,0,0:0:0:0:
418,47,19643,1,0,1:0:0:0:
373,122,19773,1,0,0:0:0:0:
494,243,19905,5,0,1:0:0:0:
373,298,20035,1,0,1:0:0:0:
450,167,20165,1,0,1:0:0:0:
296,252,20296,2,0,P|201:248|165:159,1,185.68000382489,0|0,1:0|0:0,0:0:0:0:
298,99,20687,1,2,1:2:0:0:
298,99,20751,1,0,0:0:0:0:
298,99,20817,1,0,0:0:0:0:
164,175,20947,6,0,L|39:173,1,88,2|0,1:2|0:0,0:0:0:0:
162,262,21208,1,0,0:0:0:0:
162,262,21338,1,0,0:0:0:0:
241,132,21469,2,0,L|131:192,1,88,2|0,1:2|0:0,0:0:0:0:
198,55,21730,1,0,0:0:0:0:
198,55,21860,1,0,0:0:0:0:
329,133,21991,6,0,L|204:131,1,88,2|0,1:2|0:0,0:0:0:0:
327,221,22252,1,0,0:0:0:0:
327,221,22382,1,0,0:0:0:0:
406,90,22513,2,0,L|296:150,1,88,2|0,1:2|0:0,0:0:0:0:
363,13,22774,1,0,0:0:0:0:
363,13,22904,1,0,0:0:0:0:
494,91,23034,5,2,1:2:0:0:
329,133,23295,1,0,0:0:0:0:
164,175,23556,1,2,1:2:0:0:
327,221,23817,1,0,0:0:0:0:
198,55,24078,5,2,1:2:0:0:
162,262,24339,1,0,0:0:0:0:
34,97,24600,1,0,1:0:0:0:
76,173,24730,1,0,0:0:0:0:
72,262,24860,1,2,0:0:0:0:
118,337,24990,1,0,0:0:0:0:
193,382,25121,6,0,P|250:361|268:339,1,88,2|0,1:2|0:0,0:0:0:0:
76,173,25382,2,0,P|17:191|-1:212,1,88,2|0,1:2|0:0,0:0:0:0:
239,222,25643,2,0,P|252:162|243:135,1,88,2|0,1:2|0:0,0:0:0:0:
128,10,25903,2,0,B|102:52|124:97|124:97|164:174,1,176,2|0,1:2|0:0,0:0:0:0:
365,109,26295,5,2,1:2:0:0:
203,57,26425,2,0,L|290:61,1,88,2|0,1:2|0:0,0:0:0:0:
325,227,26686,1,2,1:2:0:0:
164,174,26817,1,0,1:0:0:0:
330,139,26947,1,0,1:0:0:0:
159,262,27077,2,0,L|60:311,1,89.3199967971498,2|0,1:2|0:0,0:0:0:0:
125,96,27338,5,2,1:2:0:0:
237,223,27469,1,2,1:2:0:0:
164,174,27599,1,0,0:0:0:0:
330,139,27730,1,2,1:2:0:0:
408,100,27860,1,0,0:0:0:0:
243,134,27991,1,2,1:2:0:0:
291,61,28121,1,0,0:0:0:0:
325,227,28252,5,2,1:2:0:0:
237,223,28382,1,0,1:0:0:0:
164,174,28513,1,0,1:0:0:0:
51,47,28643,2,0,P|83:109|85:213,1,176,2|0,1:2|0:0,0:0:0:0:
32,375,29034,1,2,1:2:0:0:
32,375,29099,1,2,0:0:0:0:
32,375,29165,1,2,0:0:0:0:
159,262,29294,5,2,1:2:0:0:
237,223,29425,1,0,0:0:0:0:
325,227,29555,2,0,L|415:286,1,88,2|0,1:2|0:0,0:0:0:0:
496,106,29816,1,2,1:2:0:0:
408,100,29946,1,0,0:0:0:0:
330,139,30077,2,0,L|242:134,1,88,2|0,1:2|0:0,0:0:0:0:
45,135,30338,5,2,1:2:0:0:
85,213,30468,1,0,0:0:0:0:
159,262,30600,2,0,L|246:266,1,88,2|0,1:2|0:0,0:0:0:0:
442,267,30861,1,2,1:2:0:0:
403,187,30991,1,0,0:0:0:0:
330,139,31121,2,0,L|290:60,1,88,2|0,1:2|0:0,0:0:0:0:
50,48,31382,5,2,1:2:0:0:
171,23,31643,1,0,0:0:0:0:
85,213,31904,1,2,1:2:0:0:
403,187,32165,1,0,0:0:0:0:
125,291,32425,5,0,1:2:0:0:
330,139,32687,1,0,0:0:0:0:
45,135,32947,1,2,1:2:0:0:
132,140,33077,1,0,0:0:0:0:
247,266,33208,1,2,1:2:0:0:
324,226,33338,1,0,0:0:0:0:
487,278,33469,6,0,L|483:381,1,88,6|0,1:2|0:0,0:0:0:0:
330,139,33729,2,0,L|334:36,1,88,2|0,1:2|0:0,0:0:0:0:
50,48,33990,1,2,1:2:0:0:
45,135,34121,1,0,0:0:0:0:
204,187,34251,1,2,1:2:0:0:
251,114,34382,1,0,0:0:0:0:
84,211,34512,6,0,L|78:301,1,88,2|0,1:2|0:0,0:0:0:0:
30,373,34773,1,0,1:0:0:0:
243,265,34903,2,0,L|203:186,1,88,2|0,1:2|0:0,0:0:0:0:
130,137,35164,1,0,0:0:0:0:
315,313,35295,1,0,1:0:0:0:
165,303,35425,1,0,0:0:0:0:
321,227,35556,6,0,P|334:179|324:139,1,88,2|0,1:2|0:0,0:0:0:0:
283,61,35816,1,0,1:0:0:0:
42,135,35947,2,0,P|29:183|38:222,1,88,2|0,1:2|0:0,0:0:0:0:
79,300,36207,1,0,0:0:0:0:
208,98,36338,1,0,1:0:0:0:
126,226,36468,1,0,0:0:0:0:
282,148,36599,6,0,L|369:98,1,88,2|0,1:2|0:0,0:0:0:0:
403,28,36859,1,0,1:0:0:0:
237,223,36990,2,0,L|149:272,1,88,2|0,1:2|0:0,0:0:0:0:
115,342,37251,1,0,1:0:0:0:
117,189,37381,1,2,1:2:0:0:
26,340,37511,1,0,1:0:0:0:
160,266,37642,6,0,P|194:273|236:310,1,88,6|0,1:2|2:0,2:0:0:0:
357,103,37903,2,0,P|315:93|284:63,1,88,2|0,1:2|2:0,2:0:0:0:
31,35,38164,1,2,1:2:0:0:
74,112,38294,1,0,0:0:0:0:
27,276,38425,1,2,1:2:0:0:
72,200,38555,1,0,0:0:0:0:
235,310,38686,6,0,P|246:359|233:397,1,88,2|0,1:2|0:0,0:0:0:0:
27,276,38946,1,0,1:0:0:0:
150,158,39077,2,0,P|163:116|152:71,1,88,2|0,1:2|0:0,0:0:0:0:
237,222,39338,1,0,0:0:0:0:
358,104,39469,2,0,L|356:191,1,88,0|0,1:0|0:0,0:0:0:0:
235,310,39730,6,0,L|237:223,1,88,2|0,1:2|0:0,0:0:0:0:
353,344,39991,1,0,1:0:0:0:
356,191,40121,2,0,L|358:104,1,88,2|0,1:2|0:0,0:0:0:0:
474,225,40382,1,0,0:0:0:0:
309,264,40512,2,0,P|266:252|236:221,1,88,0|0,1:0|0:0,0:0:0:0:
153,73,40773,6,0,P|162:116|150:158,1,88,2|0,1:2|0:0,0:0:0:0:
225,329,41034,1,0,1:0:0:0:
66,302,41164,2,0,P|98:272|140:263,1,88,2|0,1:2|0:0,0:0:0:0:
248,114,41425,1,0,1:0:0:0:
309,264,41556,1,2,1:2:0:0:
358,104,41686,1,0,1:0:0:0:
430,300,41817,6,0,L|481:213,1,88,6|0,1:2|0:0,0:0:0:0:
315,28,42077,2,0,L|358:104,1,88,2|0,1:2|0:0,0:0:0:0:
265,340,42338,1,2,1:2:0:0:
309,264,42469,1,0,0:0:0:0:
189,144,42599,1,2,1:2:0:0:
113,188,42730,1,0,0:0:0:0:
309,176,42861,6,0,P|348:140|358:103,1,88,2|0,1:2|0:0,0:0:0:0:
359,16,43121,1,0,0:0:0:0:
110,104,43251,2,0,P|100:146|112:188,1,88,2|0,1:2|0:0,0:0:0:0:
157,264,43512,1,0,0:0:0:0:
184,55,43643,1,0,1:0:0:0:
24,188,43773,1,0,0:0:0:0:
67,27,43904,6,0,L|116:114,1,88,2|0,1:2|0:0,0:0:0:0:
189,144,44165,1,0,1:0:0:0:
229,348,44295,2,0,L|280:261,1,88,2|0,1:2|0:0,0:0:0:0:
268,184,44556,1,0,0:0:0:0:
97,270,44687,1,0,1:0:0:0:
229,348,44817,1,0,0:0:0:0:
142,195,44948,6,0,P|104:184|54:194,1,88,2|0,1:2|0:0,0:0:0:0:
10,267,45208,1,0,1:0:0:0:
185,271,45338,2,0,P|213:243|229:195,1,88,2|0,1:2|0:0,0:0:0:0:
189,121,45599,1,0,1:0:0:0:
97,270,45730,1,2,1:2:0:0:
14,117,45860,1,0,1:0:0:0:
185,271,45991,6,0,P|213:243|229:195,1,88,2|0,1:2|0:0,0:0:0:0:
306,11,46251,2,0,P|315:49|349:87,1,88,2|0,1:2|0:0,0:0:0:0:
141,194,46512,2,0,P|130:152|101:120,1,88,2|0,1:2|0:0,0:0:0:0:
300,158,46773,2,0,P|343:170|386:162,1,88,2|0,1:2|0:0,0:0:0:0:
189,38,47034,5,0,1:0:0:0:
189,38,47164,2,0,L|231:116,1,88,2|0,1:2|0:0,0:0:0:0:
391,249,47425,2,0,P|305:253|254:322,1,176,2|0,1:2|0:0,0:0:0:0:
318,119,47817,1,2,1:2:0:0:
184,190,47948,1,0,1:0:0:0:
189,38,48078,5,2,1:2:0:0:
272,193,48208,1,0,1:0:0:0:
366,45,48338,2,0,P|332:32|278:41,1,88,2|0,1:2|0:0,0:0:0:0:
225,268,48599,2,0,P|259:281|312:271,1,88,2|0,1:2|0:0,0:0:0:0:
144,114,48860,2,0,P|110:101|56:110,1,88,2|0,1:2|0:0,0:0:0:0:
134,352,49121,6,0,L|138:265,1,88,2|0,1:2|0:0,0:0:0:0:
346,240,49382,2,0,L|272:193,1,88,2|0,1:2|0:0,0:0:0:0:
22,95,49643,2,0,P|122:122|190:-8,1,264,2|0,1:2|0:0,0:0:0:0:
184,190,50164,6,0,B|201:252|201:252|249:284|249:284|264:346,1,185.68000382489,2|0,1:2|0:0,0:0:0:0:
146,308,50556,1,0,0:0:0:0:
302,227,50686,2,0,L|397:178,1,88,2|0,0:0|0:0,0:0:0:0:
222,73,50947,2,0,L|126:122,1,88,2|0,0:0|0:0,0:0:0:0:
146,308,51208,6,0,P|256:350|302:226,1,185.68000382489,2|0,1:2|0:0,0:0:0:0:
302,227,51599,1,0,0:0:0:0:
450,322,51730,2,0,L|524:369,1,88,2|0,0:0|0:0,0:0:0:0:
298,315,51991,2,0,L|223:267,1,88,2|0,0:0|0:0,0:0:0:0:
144,113,52251,5,2,1:2:0:0:
96,186,52382,1,0,0:0:0:0:
29,270,52512,1,2,0:0:0:0:
68,348,52643,1,0,0:0:0:0:
176,340,52773,1,2,0:0:0:0:
224,267,52904,1,0,0:0:0:0:
332,259,53034,1,2,0:0:0:0:
371,337,53165,1,0,0:0:0:0:
479,329,53295,6,0,L|438:250,1,88,2|0,1:2|0:0,0:0:0:0:
291,158,53556,2,0,L|378:162,1,88,2|0,0:0|0:0,0:0:0:0:
299,33,53817,2,0,L|211:28,1,88,2|0,0:0|0:0,0:0:0:0:
96,186,54077,1,2,0:0:0:0:
144,113,54208,1,0,0:0:0:0:
29,270,54338,5,2,1:2:0:0:
178,279,54469,1,2,0:0:0:0:
162,294,54534,1,0,0:0:0:0:
146,308,54599,2,0,L|64:350,1,88,0|0,1:0|0:0,0:0:0:0:
23,138,54860,1,2,0:0:0:0:
96,186,54991,1,0,0:0:0:0:
184,191,55121,1,2,1:2:0:0:
257,239,55251,1,0,0:0:0:0:
412,160,55382,5,2,1:2:0:0:
263,151,55513,1,2,0:0:0:0:
279,136,55578,1,0,0:0:0:0:
295,122,55643,2,0,L|377:80,1,88,0|0,1:0|0:0,0:0:0:0:
418,292,55904,1,2,0:0:0:0:
345,244,56035,1,0,0:0:0:0:
257,239,56165,1,2,1:2:0:0:
184,191,56295,1,0,0:0:0:0:
29,270,56425,5,2,1:2:0:0:
178,279,56556,1,0,0:0:0:0:
111,143,56686,2,0,P|104:86|116:55,1,88,2|0,1:2|0:0,0:0:0:0:
257,239,56947,2,0,P|264:296|252:327,1,88,2|0,1:2|0:0,0:0:0:0:
42,347,57208,1,2,1:2:0:0:
178,279,57338,1,0,0:0:0:0:
50,195,57469,5,2,1:2:0:0:
119,332,57599,1,0,1:0:0:0:
184,191,57730,1,0,1:2:0:0:
29,270,57860,1,0,1:0:0:0:
189,103,57991,2,0,L|194:15,1,88,2|0,1:2|0:0,0:0:0:0:
413,159,58251,2,0,L|335:199,1,88,2|0,1:2|0:0,0:0:0:0:
178,279,58512,6,0,L|173:367,1,88,2|0,1:2|0:0,0:0:0:0:
277,108,58773,2,0,L|282:20,1,88,2|0,1:2|0:0,0:0:0:0:
111,143,59034,1,2,1:2:0:0:
184,191,59164,1,0,0:0:0:0:
349,156,59294,1,2,1:2:0:0:
397,83,59425,1,0,0:0:0:0:
272,196,59556,6,0,L|267:284,1,88,2|0,1:2|0:0,0:0:0:0:
218,357,59817,1,0,1:0:0:0:
423,204,59947,2,0,L|349:155,1,88,2|0,1:2|0:0,0:0:0:0:
309,77,60208,1,0,0:0:0:0:
511,209,60338,1,0,1:0:0:0:
374,277,60469,1,0,0:0:0:0:
471,131,60599,6,0,P|468:106|431:53,1,88,2|0,1:2|0:0,0:0:0:0:
357,4,60860,1,0,1:0:0:0:
184,191,60991,2,0,P|192:233|220:267,1,88,2|0,1:2|0:0,0:0:0:0:
295,316,61252,1,0,0:0:0:0:
189,102,61382,1,0,1:0:0:0:
316,186,61512,1,0,0:0:0:0:
237,29,61643,6,0,P|196:14|153:22,1,88,2|0,1:2|0:3,0:3:0:0:
100,97,61904,1,0,1:0:0:0:
130,352,62034,2,0,P|171:367|214:359,1,88,2|0,1:2|0:3,0:3:0:0:
267,284,62295,1,0,1:0:0:0:
198,149,62426,1,2,1:2:0:0:
350,156,62556,1,0,1:0:0:0:
193,236,62686,6,0,L|119:187,1,88,2|0,1:2|0:0,0:0:0:0:
355,68,62947,2,0,L|350:156,1,88,2|0,1:2|0:0,0:0:0:0:
124,99,63208,2,0,L|129:11,1,88,2|0,1:2|0:0,0:0:0:0:
271,195,63469,2,0,L|192:235,1,88,2|0,1:2|0:0,0:0:0:0:
429,312,63730,5,2,1:2:0:0:
429,312,63860,2,0,L|390:233,1,88,2|0,1:2|0:0,0:0:0:0:
203,323,64121,2,0,L|370:378,1,176,2|0,1:2|0:0,0:0:0:0:
271,195,64512,1,2,1:2:0:0:
193,236,64642,1,0,1:0:0:0:
277,108,64773,5,0,1:0:0:0:
120,187,64904,1,0,1:0:0:0:
271,195,65034,2,0,P|320:184|349:155,1,88,0|0,1:0|0:0,0:0:0:0:
120,187,65295,2,0,P|105:234|115:274,1,88,0|0,1:0|0:0,0:0:0:0:
203,61,65556,2,0,P|168:24|129:12,1,88,0|0,1:0|0:0,0:0:0:0:
193,236,65817,6,0,L|188:323,1,88,0|0,1:0|0:0,0:0:0:0:
277,108,66077,2,0,L|355:68,1,88,0|0,1:0|0:0,0:0:0:0:
125,100,66338,2,0,L|51:51,1,88,0|0,1:0|0:0,0:0:0:0:
198,149,66860,5,0,1:0:0:0:
203,61,67121,1,0,0:0:0:0:
223,41,67251,1,2,0:0:0:0:
251,215,67512,1,0,0:0:0:0:
271,195,67643,2,0,L|303:166,1,44
120,187,67903,1,0,1:0:0:0:
198,149,68165,1,0,0:0:0:0:
206,176,68295,1,2,0:0:0:0:
41,113,68556,1,0,0:0:0:0:
47,140,68686,2,0,L|66:224,1,44
203,61,68947,5,2,1:2:0:0:
198,149,69077,1,2,0:0:0:0:
198,149,69143,1,0,0:0:0:0:
198,149,69208,2,0,P|204:164|193:236,1,88,2|0,0:0|0:0,0:0:0:0:
41,224,69469,2,0,P|33:182|48:141,1,88,2|0,0:0|0:0,0:0:0:0:
203,61,69730,1,0,0:0:0:0:
203,61,69860,2,0,B|141:78|141:78|109:126|109:126|47:141,1,185.68000382489,2|0,0:0|0:0,0:0:0:0:
115,275,71034,5,0,1:0:0:0:
193,236,71295,1,0,0:0:0:0:
213,216,71425,1,2,0:0:0:0:
353,272,71686,1,0,0:0:0:0:
345,244,71817,2,0,L|333:201,1,44
277,108,72078,1,0,1:0:0:0:
271,195,72339,1,0,0:0:0:0:
279,222,72469,1,2,0:0:0:0:
160,315,72730,1,0,0:0:0:0:
188,322,72860,2,0,L|232:333,1,44
120,187,73121,6,0,L|47:139,1,88,0|0,1:0|0:0,0:0:0:0:
203,61,73382,2,0,L|197:148,1,88,2|0,0:0|0:0,0:0:0:0:
115,275,73643,1,2,0:0:0:0:
115,275,73773,2,0,B|177:260|177:260|209:212|209:212|271:195,1,185.68000382489,2|0,0:0|0:0,0:0:0:0:
202,60,74165,2,0,P|137:13|49:54,1,183.039998882813,2|0,1:2|0:0,0:0:0:0:
119,186,75208,6,0,P|285:152|124:100,1,457.599997207031,2|0,1:2|0:0,0:0:0:0:
42,225,76773,1,2,1:2:0:0:
46,139,76904,1,0,0:0:0:0:
119,186,77034,1,2,0:0:0:0:
197,148,77164,1,0,0:0:0:0:
192,235,77295,5,0,1:0:0:0:
116,273,77425,1,2,0:0:0:0:
116,273,77491,1,0,0:0:0:0:
116,273,77556,2,0,L|112:373,1,88,2|0,0:0|0:0,0:0:0:0:
261,371,77817,2,0,L|265:284,1,88,2|0,0:0|0:0,0:0:0:0:
275,109,78077,1,2,0:0:0:0:
275,109,78208,2,0,B|256:170|256:170|282:221|282:221|264:288,1,185.68000382489,2|0,0:0|0:0,0:0:0:0:
458,371,78860,1,2,1:2:0:0:
385,322,78990,1,2,0:0:0:0:
346,244,79121,1,2,0:0:0:0:
351,158,79252,1,0,0:0:0:0:
280,111,79382,6,0,P|114:145|275:197,1,457.599997207031,2|0,1:2|0:0,0:0:0:0:
357,72,80947,2,0,L|353:172,1,88,2|0,1:2|0:0,0:0:0:0:
423,295,81469,6,0,L|427:195,1,88,2|0,1:2|0:0,0:0:0:0:
274,197,81730,2,0,L|270:284,1,88,2|0,0:0|0:0,0:0:0:0:
416,382,81991,1,2,0:0:0:0:
416,382,82121,2,0,B|371:336|371:336|313:331|313:331|270:284,1,185.68000382489,2|0,0:0|0:0,0:0:0:0:
426,207,82512,2,0,P|361:158|273:198,1,185.68000382489,2|0,1:2|0:0,0:0:0:0:
343,332,83556,6,0,L|347:244,1,88,2|0,1:2|0:0,0:0:0:0:
354,91,83817,1,0,0:0:0:0:
232,118,83947,2,0,L|306:165,1,88,2|0,0:0|0:0,0:0:0:0:
435,248,84208,1,0,0:0:0:0:
472,129,84338,2,0,L|394:169,1,88,2|0,0:0|0:0,0:0:0:0:
181,280,84599,6,0,L|259:240,1,88,2|0,1:2|0:0,0:0:0:0:
394,169,84860,1,0,0:0:0:0:
310,77,84991,2,0,L|306:165,1,88,2|0,0:0|0:0,0:0:0:0:
298,316,85251,1,0,0:0:0:0:
421,291,85382,2,0,L|347:244,1,88,2|0,0:0|0:0,0:0:0:0:
185,192,85643,5,2,1:2:0:0:
320,123,85773,1,0,0:0:0:0:
313,144,85838,1,0,0:0:0:0:
306,165,85904,2,0,L|231:118,1,88,2|0,0:0|0:0,0:0:0:0:
64,219,86165,2,0,L|110:145,1,88,2|0,1:2|0:0,0:0:0:0:
279,43,86425,2,0,L|232:118,1,88,2|0,0:0|0:0,0:0:0:0:
36,98,86686,6,0,L|111:145,1,88,2|0,1:2|0:0,0:0:0:0:
215,322,86947,2,0,L|195:235,1,88,2|0,0:0|0:0,0:0:0:0:
222,223,87142,1,0,0:0:0:0:
241,201,87207,1,2,1:2:0:0:
250,173,87272,1,0,0:0:0:0:
246,143,87337,1,2,0:0:0:0:
232,117,87403,1,0,0:0:0:0:
207,101,87468,1,2,0:0:0:0:
178,95,87533,1,0,0:0:0:0:
149,101,87598,1,2,0:0:0:0:
125,119,87663,1,0,0:0:0:0:
111,145,87730,6,0,L|107:233,1,88,2|0,1:2|0:0,0:0:0:0:
192,325,87991,1,0,0:0:0:0:
273,196,88121,2,0,L|232:118,1,88,2|0,0:0|0:0,0:0:0:0:
172,9,88382,1,0,0:0:0:0:
323,34,88512,2,0,L|398:81,1,88,2|0,0:0|0:0,0:0:0:0:
437,248,88773,6,0,L|440:159,1,88,2|0,1:2|0:0,0:0:0:0:
321,122,89034,1,0,0:0:0:0:
315,274,89164,2,0,L|274:196,1,88,2|0,0:0|0:0,0:0:0:0:
152,225,89425,1,0,0:0:0:0:
225,359,89555,2,0,L|150:312,1,88,2|0,0:0|0:0,0:0:0:0:
232,118,89817,6,0,L|273:196,1,88,2|0,1:2|0:0,0:0:0:0:
437,248,90077,2,0,L|440:159,1,88,2|0,0:0|0:0,0:0:0:0:
323,34,90338,2,0,L|398:81,1,88,2|0,1:2|0:0,0:0:0:0:
315,274,90599,2,0,L|274:196,1,88,2|0,0:0|0:0,0:0:0:0:
111,145,90860,6,0,L|107:233,1,88,2|0,1:2|0:0,0:0:0:0:
225,359,91121,2,0,L|150:312,1,88,2|0,0:0|0:0,0:0:0:0:
18,140,91382,2,0,L|104:158,1,88,2|0,1:2|0:0,0:0:0:0:
43,332,91643,2,0,L|76:249,1,88,2|0,0:0|0:0,0:0:0:0:
205,61,91904,6,0,L|201:149,1,88,2|0,1:2|0:0,0:0:0:0:
194,302,92165,1,0,0:0:0:0:
316,275,92295,2,0,L|242:228,1,88,2|0,0:0|0:0,0:0:0:0:
113,145,92556,1,0,0:0:0:0:
76,264,92686,2,0,L|154:224,1,88,2|0,0:0|0:0,0:0:0:0:
367,113,92947,6,0,L|289:153,1,88,2|0,1:2|0:0,0:0:0:0:
154,224,93208,1,0,0:0:0:0:
238,316,93339,2,0,L|242:228,1,88,2|0,0:0|0:0,0:0:0:0:
250,77,93599,1,0,0:0:0:0:
127,102,93730,2,0,L|201:149,1,88,2|0,0:0|0:0,0:0:0:0:
363,201,93991,5,2,1:2:0:0:
228,270,94121,1,0,0:0:0:0:
235,249,94186,1,0,0:0:0:0:
242,228,94252,2,0,L|317:275,1,88,2|0,0:0|0:0,0:0:0:0:
484,174,94513,2,0,L|438:248,1,88,2|0,1:2|0:0,0:0:0:0:
269,350,94773,2,0,L|316:275,1,88,2|0,0:0|0:0,0:0:0:0:
512,295,95034,6,0,L|437:248,1,88,2|0,1:2|0:0,0:0:0:0:
333,71,95295,2,0,L|353:158,1,88,2|0,0:0|0:0,0:0:0:0:
326,170,95490,1,0,0:0:0:0:
307,192,95555,1,2,1:2:0:0:
298,220,95620,1,0,0:0:0:0:
302,250,95685,1,2,0:0:0:0:
316,276,95751,1,0,0:0:0:0:
341,292,95816,1,2,0:0:0:0:
370,298,95881,1,0,0:0:0:0:
399,292,95946,1,2,0:0:0:0:
423,274,96011,1,0,0:0:0:0:
437,248,96078,6,0,L|440:159,1,88,2|0,1:2|0:0,0:0:0:0:
356,68,96339,1,0,0:0:0:0:
273,196,96469,2,0,L|232:118,1,88,2|0,0:0|0:0,0:0:0:0:
176,7,96730,1,0,0:0:0:0:
111,145,96860,2,0,L|107:233,1,88,2|0,0:0|0:0,0:0:0:0:
225,359,97121,6,0,L|150:312,1,88,2|0,1:2|0:0,0:0:0:0:
186,193,97382,1,0,0:0:0:0:
315,274,97512,2,0,L|274:196,1,88,2|0,0:0|0:0,0:0:0:0:
188,106,97773,1,0,0:0:0:0:
323,35,97903,2,0,L|398:82,1,88,2|0,0:0|0:0,0:0:0:0:
437,248,98165,6,0,P|407:215|396:173,1,88,2|0,1:2|0:0,0:0:0:0:
184,284,98426,2,0,P|213:316|225:359,1,88,2|0,1:2|0:0,0:0:0:0:
320,122,98686,1,0,1:0:0:0:
320,122,98817,2,0,P|232:118|185:193,1,184.976004657141,2|0,1:2|0:0,0:0:0:0:
362,199,99208,6,0,L|429:143,1,46.2440011642853,2|0,1:2|0:0,0:0:0:0:
316,273,99338,2,0,L|397:304,1,46.2440011642853
227,270,99469,2,0,L|239:357,1,46.2440011642853,2|0,0:0|0:0,0:0:0:0:
185,192,99599,1,2,0:0:0:0:
185,192,99664,1,2,0:0:0:0:
185,193,99730,2,0,L|105:234,1,46.2440011642853,2|0,1:2|0:0,0:0:0:0:
142,115,99860,2,0,L|128:28,1,46.2440011642853
54,112,99991,2,0,L|-27:79,1,46.2440011642853,2|0,0:0|0:0,0:0:0:0:
8,187,100121,2,0,L|-60:241,1,46.2440011642853
49,263,100251,5,6,1:2:0:0:
