osu file format v14

[General]
AudioFilename: audio.mp3
AudioLeadIn: 0
PreviewTime: -1
Countdown: 1
SampleSet: Normal
StackLeniency: 0.7
Mode: 0
LetterboxInBreaks: 0
WidescreenStoryboard: 0

[Editor]
DistanceSpacing: 1
BeatDivisor: 4
GridSize: 32
TimelineZoom: 1

[Metadata]
Title:Spider Dance (Dual Mix)
TitleUnicode:Spider Dance (Dual Mix)
Artist:toby fox
ArtistUnicode:toby fox
Creator:booty
Version:booty
Source:Undertale
Tags:
BeatmapID:1615556
BeatmapSetID:768197

[Difficulty]
HPDrainRate:8
CircleSize:4
OverallDifficulty:8
ApproachRate:9.5
SliderMultiplier:1.4
SliderTickRate:1

[Events]
//Background and Video events
0,0,"a.png",0,0
//Break Periods
//Storyboard Layer 0 (Background)
//Storyboard Layer 1 (Fail)
//Storyboard Layer 2 (Pass)
//Storyboard Layer 3 (Foreground)
//Storyboard Sound Samples

[TimingPoints]
56,272.727272727273,4,1,2,70,1,0
56,-100,4,1,2,70,0,1
6601,-200,4,2,2,60,0,0
8783,-100,4,1,2,70,0,1
15328,-200,4,2,2,60,0,0
17510,-100,4,1,2,70,0,1
24056,-200,4,2,2,60,0,0
26237,-100,4,1,2,70,0,1
32783,-200,4,2,2,60,0,0
34965,-100,4,1,2,40,0,0
35101,-100,4,2,2,60,0,0
39328,-100,4,1,2,40,0,0
39465,-100,4,2,2,60,0,0
43692,-100,4,1,2,40,0,0
43828,-100,4,2,2,60,0,0
48056,-100,4,1,2,40,0,0
48192,-100,4,2,2,60,0,0
51328,-83.3333333333333,4,2,2,70,0,0
51601,-71.4285714285714,4,2,2,70,0,0
51874,-62.5,4,2,2,70,0,0
52419,-100,4,1,2,40,0,0
52556,-100,4,2,2,60,0,0
61146,-100,4,1,2,40,0,0
61283,-100,4,2,2,50,0,0
65510,-100,4,1,2,50,0,0
65646,-100,4,2,2,40,0,0
67692,-100,4,2,2,35,0,0
69056,-83.3333333333333,4,2,2,30,0,0
69328,-71.4285714285714,4,2,2,40,0,0
69874,-100,4,2,2,5,0,0
87328,-100,4,1,2,50,0,0

[HitObjects]
80,97,56,6,0,P|158:106|189:97,1,90
321,49,328,1,2,0:0:0:0:
277,172,465,1,0,0:0:0:0:
216,31,601,1,0,0:0:0:0:
388,150,737,1,0,0:0:0:0:
388,150,874,2,0,P|385:243|374:254,1,90,2|0,0:0|0:0,0:0:0:0:
295,342,1146,6,0,L|185:309,1,90
90,194,1419,1,2,0:0:0:0:
132,284,1556,1,0,0:0:0:0:
249,121,1692,1,0,0:0:0:0:
181,193,1828,1,0,0:0:0:0:
207,53,1965,2,0,P|260:43|302:62,1,90,2|0,0:0|0:0,0:0:0:0:
400,139,2237,6,0,L|415:253,1,90
420,259,2510,1,2,0:0:0:0:
329,197,2646,1,0,0:0:0:0:
220,170,2783,1,0,0:0:0:0:
134,267,2919,1,0,0:0:0:0:
230,153,3056,1,2,0:0:0:0:
205,351,3192,1,0,0:0:0:0:
88,338,3328,6,0,P|57:295|54:259,1,70
87,160,3601,1,2,0:0:0:0:
190,171,3737,2,0,L|201:368,1,180
288,320,4146,1,2,0:0:0:0:
314,317,4215,1,0,0:0:0:0:
340,311,4283,1,0,0:0:0:0:
375,306,4419,6,0,L|482:309,1,90
355,203,4692,2,0,L|248:206,1,90,2|0,0:0|0:0,0:0:0:0:
412,311,4965,2,0,L|519:314,1,90
339,173,5237,2,0,L|232:176,1,90,2|0,0:0|0:0,0:0:0:0:
476,142,5510,5,0,0:0:0:0:
372,14,5646,1,0,0:0:0:0:
490,65,5783,1,2,0:0:0:0:
282,92,5919,1,0,0:0:0:0:
405,174,6056,5,0,0:0:0:0:
344,295,6192,1,0,0:0:0:0:
299,192,6328,1,2,0:0:0:0:
439,259,6465,1,0,0:0:0:0:
246,137,6601,6,0,P|178:97|175:96,2,70,4|2|0,0:0|0:0|0:0,0:0:0:0:
267,303,7419,1,2,0:0:0:0:
267,303,7692,2,0,L|351:305,1,70,4|2,0:0|0:0,0:0:0:0:
476,223,8237,2,0,L|393:209,1,70,4|0,0:0|0:0,0:0:0:0:
313,216,8783,5,0,0:0:0:0:
374,27,8919,1,0,0:0:0:0:
279,37,9056,2,0,L|182:46,1,90,2|0,0:0|0:0,0:0:0:0:
87,87,9328,2,0,P|54:162|63:181,1,90
80,208,9601,1,2,0:0:0:0:
274,146,9737,1,0,0:0:0:0:
204,251,9874,5,0,0:0:0:0:
212,38,10010,1,0,0:0:0:0:
212,38,10146,2,0,P|295:46|313:58,1,90,2|0,0:0|0:0,0:0:0:0:
406,181,10419,1,0,0:0:0:0:
303,202,10556,1,0,0:0:0:0:
461,130,10692,2,0,P|480:187|454:242,1,90,2|0,0:0|0:0,0:0:0:0:
246,150,10965,6,0,P|227:207|240:245,1,70
251,266,11237,1,2,0:0:0:0:
86,329,11374,1,0,0:0:0:0:
144,246,11510,1,0,0:0:0:0:
184,367,11646,1,0,0:0:0:0:
66,253,11783,2,0,P|28:209|26:163,1,90,2|0,0:0|0:0,0:0:0:0:
106,93,12056,6,0,L|105:180,2,70,0|0|2,0:0|0:0|0:0,0:0:0:0:
159,35,12465,2,0,P|235:66|333:48,1,180
408,52,12874,1,2,0:0:0:0:
419,76,12942,1,0,0:0:0:0:
430,100,13010,1,0,0:0:0:0:
458,179,13146,5,0,0:0:0:0:
388,284,13283,1,0,0:0:0:0:
336,205,13419,1,2,0:0:0:0:
467,288,13556,1,0,0:0:0:0:
356,110,13692,5,0,0:0:0:0:
279,318,13828,1,0,0:0:0:0:
199,145,13965,1,2,0:0:0:0:
381,311,14101,1,0,0:0:0:0:
283,190,14237,5,0,0:0:0:0:
77,240,14374,1,0,0:0:0:0:
210,293,14510,1,2,0:0:0:0:
166,149,14646,1,0,0:0:0:0:
43,128,14783,5,0,0:0:0:0:
157,235,14919,1,0,0:0:0:0:
286,11,15056,1,2,0:0:0:0:
135,56,15192,1,0,0:0:0:0:
312,116,15328,6,0,P|380:76|383:75,2,70,4|2|0,0:0|0:0|0:0,0:0:0:0:
193,137,16146,1,2,0:0:0:0:
193,137,16419,2,0,P|170:185|171:213,1,70,4|2,0:0|0:0,0:0:0:0:
336,341,16965,2,0,P|359:293|354:264,1,70,4|0,0:0|0:0,0:0:0:0:
247,187,17510,5,0,0:0:0:0:
454,109,17646,1,0,0:0:0:0:
364,27,17783,2,0,L|235:30,1,90,2|0,0:0|0:0,0:0:0:0:
240,28,18056,1,0,0:0:0:0:
88,137,18192,1,0,0:0:0:0:
105,44,18328,1,2,0:0:0:0:
185,242,18465,1,0,0:0:0:0:
185,242,18601,6,0,L|78:247,1,90
328,167,18874,1,2,0:0:0:0:
262,305,19010,1,0,0:0:0:0:
236,119,19146,2,0,P|229:63|268:27,1,90
346,25,19419,2,0,L|438:32,1,90,2|0,0:0|0:0,0:0:0:0:
468,37,19692,5,0,0:0:0:0:
386,219,19828,1,0,0:0:0:0:
399,119,19965,1,2,0:0:0:0:
484,237,20101,1,0,0:0:0:0:
484,237,20237,2,0,L|494:328,1,90
308,162,20510,2,0,L|298:71,1,90,2|0,0:0|0:0,0:0:0:0:
163,37,20783,6,0,P|117:29|68:51,2,70,0|0|2,0:0|0:0|0:0,0:0:0:0:
222,142,21192,2,0,L|198:358,1,180
67,306,21601,1,2,0:0:0:0:
42,268,21669,1,0,0:0:0:0:
32,224,21737,1,0,0:0:0:0:
61,139,21874,6,0,L|159:122,1,90
255,24,22146,2,0,L|157:41,1,90,2|0,0:0|0:0,0:0:0:0:
133,157,22419,2,0,L|231:140,1,90
327,42,22692,2,0,L|229:59,1,90,2|0,0:0|0:0,0:0:0:0:
352,150,22965,5,0,0:0:0:0:
239,279,23101,1,0,0:0:0:0:
415,224,23237,1,2,0:0:0:0:
300,341,23374,1,0,0:0:0:0:
257,189,23510,2,0,P|249:114|229:94,1,90
76,23,23783,2,0,P|84:98|104:118,1,90,2|0,0:0|0:0,0:0:0:0:
236,44,24056,6,0,L|153:51,2,70,4|2|0,0:0|0:0|0:0,0:0:0:0:
429,61,24874,1,2,0:0:0:0:
429,61,25146,2,0,L|444:145,1,70,4|2,0:0|0:0,0:0:0:0:
364,234,25692,2,0,B|321:243|321:243|283:243,1,70,4|0,0:0|0:0,0:0:0:0:
189,233,26101,1,4,0:3:0:0:
211,334,26237,5,0,0:0:0:0:
319,126,26374,1,0,0:0:0:0:
169,113,26510,1,2,0:0:0:0:
344,114,26646,1,0,0:0:0:0:
129,29,26783,2,0,P|112:81|127:122,1,90
248,334,27056,2,0,P|265:282|250:241,1,90,2|0,0:0|0:0,0:0:0:0:
230,210,27328,5,0,0:0:0:0:
24,301,27465,1,0,0:0:0:0:
123,224,27601,1,2,0:0:0:0:
123,351,27737,1,0,0:0:0:0:
17,182,27874,2,0,P|14:136|48:90,1,90
185,143,28146,1,2,0:0:0:0:
88,154,28283,1,0,0:0:0:0:
202,46,28419,6,0,L|312:52,1,90
334,57,28692,1,2,0:0:0:0:
399,118,28828,1,0,0:0:0:0:
417,206,28965,1,0,0:0:0:0:
383,289,29101,1,0,0:0:0:0:
235,224,29237,2,0,L|329:206,1,90,2|0,0:0|0:0,0:0:0:0:
399,118,29510,6,0,P|393:55|369:31,2,70,0|0|2,0:0|0:0|0:0,0:0:0:0:
286,40,29919,2,0,L|91:68,1,180
15,112,30328,1,2,0:0:0:0:
27,155,30396,1,0,0:0:0:0:
68,171,30465,1,0,0:0:0:0:
140,183,30601,6,0,L|142:282,1,70
231,252,30874,2,0,L|224:352,1,70,2|0,0:0|0:0,0:0:0:0:
326,205,31146,2,0,L|313:278,1,70
406,153,31419,2,0,L|423:251,1,70,2|0,0:0|0:0,0:0:0:0:
462,44,31692,5,0,0:0:0:0:
373,29,31828,1,0,0:0:0:0:
283,44,31965,1,2,0:0:0:0:
211,97,32101,1,0,0:0:0:0:
367,56,32237,5,0,0:0:0:0:
279,74,32374,1,0,0:0:0:0:
200,120,32510,1,2,0:0:0:0:
152,196,32646,1,0,0:0:0:0:
176,320,32783,6,0,L|90:319,2,70,4|2|0,0:0|0:0|0:0,0:0:0:0:
261,256,33601,1,2,0:0:0:0:
261,256,33874,2,0,B|316:254|316:254|340:241,1,70,4|2,0:0|0:0,0:0:0:0:
421,122,34419,1,8,0:0:0:0:
454,213,34556,1,8,0:0:0:0:
359,38,34692,1,8,0:0:0:0:
326,129,34828,1,8,0:0:0:0:
348,17,34965,6,0,L|245:19,1,90,4|0,0:0|0:0,0:0:0:0:
209,75,35237,1,8,0:0:0:0:
130,136,35374,1,0,0:0:0:0:
106,45,35510,2,0,P|63:72|51:141,1,90
37,155,35783,1,8,0:0:0:0:
32,268,35919,1,0,0:0:0:0:
131,276,36056,6,0,L|298:270,1,140,0|8,0:0|0:0,0:0:0:0:
464,345,36465,2,0,L|297:338,1,140
214,314,36874,1,8,0:0:0:0:
118,251,37010,1,0,0:0:0:0:
189,142,37146,6,0,P|198:59|271:28,1,140,0|8,0:0|0:0,0:0:0:0:
457,83,37556,2,0,P|448:166|375:191,1,140
199,167,37965,1,8,0:0:0:0:
295,257,38101,1,0,0:0:0:0:
275,123,38237,6,0,P|180:83|130:113,1,140,0|8,0:0|0:0,0:0:0:0:
35,286,38646,2,0,P|130:326|175:290,1,140
277,127,39056,1,8,0:0:0:0:
371,165,39192,1,0,0:0:0:0:
201,250,39328,6,0,L|88:241,1,90,4|0,0:0|0:0,0:0:0:0:
194,80,39601,1,8,0:0:0:0:
98,125,39737,1,0,0:0:0:0:
276,149,39874,2,0,P|309:202|303:258,1,90
305,262,40146,1,8,0:0:0:0:
356,55,40283,1,0,0:0:0:0:
356,55,40419,6,0,L|187:56,1,140,0|8,0:0|0:0,0:0:0:0:
31,190,40828,2,0,L|203:186,1,140
413,229,41237,1,8,0:0:0:0:
336,293,41374,1,0,0:0:0:0:
469,171,41510,6,0,P|494:242|436:304,1,140,0|8,0:0|0:0,0:0:0:0:
331,182,41919,2,0,P|305:110|363:49,1,140
372,44,42328,1,8,0:0:0:0:
372,44,42465,1,0,0:0:0:0:
351,310,42601,6,0,B|302:349|249:343|249:343|196:321,1,140,0|8,0:0|0:0,0:0:0:0:
68,231,43010,2,0,B|116:191|169:197|169:197|226:212,1,140
234,222,43419,1,8,0:0:0:0:
104,337,43556,1,0,0:0:0:0:
258,141,43692,5,4,0:0:0:0:
289,289,43828,1,0,0:0:0:0:
371,135,43965,2,0,L|272:47,1,90,8|0,0:0|0:0,0:0:0:0:
512,141,44237,2,0,P|535:211|488:289,1,140,0|8,0:0|0:0,0:0:0:0:
403,328,44646,1,0,0:0:0:0:
338,268,44783,5,0,0:0:0:0:
122,178,44919,1,0,0:0:0:0:
199,311,45056,1,8,0:0:0:0:
219,88,45192,2,0,L|384:69,1,140
443,260,45601,1,8,0:0:0:0:
476,146,45737,1,0,0:0:0:0:
321,227,45874,6,0,L|222:227,2,70,0|0|8,0:0|0:0|0:0,0:0:0:0:
122,244,46283,2,0,P|191:287|234:228,1,140
368,52,46692,1,8,0:0:0:0:
340,148,46828,1,0,0:0:0:0:
261,103,46965,6,0,L|139:104,1,90
27,51,47237,1,8,0:0:0:0:
27,51,47374,2,0,P|87:116|159:106,1,140
260,39,47783,1,8,0:0:0:0:
452,84,47919,1,0,0:0:0:0:
268,127,48056,5,4,0:0:0:0:
462,73,48192,1,0,0:0:0:0:
432,206,48328,1,8,0:0:0:0:
438,212,48396,1,0,0:0:0:0:
444,218,48465,1,0,0:0:0:0:
450,224,48533,1,0,0:0:0:0:
456,230,48601,2,0,L|359:289,1,90
214,237,48874,1,8,0:0:0:0:
277,311,49010,1,0,0:0:0:0:
241,124,49146,6,0,L|147:122,2,70,0|0|8,0:0|0:0|0:0,0:0:0:0:
364,21,49556,2,0,P|357:95|275:123,1,140
163,47,49965,2,0,P|106:86|101:111,1,70,8|0,0:0|0:0,0:0:0:0:
133,252,50237,5,0,0:0:0:0:
2,161,50374,1,0,0:0:0:0:
21,307,50510,5,8,0:0:0:0:
157,162,50646,1,0,0:0:0:0:
210,265,50783,5,0,0:0:0:0:
353,203,50919,1,0,0:0:0:0:
414,301,51056,5,8,0:0:0:0:
279,225,51192,1,0,0:0:0:0:
403,151,51328,6,0,P|443:83|441:156,1,161.999995056153,4|0,0:0|0:0,0:0:0:0:
403,151,51601,6,0,P|410:71|456:148,1,188.999994232178,4|0,0:0|0:0,0:0:0:0:
403,151,51874,6,0,P|412:54|445:148,1,216,4|0,0:0|0:0,0:0:0:0:
300,16,52146,5,8,0:0:0:0:
169,140,52283,1,0,0:0:0:0:
270,279,52419,6,0,L|281:176,1,70,4|0,0:0|0:0,0:0:0:0:
369,351,52692,2,0,L|357:250,1,70,8|0,0:0|0:0,0:0:0:0:
444,309,52965,2,0,L|453:208,1,70
213,301,53237,2,0,P|151:309|120:291,1,70,8|0,0:0|0:0,0:0:0:0:
35,150,53510,5,0,0:0:0:0:
75,232,53646,1,0,0:0:0:0:
149,53,53783,2,0,L|154:152,1,70,8|0,0:0|0:0,0:0:0:0:
241,15,54056,2,0,L|233:117,1,70
313,107,54328,2,0,L|317:207,1,70,8|0,0:0|0:0,0:0:0:0:
410,157,54601,5,0,0:0:0:0:
478,92,54737,1,0,0:0:0:0:
387,298,54874,1,8,0:0:0:0:
321,215,55010,1,0,0:0:0:0:
218,314,55146,2,0,L|119:321,1,70
19,213,55419,2,0,L|119:218,1,70,8|0,0:0|0:0,0:0:0:0:
237,195,55692,6,0,L|233:94,1,70
155,167,55965,2,0,L|176:71,1,70,8|0,0:0|0:0,0:0:0:0:
95,103,56237,2,0,L|130:11,1,70
212,166,56510,1,8,0:0:0:0:
51,142,56646,1,0,0:0:0:0:
210,51,56783,5,0,0:0:0:0:
306,29,56919,1,0,0:0:0:0:
316,141,57056,1,8,0:0:0:0:
316,141,57192,1,0,0:0:0:0:
129,160,57328,5,0,0:0:0:0:
239,130,57465,1,0,0:0:0:0:
250,258,57601,1,8,0:0:0:0:
250,258,57737,1,0,0:0:0:0:
30,213,57874,5,0,0:0:0:0:
61,128,58010,1,0,0:0:0:0:
122,61,58146,1,8,0:0:0:0:
206,31,58283,1,0,0:0:0:0:
77,139,58419,5,0,0:0:0:0:
136,90,58556,1,0,0:0:0:0:
208,68,58692,1,8,0:0:0:0:
281,83,58828,1,0,0:0:0:0:
379,148,58965,5,0,0:0:0:0:
379,148,59101,1,0,0:0:0:0:
379,148,59237,2,0,L|389:61,1,70,8|0,0:0|0:0,0:0:0:0:
473,176,59510,2,0,L|459:263,1,70
451,287,59715,1,0,0:0:0:0:
436,322,59783,2,0,L|355:321,1,70,8|0,0:0|0:0,0:0:0:0:
301,244,60056,6,0,L|204:248,1,70
75,161,60328,2,0,L|174:166,1,70,8|0,0:0|0:0,0:0:0:0:
280,271,60601,2,0,L|181:275,1,70
54,188,60874,2,0,L|155:192,1,70,8|0,0:0|0:0,0:0:0:0:
275,60,61146,5,4,0:0:0:0:
363,72,61283,1,0,0:0:0:0:
437,122,61419,1,8,0:0:0:0:
482,200,61556,1,0,0:0:0:0:
482,289,61692,2,0,L|383:287,1,70
274,168,61965,2,0,P|261:244|270:260,1,70,8|0,0:0|0:0,0:0:0:0:
364,158,62237,5,0,0:0:0:0:
124,96,62374,1,0,0:0:0:0:
187,173,62510,1,8,0:0:0:0:
235,35,62646,2,0,L|401:31,1,140
382,36,63056,1,8,0:0:0:0:
382,36,63192,1,0,0:0:0:0:
372,151,63328,6,0,P|278:214|230:203,1,140,0|8,0:0|0:0,0:0:0:0:
66,256,63737,2,0,P|130:197|205:207,1,140
216,209,64146,1,8,0:0:0:0:
216,209,64283,1,0,0:0:0:0:
386,331,64419,6,0,L|375:174,1,140,0|8,0:0|0:0,0:0:0:0:
208,18,64828,2,0,L|218:185,1,140
310,37,65237,1,8,0:0:0:0:
103,134,65374,1,0,0:0:0:0:
222,225,65510,6,0,P|287:207|316:213,1,70,4|0,0:0|0:0,0:0:0:0:
439,253,65783,2,0,L|459:160,1,70,8|0,0:0|0:0,0:0:0:0:
369,130,66056,2,0,L|351:37,1,70
227,107,66328,2,0,L|247:8,1,70,8|0,0:0|0:0,0:0:0:0:
63,157,66601,6,0,P|18:167|-27:146,2,70,0|0|8,0:0|0:0|0:0,0:0:0:0:
139,269,67010,2,0,P|66:228|87:158,1,140
226,114,67419,1,8,0:0:0:0:
129,207,67556,1,0,0:0:0:0:
247,85,67692,6,0,P|314:110|329:133,1,70
411,286,67965,2,0,P|344:261|330:241,1,70,8|0,0:0|0:0,0:0:0:0:
209,182,68237,1,0,0:0:0:0:
241,261,68374,1,0,0:0:0:0:
382,168,68510,2,0,P|397:113|372:83,1,70,8|0,0:0|0:0,0:0:0:0:
240,55,68783,6,0,L|107:66,1,105,4|0,0:0|0:0,0:0:0:0:
10,165,69056,6,0,L|172:179,1,125.999996154785,4|0,0:0|0:0,0:0:0:0:
258,193,69328,6,0,P|145:104|205:236,1,391.99998803711,4|0,0:0|0:0,0:0:0:0:
