osu file format v14

[General]
AudioFilename: toby fox - UNDERTALE Soundtrack - 59 Spider Dance.mp3
AudioLeadIn: 0
PreviewTime: 31304
Countdown: 0
SampleSet: Normal
StackLeniency: 0.7
Mode: 3
LetterboxInBreaks: 0
SpecialStyle: 0
WidescreenStoryboard: 0

[Editor]
DistanceSpacing: 0.8
BeatDivisor: 4
GridSize: 16
TimelineZoom: 1.3

[Metadata]
Title:Spider Dance
TitleUnicode:Spider Dance
Artist:toby fox
ArtistUnicode:toby fox
Creator:Chronocide
Version:Easy
Source:Undertale
Tags:hotland, tea, purple
BeatmapID:1012862
BeatmapSetID:464369

[Difficulty]
HPDrainRate:6
CircleSize:4
OverallDifficulty:7
ApproachRate:5
SliderMultiplier:1.4
SliderTickRate:1

[Events]
//Background and Video events
0,0,"muffet_minimalistic_wallpaper_by_theinksmith-d9p9ce7.jpg",0,0
//Break Periods
//Storyboard Layer 0 (Background)
//Storyboard Layer 1 (Fail)
//Storyboard Layer 2 (Pass)
//Storyboard Layer 3 (Foreground)
//Storyboard Sound Samples

[TimingPoints]
0,521.739130434783,4,1,0,20,1,0
33391,-100,4,1,0,20,0,1
66782,-100,4,1,0,20,0,0

[HitObjects]
448,192,0,5,0,0:0:0:0:
320,192,260,1,0,0:0:0:0:
192,192,521,1,0,0:0:0:0:
64,192,782,1,0,0:0:0:0:
448,192,1043,1,0,0:0:0:0:
192,192,1304,1,0,0:0:0:0:
320,192,1565,1,0,0:0:0:0:
64,192,1826,1,0,0:0:0:0:
448,192,2086,1,0,0:0:0:0:
192,192,2347,1,0,0:0:0:0:
320,192,2608,1,0,0:0:0:0:
64,192,2869,1,0,0:0:0:0:
448,192,3130,1,0,0:0:0:0:
64,192,3391,1,0,0:0:0:0:
320,192,3652,1,0,0:0:0:0:
192,192,3913,1,0,0:0:0:0:
64,192,4173,1,0,0:0:0:0:
320,192,4173,1,0,0:0:0:0:
192,192,4695,1,0,0:0:0:0:
320,192,4695,1,0,0:0:0:0:
192,192,5217,1,0,0:0:0:0:
448,192,5217,1,0,0:0:0:0:
448,192,5739,1,0,0:0:0:0:
320,192,5739,1,0,0:0:0:0:
320,192,6260,1,0,0:0:0:0:
64,192,6260,1,0,0:0:0:0:
192,192,6521,1,0,0:0:0:0:
448,192,6782,1,0,0:0:0:0:
192,192,7043,1,0,0:0:0:0:
320,192,7304,1,0,0:0:0:0:
192,192,7565,1,0,0:0:0:0:
64,192,7826,128,0,8347:0:0:0:0:
448,192,8347,1,0,0:0:0:0:
320,192,8608,1,0,0:0:0:0:
192,192,8869,1,0,0:0:0:0:
64,192,9130,1,0,0:0:0:0:
448,192,9391,1,0,0:0:0:0:
192,192,9652,1,0,0:0:0:0:
320,192,9913,1,0,0:0:0:0:
64,192,10173,1,0,0:0:0:0:
448,192,10434,1,0,0:0:0:0:
192,192,10695,1,0,0:0:0:0:
320,192,10956,1,0,0:0:0:0:
64,192,11217,1,0,0:0:0:0:
320,192,11478,1,0,0:0:0:0:
192,192,11739,1,0,0:0:0:0:
448,192,12000,1,0,0:0:0:0:
320,192,12260,1,0,0:0:0:0:
64,192,12521,1,0,0:0:0:0:
192,192,12521,1,0,0:0:0:0:
320,192,13043,1,0,0:0:0:0:
64,192,13043,1,0,0:0:0:0:
192,192,13565,1,0,0:0:0:0:
320,192,13565,1,0,0:0:0:0:
192,192,14086,1,0,0:0:0:0:
448,192,14086,1,0,0:0:0:0:
320,192,14608,1,0,0:0:0:0:
192,192,14869,1,0,0:0:0:0:
448,192,15130,1,0,0:0:0:0:
64,192,15391,1,0,0:0:0:0:
320,192,15652,1,0,0:0:0:0:
192,192,15913,1,0,0:0:0:0:
64,192,16173,128,0,16695:0:0:0:0:
448,192,16695,1,0,0:0:0:0:
320,192,16956,1,0,0:0:0:0:
192,192,17217,1,0,0:0:0:0:
64,192,17478,1,0,0:0:0:0:
448,192,17739,1,0,0:0:0:0:
192,192,18000,1,0,0:0:0:0:
320,192,18260,1,0,0:0:0:0:
64,192,18521,1,0,0:0:0:0:
448,192,18782,1,0,0:0:0:0:
192,192,19043,1,0,0:0:0:0:
320,192,19304,1,0,0:0:0:0:
64,192,19565,1,0,0:0:0:0:
320,192,19826,1,0,0:0:0:0:
448,192,20086,1,0,0:0:0:0:
64,192,20347,1,0,0:0:0:0:
320,192,20608,1,0,0:0:0:0:
64,192,20869,1,0,0:0:0:0:
192,192,20869,1,0,0:0:0:0:
64,192,21391,1,0,0:0:0:0:
320,192,21391,1,0,0:0:0:0:
192,192,21913,1,0,0:0:0:0:
320,192,21913,1,0,0:0:0:0:
192,192,22434,1,0,0:0:0:0:
448,192,22434,1,0,0:0:0:0:
64,192,22956,1,0,0:0:0:0:
320,192,22956,1,0,0:0:0:0:
192,192,23217,1,0,0:0:0:0:
448,192,23478,1,0,0:0:0:0:
192,192,23739,1,0,0:0:0:0:
320,192,24000,1,0,0:0:0:0:
192,192,24260,1,0,0:0:0:0:
64,192,24521,128,0,25043:0:0:0:0:
448,192,25043,1,0,0:0:0:0:
192,192,25304,1,0,0:0:0:0:
448,192,25565,1,0,0:0:0:0:
192,192,25826,1,0,0:0:0:0:
448,192,26086,1,0,0:0:0:0:
64,192,26347,1,0,0:0:0:0:
320,192,26608,1,0,0:0:0:0:
64,192,26869,1,0,0:0:0:0:
320,192,27130,1,0,0:0:0:0:
192,192,27391,1,0,0:0:0:0:
320,192,27652,1,0,0:0:0:0:
192,192,27913,1,0,0:0:0:0:
320,192,28173,1,0,0:0:0:0:
192,192,28434,1,0,0:0:0:0:
320,192,28695,1,0,0:0:0:0:
192,192,28956,1,0,0:0:0:0:
448,192,29217,1,0,0:0:0:0:
64,192,29217,1,0,0:0:0:0:
320,192,29739,1,0,0:0:0:0:
64,192,29739,1,0,0:0:0:0:
192,192,30260,1,0,0:0:0:0:
64,192,30260,1,0,0:0:0:0:
320,192,30782,1,0,0:0:0:0:
192,192,30782,1,0,0:0:0:0:
448,192,31304,1,0,0:0:0:0:
64,192,31565,1,0,0:0:0:0:
320,192,31826,1,0,0:0:0:0:
64,192,32086,1,0,0:0:0:0:
192,192,32347,1,0,0:0:0:0:
448,192,32608,1,0,0:0:0:0:
320,192,32869,128,0,33391:0:0:0:0:
64,192,33391,128,0,33652:0:0:0:0:
448,192,33652,1,0,0:0:0:0:
64,192,33913,128,0,34173:0:0:0:0:
448,192,34173,1,0,0:0:0:0:
192,192,34434,128,0,34695:0:0:0:0:
320,192,34695,1,0,0:0:0:0:
192,192,34956,128,0,35217:0:0:0:0:
320,192,35217,1,0,0:0:0:0:
448,192,35478,128,0,35739:0:0:0:0:
64,192,35739,1,0,0:0:0:0:
448,192,36000,128,0,36260:0:0:0:0:
64,192,36260,1,0,0:0:0:0:
320,192,36521,128,0,36782:0:0:0:0:
192,192,36782,1,0,0:0:0:0:
320,192,37043,128,0,37304:0:0:0:0:
192,192,37304,1,0,0:0:0:0:
64,192,37565,128,0,37826:0:0:0:0:
320,192,37826,1,0,0:0:0:0:
64,192,38086,128,0,38347:0:0:0:0:
320,192,38347,1,0,0:0:0:0:
192,192,38608,128,0,38869:0:0:0:0:
320,192,38869,1,0,0:0:0:0:
192,192,39130,128,0,39391:0:0:0:0:
320,192,39391,1,0,0:0:0:0:
448,192,39652,128,0,39913:0:0:0:0:
192,192,39913,1,0,0:0:0:0:
448,192,40173,128,0,40434:0:0:0:0:
192,192,40434,1,0,0:0:0:0:
320,192,40695,128,0,40956:0:0:0:0:
192,192,40956,1,0,0:0:0:0:
320,192,41217,128,0,41478:0:0:0:0:
192,192,41478,1,0,0:0:0:0:
64,192,41739,128,0,42000:0:0:0:0:
320,192,42000,1,0,0:0:0:0:
64,192,42260,128,0,42521:0:0:0:0:
320,192,42521,1,0,0:0:0:0:
192,192,42782,128,0,43043:0:0:0:0:
320,192,43043,1,0,0:0:0:0:
192,192,43304,128,0,43565:0:0:0:0:
320,192,43565,1,0,0:0:0:0:
448,192,43826,128,0,44086:0:0:0:0:
192,192,44086,1,0,0:0:0:0:
448,192,44347,128,0,44608:0:0:0:0:
192,192,44608,1,0,0:0:0:0:
320,192,44869,128,0,45130:0:0:0:0:
192,192,45130,1,0,0:0:0:0:
320,192,45391,128,0,45652:0:0:0:0:
192,192,45652,1,0,0:0:0:0:
64,192,45913,128,0,46173:0:0:0:0:
320,192,46173,1,0,0:0:0:0:
64,192,46434,128,0,46695:0:0:0:0:
320,192,46695,1,0,0:0:0:0:
192,192,46956,128,0,47217:0:0:0:0:
320,192,47217,1,0,0:0:0:0:
192,192,47478,128,0,47739:0:0:0:0:
320,192,47739,1,0,0:0:0:0:
448,192,48000,128,0,48260:0:0:0:0:
320,192,48260,1,0,0:0:0:0:
192,192,48521,128,0,48782:0:0:0:0:
448,192,48782,1,0,0:0:0:0:
320,192,49043,128,0,49304:0:0:0:0:
448,192,49304,128,0,49565:0:0:0:0:
64,192,49565,128,0,50086:0:0:0:0:
448,192,50086,1,0,0:0:0:0:
320,192,50347,1,0,0:0:0:0:
64,192,50608,1,0,0:0:0:0:
192,192,50869,1,0,0:0:0:0:
448,192,51130,1,0,0:0:0:0:
320,192,51391,1,0,0:0:0:0:
192,192,51652,1,0,0:0:0:0:
64,192,51913,1,0,0:0:0:0:
192,192,52173,1,0,0:0:0:0:
448,192,52434,1,0,0:0:0:0:
320,192,52695,1,0,0:0:0:0:
192,192,52956,1,0,0:0:0:0:
64,192,53217,1,0,0:0:0:0:
192,192,53478,1,0,0:0:0:0:
448,192,53739,1,0,0:0:0:0:
320,192,54000,1,0,0:0:0:0:
64,192,54260,1,0,0:0:0:0:
192,192,54260,1,0,0:0:0:0:
64,192,54782,1,0,0:0:0:0:
320,192,54782,1,0,0:0:0:0:
192,192,55304,1,0,0:0:0:0:
448,192,55304,1,0,0:0:0:0:
320,192,55826,1,0,0:0:0:0:
64,192,55826,1,0,0:0:0:0:
64,192,56347,1,0,0:0:0:0:
448,192,56608,1,0,0:0:0:0:
320,192,56869,128,0,57130:0:0:0:0:
192,192,57130,128,0,57391:0:0:0:0:
64,192,57391,128,0,57652:0:0:0:0:
192,192,57652,128,0,57913:0:0:0:0:
320,192,57913,128,0,58434:0:0:0:0:
64,192,58434,1,0,0:0:0:0:
192,192,58695,1,0,0:0:0:0:
320,192,58956,1,0,0:0:0:0:
448,192,59217,1,0,0:0:0:0:
64,192,59478,1,0,0:0:0:0:
192,192,59739,1,0,0:0:0:0:
448,192,60000,1,0,0:0:0:0:
64,192,60521,1,0,0:0:0:0:
192,192,60782,1,0,0:0:0:0:
448,192,61043,1,0,0:0:0:0:
64,192,61565,1,0,0:0:0:0:
192,192,61826,1,0,0:0:0:0:
448,192,62086,1,0,0:0:0:0:
192,192,62347,1,0,0:0:0:0:
320,192,62608,1,0,0:0:0:0:
64,192,62869,1,0,0:0:0:0:
320,192,63130,1,0,0:0:0:0:
448,192,63391,1,0,0:0:0:0:
320,192,63652,1,0,0:0:0:0:
192,192,63913,1,0,0:0:0:0:
64,192,64173,1,0,0:0:0:0:
192,192,64434,1,0,0:0:0:0:
448,192,64695,1,0,0:0:0:0:
64,192,65217,1,0,0:0:0:0:
320,192,65739,1,0,0:0:0:0:
192,192,66000,1,0,0:0:0:0:
448,192,66260,128,0,66782:0:0:0:0:
64,192,66782,1,0,0:0:0:0:
320,192,67043,1,0,0:0:0:0:
192,192,67173,1,0,0:0:0:0:
320,192,67434,1,0,0:0:0:0:
192,192,67565,1,0,0:0:0:0:
320,192,68086,1,0,0:0:0:0:
192,192,68217,1,0,0:0:0:0:
320,192,68478,1,0,0:0:0:0:
192,192,68608,1,0,0:0:0:0:
448,192,68869,1,0,0:0:0:0:
64,192,69391,1,0,0:0:0:0:
320,192,69652,1,0,0:0:0:0:
192,192,69782,128,0,70304:0:0:0:0:
64,192,70956,1,0,0:0:0:0:
320,192,71217,1,0,0:0:0:0:
192,192,71347,1,0,0:0:0:0:
320,192,71608,1,0,0:0:0:0:
192,192,71739,1,0,0:0:0:0:
320,192,72260,1,0,0:0:0:0:
192,192,72391,1,0,0:0:0:0:
320,192,72652,1,0,0:0:0:0:
192,192,72782,1,0,0:0:0:0:
64,192,73043,1,0,0:0:0:0:
192,192,73304,1,0,0:0:0:0:
448,192,73565,1,0,0:0:0:0:
192,192,73695,1,0,0:0:0:0:
320,192,73956,1,0,0:0:0:0:
192,192,74086,128,0,74608:0:0:0:0:
448,192,75130,128,0,76695:0:0:0:0:
192,192,76695,128,0,77217:0:0:0:0:
64,192,77217,128,0,78782:0:0:0:0:
320,192,78782,128,0,79304:0:0:0:0:
448,192,79304,128,0,80869:0:0:0:0:
192,192,80869,128,0,81391:0:0:0:0:
320,192,81391,128,0,82434:0:0:0:0:
64,192,82434,128,0,83478:0:0:0:0:
448,192,83478,128,0,83739:0:0:0:0:
192,192,83739,1,0,0:0:0:0:
448,192,84000,128,0,84260:0:0:0:0:
192,192,84260,1,0,0:0:0:0:
448,192,84521,128,0,84782:0:0:0:0:
192,192,84782,1,0,0:0:0:0:
64,192,85043,1,0,0:0:0:0:
320,192,85304,1,0,0:0:0:0:
64,192,85565,128,0,85826:0:0:0:0:
320,192,85826,1,0,0:0:0:0:
64,192,86086,128,0,86347:0:0:0:0:
320,192,86347,1,0,0:0:0:0:
64,192,86608,128,0,86869:0:0:0:0:
320,192,86869,1,0,0:0:0:0:
448,192,87130,1,0,0:0:0:0:
192,192,87391,1,0,0:0:0:0:
448,192,87652,128,0,87913:0:0:0:0:
192,192,87913,1,0,0:0:0:0:
448,192,88173,128,0,88434:0:0:0:0:
192,192,88434,1,0,0:0:0:0:
448,192,88695,128,0,88956:0:0:0:0:
192,192,88956,1,0,0:0:0:0:
192,192,89217,128,0,89478:0:0:0:0:
448,192,89478,1,0,0:0:0:0:
320,192,89739,128,0,90000:0:0:0:0:
64,192,90000,1,0,0:0:0:0:
320,192,90260,128,0,90521:0:0:0:0:
192,192,90521,128,0,90782:0:0:0:0:
448,192,90782,128,0,91043:0:0:0:0:
64,192,91043,1,0,0:0:0:0:
320,192,91304,1,0,0:0:0:0:
192,192,91565,1,0,0:0:0:0:
64,192,91826,128,0,92086:0:0:0:0:
320,192,92086,1,0,0:0:0:0:
64,192,92347,128,0,92608:0:0:0:0:
320,192,92608,1,0,0:0:0:0:
64,192,92869,128,0,93130:0:0:0:0:
320,192,93130,1,0,0:0:0:0:
448,192,93391,1,0,0:0:0:0:
192,192,93652,1,0,0:0:0:0:
448,192,93913,128,0,94173:0:0:0:0:
192,192,94173,1,0,0:0:0:0:
448,192,94434,128,0,94695:0:0:0:0:
192,192,94695,1,0,0:0:0:0:
448,192,94956,128,0,95217:0:0:0:0:
192,192,95217,1,0,0:0:0:0:
64,192,95478,1,0,0:0:0:0:
320,192,95739,1,0,0:0:0:0:
64,192,96000,128,0,96260:0:0:0:0:
320,192,96260,1,0,0:0:0:0:
64,192,96521,128,0,96782:0:0:0:0:
320,192,96782,1,0,0:0:0:0:
64,192,97043,128,0,97304:0:0:0:0:
320,192,97304,1,0,0:0:0:0:
192,192,97565,1,0,0:0:0:0:
448,192,97826,1,0,0:0:0:0:
192,192,98086,1,0,0:0:0:0:
192,192,98347,1,0,0:0:0:0:
320,192,98608,1,0,0:0:0:0:
64,192,98739,1,0,0:0:0:0:
192,192,99000,1,0,0:0:0:0:
448,192,99130,128,0,100173:0:0:0:0:
64,192,100173,1,0,0:0:0:0:
