osu file format v14

[General]
AudioFilename: Toby Fox - Spear of Justice.mp3
AudioLeadIn: 0
PreviewTime: 32443
Countdown: 0
SampleSet: Normal
StackLeniency: 0.7
Mode: 1
LetterboxInBreaks: 0
WidescreenStoryboard: 0

[Editor]
Bookmarks: 80988,81672,82357,83041,83726,84410,85094,85779,91825,92167,92509,92737,92965,93193,93536,93878,94106,94334,94562,94904,95247,95475,95703,95931,96273,96615,96844,97072,97300
DistanceSpacing: 0.6
BeatDivisor: 4
GridSize: 32
TimelineZoom: 3.700001

[Metadata]
Title:Spear of Justice
TitleUnicode:Spear of Justice
Artist:toby fox
ArtistUnicode:toby fox
Creator:Surono
Version:Oni
Source:UNDERTALE
Tags:radiation Undyne theme boss
BeatmapID:1166593
BeatmapSetID:550611

[Difficulty]
HPDrainRate:6
CircleSize:2
OverallDifficulty:6
ApproachRate:10
SliderMultiplier:1.3
SliderTickRate:1

[Events]
//Background and Video events
0,0,"wallhaven-280609.jpg",0,50
//Break Periods
//Storyboard Layer 0 (Background)
//Storyboard Layer 1 (Fail)
//Storyboard Layer 2 (Pass)
//Storyboard Layer 3 (Foreground)
//Storyboard Sound Samples

[TimingPoints]
141,228.136882129278,6,1,0,69,1,0
22042,-100,6,1,0,69,0,1
37099,228.136882129278,6,1,0,69,1,0
91851,-100,6,1,0,69,0,1
113752,-100,6,1,0,69,0,0

[HitObjects]
256,192,141,5,4,0:0:0:0:
256,192,483,1,0,0:0:0:0:
256,192,711,1,0,0:0:0:0:
256,192,825,1,8,0:0:0:0:
256,192,1053,1,0,0:0:0:0:
256,192,1281,1,0,0:0:0:0:
256,192,1509,1,12,0:0:0:0:
256,192,1852,1,0,0:0:0:0:
256,192,2080,1,0,0:0:0:0:
256,192,2194,1,8,0:0:0:0:
256,192,2422,1,0,0:0:0:0:
256,192,2650,1,0,0:0:0:0:
256,192,2878,1,4,0:0:0:0:
256,192,3220,1,0,0:0:0:0:
256,192,3448,1,0,0:0:0:0:
256,192,3563,1,8,0:0:0:0:
256,192,3791,1,0,0:0:0:0:
256,192,4019,1,8,0:0:0:0:
256,192,4247,1,4,0:0:0:0:
256,192,4475,1,8,0:0:0:0:
256,192,4703,1,8,0:0:0:0:
256,192,4931,1,12,0:0:0:0:
256,192,5160,1,0,0:0:0:0:
256,192,5388,1,0,0:0:0:0:
256,192,5616,1,4,0:0:0:0:
256,192,5958,1,0,0:0:0:0:
256,192,6186,1,0,0:0:0:0:
256,192,6300,1,8,0:0:0:0:
256,192,6528,1,0,0:0:0:0:
256,192,6756,1,0,0:0:0:0:
256,192,6985,1,12,0:0:0:0:
256,192,7327,1,0,0:0:0:0:
256,192,7555,1,0,0:0:0:0:
256,192,7669,1,8,0:0:0:0:
256,192,7897,1,0,0:0:0:0:
256,192,8125,1,0,0:0:0:0:
256,192,8353,1,4,0:0:0:0:
256,192,8696,1,0,0:0:0:0:
256,192,8924,1,0,0:0:0:0:
256,192,9038,1,8,0:0:0:0:
256,192,9266,1,0,0:0:0:0:
256,192,9494,1,8,0:0:0:0:
256,192,9722,1,4,0:0:0:0:
256,192,9950,1,8,0:0:0:0:
256,192,10179,1,8,0:0:0:0:
256,192,10407,1,12,0:0:0:0:
256,192,10635,1,0,0:0:0:0:
256,192,10863,1,0,0:0:0:0:
256,192,11091,1,4,0:0:0:0:
256,192,11319,1,0,0:0:0:0:
256,192,11433,1,8,0:0:0:0:
256,192,11547,1,0,0:0:0:0:
256,192,11661,1,0,0:0:0:0:
256,192,11775,1,8,0:0:0:0:
256,192,11890,1,0,0:0:0:0:
256,192,12004,1,8,0:0:0:0:
256,192,12232,1,8,0:0:0:0:
256,192,12460,1,4,0:0:0:0:
256,192,12688,1,0,0:0:0:0:
256,192,12802,1,8,0:0:0:0:
256,192,12916,1,0,0:0:0:0:
256,192,13030,1,0,0:0:0:0:
256,192,13144,1,8,0:0:0:0:
256,192,13258,1,0,0:0:0:0:
256,192,13372,1,8,0:0:0:0:
256,192,13601,1,8,0:0:0:0:
256,192,13829,1,4,0:0:0:0:
256,192,14057,1,0,0:0:0:0:
256,192,14171,1,8,0:0:0:0:
256,192,14285,1,0,0:0:0:0:
256,192,14399,1,0,0:0:0:0:
256,192,14513,1,8,0:0:0:0:
256,192,14627,1,0,0:0:0:0:
256,192,14741,1,8,0:0:0:0:
256,192,14969,1,8,0:0:0:0:
256,192,15083,1,8,0:0:0:0:
256,192,15198,1,4,0:0:0:0:
256,192,15426,1,0,0:0:0:0:
256,192,15654,1,0,0:0:0:0:
256,192,15768,1,0,0:0:0:0:
256,192,15882,1,12,0:0:0:0:
256,192,16110,1,8,0:0:0:0:
256,192,16224,1,0,0:0:0:0:
256,192,16338,1,8,0:0:0:0:
256,192,16452,1,8,0:0:0:0:
256,192,16566,1,4,0:0:0:0:
256,192,16794,1,0,0:0:0:0:
256,192,16909,1,8,0:0:0:0:
256,192,17023,1,0,0:0:0:0:
256,192,17137,1,0,0:0:0:0:
256,192,17251,1,8,0:0:0:0:
256,192,17365,1,0,0:0:0:0:
256,192,17479,1,8,0:0:0:0:
256,192,17707,1,8,0:0:0:0:
256,192,17935,1,4,0:0:0:0:
256,192,18163,1,0,0:0:0:0:
256,192,18277,1,8,0:0:0:0:
256,192,18391,1,0,0:0:0:0:
256,192,18506,1,0,0:0:0:0:
256,192,18620,1,8,0:0:0:0:
256,192,18734,1,0,0:0:0:0:
256,192,18848,1,8,0:0:0:0:
256,192,19076,1,8,0:0:0:0:
256,192,19304,1,4,0:0:0:0:
256,192,19532,1,0,0:0:0:0:
256,192,19646,1,8,0:0:0:0:
256,192,19760,1,0,0:0:0:0:
256,192,19874,1,0,0:0:0:0:
256,192,19988,1,8,0:0:0:0:
256,192,20102,1,0,0:0:0:0:
256,192,20217,1,8,0:0:0:0:
256,192,20445,1,8,0:0:0:0:
256,192,20559,1,8,0:0:0:0:
256,192,20673,1,4,0:0:0:0:
256,192,20901,1,0,0:0:0:0:
256,192,21129,1,0,0:0:0:0:
256,192,21243,1,0,0:0:0:0:
256,192,21357,1,12,0:0:0:0:
256,192,21585,1,8,0:0:0:0:
256,192,21699,1,0,0:0:0:0:
256,192,21756,1,0,0:0:0:0:
256,192,21814,1,8,0:0:0:0:
256,192,21928,1,0,0:0:0:0:
256,192,22042,1,4,0:0:0:0:
256,192,22270,1,0,0:0:0:0:
256,192,22384,1,8,0:0:0:0:
256,192,22612,1,0,0:0:0:0:
256,192,22726,1,8,0:0:0:0:
256,192,22840,1,0,0:0:0:0:
256,192,22954,1,8,0:0:0:0:
256,192,23011,1,8,0:0:0:0:
256,192,23068,1,0,0:0:0:0:
256,192,23182,1,8,0:0:0:0:
256,192,23410,1,4,0:0:0:0:
256,192,23639,1,0,0:0:0:0:
256,192,23753,1,8,0:0:0:0:
256,192,23981,1,0,0:0:0:0:
256,192,24095,1,8,0:0:0:0:
256,192,24209,1,0,0:0:0:0:
256,192,24323,1,8,0:0:0:0:
256,192,24380,1,8,0:0:0:0:
256,192,24437,1,0,0:0:0:0:
256,192,24551,1,8,0:0:0:0:
256,192,24779,1,4,0:0:0:0:
256,192,25007,1,0,0:0:0:0:
256,192,25121,1,8,0:0:0:0:
256,192,25350,1,0,0:0:0:0:
256,192,25464,1,8,0:0:0:0:
256,192,25578,1,0,0:0:0:0:
256,192,25692,1,8,0:0:0:0:
256,192,25749,1,8,0:0:0:0:
256,192,25806,1,0,0:0:0:0:
256,192,25920,1,8,0:0:0:0:
256,192,26034,1,8,0:0:0:0:
256,192,26148,1,4,0:0:0:0:
256,192,26376,1,0,0:0:0:0:
256,192,26490,1,8,0:0:0:0:
256,192,26604,1,0,0:0:0:0:
256,192,26718,1,0,0:0:0:0:
256,192,26833,1,12,0:0:0:0:
256,192,27061,1,8,0:0:0:0:
256,192,27175,1,0,0:0:0:0:
256,192,27232,1,0,0:0:0:0:
256,192,27289,1,8,0:0:0:0:
256,192,27403,1,0,0:0:0:0:
256,192,27517,1,4,0:0:0:0:
256,192,27745,1,0,0:0:0:0:
256,192,27859,1,8,0:0:0:0:
256,192,28087,1,0,0:0:0:0:
256,192,28201,1,8,0:0:0:0:
256,192,28315,1,0,0:0:0:0:
256,192,28429,1,8,0:0:0:0:
256,192,28487,1,8,0:0:0:0:
256,192,28544,1,0,0:0:0:0:
256,192,28658,1,8,0:0:0:0:
256,192,28886,1,4,0:0:0:0:
256,192,29114,1,0,0:0:0:0:
256,192,29228,1,8,0:0:0:0:
256,192,29456,1,0,0:0:0:0:
256,192,29570,1,8,0:0:0:0:
256,192,29684,1,0,0:0:0:0:
256,192,29798,1,8,0:0:0:0:
256,192,29855,1,8,0:0:0:0:
256,192,29912,1,0,0:0:0:0:
256,192,30026,1,8,0:0:0:0:
256,192,30255,1,4,0:0:0:0:
256,192,30483,1,0,0:0:0:0:
256,192,30597,1,8,0:0:0:0:
256,192,30825,1,0,0:0:0:0:
256,192,30939,1,8,0:0:0:0:
256,192,31053,1,0,0:0:0:0:
256,192,31167,1,8,0:0:0:0:
256,192,31224,1,8,0:0:0:0:
256,192,31281,1,0,0:0:0:0:
256,192,31395,1,8,0:0:0:0:
256,192,31509,1,8,0:0:0:0:
256,192,31623,1,4,0:0:0:0:
256,192,31852,1,0,0:0:0:0:
256,192,31966,1,8,0:0:0:0:
256,192,32080,1,0,0:0:0:0:
256,192,32194,1,8,0:0:0:0:
256,192,32308,1,4,0:0:0:0:
256,192,32536,1,8,0:0:0:0:
256,192,32650,1,0,0:0:0:0:
256,192,32764,1,8,0:0:0:0:
256,192,32992,1,4,0:0:0:0:
256,192,33220,1,0,0:0:0:0:
256,192,33334,1,8,0:0:0:0:
256,192,33448,1,8,0:0:0:0:
256,192,33677,1,12,0:0:0:0:
256,192,33905,1,8,0:0:0:0:
256,192,34019,1,0,0:0:0:0:
256,192,34133,1,8,0:0:0:0:
256,192,34361,1,4,0:0:0:0:
256,192,34589,1,0,0:0:0:0:
256,192,34703,1,8,0:0:0:0:
256,192,34817,1,0,0:0:0:0:
256,192,35045,1,12,0:0:0:0:
256,192,35274,1,8,0:0:0:0:
256,192,35388,1,0,0:0:0:0:
256,192,35502,1,8,0:0:0:0:
256,192,35730,1,4,0:0:0:0:
256,192,35958,1,8,0:0:0:0:
256,192,36072,1,0,0:0:0:0:
256,192,36186,1,8,0:0:0:0:
256,192,36300,1,0,0:0:0:0:
256,192,36414,1,12,0:0:0:0:
256,192,36756,1,0,0:0:0:0:
256,192,36871,1,0,0:0:0:0:
256,192,36985,1,0,0:0:0:0:
256,192,37099,1,8,0:0:0:0:
256,192,37327,1,0,0:0:0:0:
256,192,37441,1,8,0:0:0:0:
256,192,37555,1,0,0:0:0:0:
256,192,37669,1,0,0:0:0:0:
256,192,37783,1,8,0:0:0:0:
256,192,38011,1,8,0:0:0:0:
256,192,38125,1,0,0:0:0:0:
256,192,38239,1,0,0:0:0:0:
256,192,38353,1,0,0:0:0:0:
256,192,38467,1,8,0:0:0:0:
256,192,38696,1,0,0:0:0:0:
256,192,38810,1,8,0:0:0:0:
256,192,38924,1,0,0:0:0:0:
256,192,39038,1,0,0:0:0:0:
256,192,39095,1,0,0:0:0:0:
256,192,39152,1,0,0:0:0:0:
256,192,39380,1,8,0:0:0:0:
256,192,39494,1,0,0:0:0:0:
256,192,39608,1,8,0:0:0:0:
256,192,39722,1,8,0:0:0:0:
256,192,39836,1,0,0:0:0:0:
256,192,40064,1,0,0:0:0:0:
256,192,40179,1,8,0:0:0:0:
256,192,40407,1,8,0:0:0:0:
256,192,40521,1,8,0:0:0:0:
256,192,40749,1,8,0:0:0:0:
256,192,40806,1,8,0:0:0:0:
256,192,40863,1,0,0:0:0:0:
256,192,40977,1,8,0:0:0:0:
256,192,41205,1,8,0:0:0:0:
256,192,41262,1,8,0:0:0:0:
256,192,41319,1,0,0:0:0:0:
256,192,41433,1,8,0:0:0:0:
256,192,41547,1,8,0:0:0:0:
256,192,41661,1,0,0:0:0:0:
256,192,41775,1,8,0:0:0:0:
256,192,41890,1,8,0:0:0:0:
256,192,42118,1,8,0:0:0:0:
256,192,42346,1,0,0:0:0:0:
256,192,42460,1,0,0:0:0:0:
256,192,42574,1,8,0:0:0:0:
256,192,42802,1,0,0:0:0:0:
256,192,42916,1,8,0:0:0:0:
256,192,43030,1,0,0:0:0:0:
256,192,43144,1,0,0:0:0:0:
256,192,43258,1,8,0:0:0:0:
256,192,43487,1,8,0:0:0:0:
256,192,43601,1,0,0:0:0:0:
256,192,43715,1,0,0:0:0:0:
256,192,43829,1,0,0:0:0:0:
256,192,43943,1,8,0:0:0:0:
256,192,44171,1,0,0:0:0:0:
256,192,44285,1,8,0:0:0:0:
256,192,44399,1,0,0:0:0:0:
256,192,44513,1,0,0:0:0:0:
256,192,44570,5,0,0:0:0:0:
256,192,44627,1,0,0:0:0:0:
256,192,44855,1,8,0:0:0:0:
256,192,44969,1,0,0:0:0:0:
256,192,45083,1,8,0:0:0:0:
256,192,45198,1,8,0:0:0:0:
256,192,45312,1,0,0:0:0:0:
256,192,45540,1,0,0:0:0:0:
256,192,45654,1,8,0:0:0:0:
256,192,45882,1,8,0:0:0:0:
256,192,45996,1,8,0:0:0:0:
256,192,46224,1,8,0:0:0:0:
256,192,46281,1,8,0:0:0:0:
256,192,46338,1,0,0:0:0:0:
256,192,46452,1,8,0:0:0:0:
256,192,46680,1,8,0:0:0:0:
256,192,46737,1,8,0:0:0:0:
256,192,46794,1,0,0:0:0:0:
256,192,46909,1,8,0:0:0:0:
256,192,47023,1,8,0:0:0:0:
256,192,47137,1,0,0:0:0:0:
256,192,47251,1,8,0:0:0:0:
256,192,47365,1,0,0:0:0:0:
256,192,47707,1,0,0:0:0:0:
256,192,47821,1,8,0:0:0:0:
256,192,47935,1,0,0:0:0:0:
256,192,48049,1,12,0:0:0:0:
256,192,48277,1,0,0:0:0:0:
256,192,48391,1,12,0:0:0:0:
256,192,48620,1,8,0:0:0:0:
256,192,48734,1,4,0:0:0:0:
256,192,48962,1,0,0:0:0:0:
256,192,49076,1,8,0:0:0:0:
256,192,49190,1,0,0:0:0:0:
256,192,49304,1,8,0:0:0:0:
256,192,49418,1,4,0:0:0:0:
256,192,49760,1,4,0:0:0:0:
256,192,50102,1,4,0:0:0:0:
256,192,50445,1,0,0:0:0:0:
256,192,50559,1,8,0:0:0:0:
256,192,50673,1,0,0:0:0:0:
256,192,50787,1,12,0:0:0:0:
256,192,51015,1,0,0:0:0:0:
256,192,51129,1,12,0:0:0:0:
256,192,51357,1,0,0:0:0:0:
256,192,51471,1,12,0:0:0:0:
256,192,51699,1,0,0:0:0:0:
256,192,51814,1,8,0:0:0:0:
256,192,51928,1,0,0:0:0:0:
256,192,52042,1,8,0:0:0:0:
256,192,52156,1,4,0:0:0:0:
256,192,52498,1,12,0:0:0:0:
256,192,52840,5,12,0:0:0:0:
256,192,53182,1,4,0:0:0:0:
256,192,53410,1,0,0:0:0:0:
256,192,53525,1,12,0:0:0:0:
256,192,53753,1,0,0:0:0:0:
256,192,53867,1,12,0:0:0:0:
256,192,54095,1,8,0:0:0:0:
256,192,54209,1,4,0:0:0:0:
256,192,54437,1,0,0:0:0:0:
256,192,54551,1,8,0:0:0:0:
256,192,54665,1,0,0:0:0:0:
256,192,54779,1,8,0:0:0:0:
256,192,54893,1,4,0:0:0:0:
256,192,55236,1,4,0:0:0:0:
256,192,55578,1,4,0:0:0:0:
256,192,55920,1,0,0:0:0:0:
256,192,56034,1,8,0:0:0:0:
256,192,56148,1,0,0:0:0:0:
256,192,56262,1,12,0:0:0:0:
256,192,56490,1,0,0:0:0:0:
256,192,56604,1,12,0:0:0:0:
256,192,56833,1,8,0:0:0:0:
256,192,56947,1,12,0:0:0:0:
256,192,57175,1,0,0:0:0:0:
256,192,57289,1,8,0:0:0:0:
256,192,57403,1,0,0:0:0:0:
256,192,57517,1,8,0:0:0:0:
256,192,57631,1,4,0:0:0:0:
256,192,57973,1,12,0:0:0:0:
256,192,58315,5,12,0:0:0:0:
256,192,58544,1,4,0:0:0:0:
256,192,58772,1,4,0:0:0:0:
256,192,59000,1,8,0:0:0:0:
256,192,59228,1,0,0:0:0:0:
256,192,59342,1,8,0:0:0:0:
256,192,59456,1,0,0:0:0:0:
256,192,59570,1,0,0:0:0:0:
256,192,59684,1,8,0:0:0:0:
256,192,59912,1,8,0:0:0:0:
256,192,60026,1,0,0:0:0:0:
256,192,60140,1,0,0:0:0:0:
256,192,60254,1,0,0:0:0:0:
256,192,60368,1,8,0:0:0:0:
256,192,60597,1,0,0:0:0:0:
256,192,60711,1,8,0:0:0:0:
256,192,60825,1,0,0:0:0:0:
256,192,60939,1,0,0:0:0:0:
256,192,60996,1,0,0:0:0:0:
256,192,61053,1,0,0:0:0:0:
256,192,61281,1,8,0:0:0:0:
256,192,61395,1,0,0:0:0:0:
256,192,61509,1,8,0:0:0:0:
256,192,61623,1,8,0:0:0:0:
256,192,61737,1,0,0:0:0:0:
256,192,61965,1,0,0:0:0:0:
256,192,62080,1,8,0:0:0:0:
256,192,62308,1,8,0:0:0:0:
256,192,62422,1,8,0:0:0:0:
256,192,62650,1,8,0:0:0:0:
256,192,62707,1,8,0:0:0:0:
256,192,62764,1,0,0:0:0:0:
256,192,62878,1,8,0:0:0:0:
256,192,63106,1,8,0:0:0:0:
256,192,63163,1,8,0:0:0:0:
256,192,63220,1,0,0:0:0:0:
256,192,63334,1,8,0:0:0:0:
256,192,63448,1,8,0:0:0:0:
256,192,63562,1,0,0:0:0:0:
256,192,63676,1,8,0:0:0:0:
256,192,63791,1,8,0:0:0:0:
256,192,64019,1,8,0:0:0:0:
256,192,64247,1,0,0:0:0:0:
256,192,64361,1,0,0:0:0:0:
256,192,64475,1,8,0:0:0:0:
256,192,64703,1,0,0:0:0:0:
256,192,64817,1,8,0:0:0:0:
256,192,64931,1,0,0:0:0:0:
256,192,65045,1,0,0:0:0:0:
256,192,65159,1,8,0:0:0:0:
256,192,65388,1,8,0:0:0:0:
256,192,65502,1,0,0:0:0:0:
256,192,65616,1,0,0:0:0:0:
256,192,65730,1,0,0:0:0:0:
256,192,65844,1,8,0:0:0:0:
256,192,66072,1,0,0:0:0:0:
256,192,66186,1,8,0:0:0:0:
256,192,66300,1,0,0:0:0:0:
256,192,66414,1,0,0:0:0:0:
256,192,66471,5,0,0:0:0:0:
256,192,66528,1,0,0:0:0:0:
256,192,66756,1,8,0:0:0:0:
256,192,66870,1,0,0:0:0:0:
256,192,66984,1,8,0:0:0:0:
256,192,67099,1,8,0:0:0:0:
256,192,67213,1,0,0:0:0:0:
256,192,67441,1,0,0:0:0:0:
256,192,67555,1,8,0:0:0:0:
256,192,67783,1,8,0:0:0:0:
256,192,67897,1,8,0:0:0:0:
256,192,68125,1,8,0:0:0:0:
256,192,68182,1,8,0:0:0:0:
256,192,68239,1,0,0:0:0:0:
256,192,68353,1,8,0:0:0:0:
256,192,68581,1,8,0:0:0:0:
256,192,68638,1,8,0:0:0:0:
256,192,68695,1,0,0:0:0:0:
256,192,68810,1,8,0:0:0:0:
256,192,68924,1,8,0:0:0:0:
256,192,69038,1,0,0:0:0:0:
256,192,69152,1,8,0:0:0:0:
256,192,69266,1,0,0:0:0:0:
256,192,69608,1,0,0:0:0:0:
256,192,69722,1,8,0:0:0:0:
256,192,69836,1,0,0:0:0:0:
256,192,69950,1,12,0:0:0:0:
256,192,70178,1,0,0:0:0:0:
256,192,70292,1,12,0:0:0:0:
256,192,70521,1,8,0:0:0:0:
256,192,70635,1,4,0:0:0:0:
256,192,70863,1,0,0:0:0:0:
256,192,70977,1,8,0:0:0:0:
256,192,71091,1,0,0:0:0:0:
256,192,71205,1,8,0:0:0:0:
256,192,71319,1,4,0:0:0:0:
256,192,71661,1,4,0:0:0:0:
256,192,72003,1,4,0:0:0:0:
256,192,72346,1,0,0:0:0:0:
256,192,72460,1,8,0:0:0:0:
256,192,72574,1,0,0:0:0:0:
256,192,72688,1,12,0:0:0:0:
256,192,72916,1,0,0:0:0:0:
256,192,73030,1,12,0:0:0:0:
256,192,73258,1,0,0:0:0:0:
256,192,73372,1,12,0:0:0:0:
256,192,73600,1,0,0:0:0:0:
256,192,73715,1,8,0:0:0:0:
256,192,73829,1,0,0:0:0:0:
256,192,73943,1,8,0:0:0:0:
256,192,74057,1,4,0:0:0:0:
256,192,74399,1,12,0:0:0:0:
256,192,74741,5,12,0:0:0:0:
256,192,75083,1,4,0:0:0:0:
256,192,75311,1,0,0:0:0:0:
256,192,75426,1,12,0:0:0:0:
256,192,75654,1,0,0:0:0:0:
256,192,75768,1,12,0:0:0:0:
256,192,75996,1,8,0:0:0:0:
256,192,76110,1,4,0:0:0:0:
256,192,76338,1,0,0:0:0:0:
256,192,76452,1,8,0:0:0:0:
256,192,76566,1,0,0:0:0:0:
256,192,76680,1,8,0:0:0:0:
256,192,76794,1,4,0:0:0:0:
256,192,77137,1,4,0:0:0:0:
256,192,77479,1,4,0:0:0:0:
256,192,77821,1,0,0:0:0:0:
256,192,77935,1,8,0:0:0:0:
256,192,78049,1,0,0:0:0:0:
256,192,78163,1,12,0:0:0:0:
256,192,78391,1,0,0:0:0:0:
256,192,78505,1,12,0:0:0:0:
256,192,78734,1,8,0:0:0:0:
256,192,78848,1,12,0:0:0:0:
256,192,79076,1,0,0:0:0:0:
256,192,79190,1,8,0:0:0:0:
256,192,79304,1,0,0:0:0:0:
256,192,79418,1,8,0:0:0:0:
256,192,79532,1,4,0:0:0:0:
256,192,79874,1,12,0:0:0:0:
256,192,80216,5,12,0:0:0:0:
256,192,80445,1,4,0:0:0:0:
256,192,80673,5,4,0:0:0:0:
256,192,80901,5,8,0:0:0:0:
256,192,81243,1,8,0:0:0:0:
256,192,81471,1,0,0:0:0:0:
256,192,81585,1,0,0:0:0:0:
256,192,81814,1,8,0:0:0:0:
256,192,81928,1,0,0:0:0:0:
256,192,82042,1,8,0:0:0:0:
256,192,82156,1,0,0:0:0:0:
256,192,82270,1,8,0:0:0:0:
256,192,82612,1,8,0:0:0:0:
256,192,82840,1,0,0:0:0:0:
256,192,82897,5,0,0:0:0:0:
256,192,82954,1,0,0:0:0:0:
256,192,83182,1,0,0:0:0:0:
256,192,83296,1,8,0:0:0:0:
256,192,83410,1,8,0:0:0:0:
256,192,83525,1,0,0:0:0:0:
256,192,83639,1,8,0:0:0:0:
256,192,83981,1,0,0:0:0:0:
256,192,84209,1,8,0:0:0:0:
256,192,84323,1,8,0:0:0:0:
256,192,84437,1,0,0:0:0:0:
256,192,84551,1,8,0:0:0:0:
256,192,84779,1,8,0:0:0:0:
256,192,85007,1,8,0:0:0:0:
256,192,85121,1,0,0:0:0:0:
256,192,85236,1,8,0:0:0:0:
256,192,85350,1,8,0:0:0:0:
256,192,85464,1,0,0:0:0:0:
256,192,85578,1,8,0:0:0:0:
256,192,85692,1,8,0:0:0:0:
256,192,85920,1,0,0:0:0:0:
256,192,86148,1,8,0:0:0:0:
256,192,86262,1,0,0:0:0:0:
256,192,86376,1,8,0:0:0:0:
256,192,86718,1,8,0:0:0:0:
256,192,86947,1,0,0:0:0:0:
256,192,87061,1,0,0:0:0:0:
256,192,87289,1,8,0:0:0:0:
256,192,87403,1,0,0:0:0:0:
256,192,87517,1,8,0:0:0:0:
256,192,87631,1,0,0:0:0:0:
256,192,87745,1,8,0:0:0:0:
256,192,88087,1,8,0:0:0:0:
256,192,88315,1,0,0:0:0:0:
256,192,88372,1,0,0:0:0:0:
256,192,88429,1,0,0:0:0:0:
256,192,88658,1,8,0:0:0:0:
256,192,88772,1,0,0:0:0:0:
256,192,88886,1,8,0:0:0:0:
256,192,89000,1,8,0:0:0:0:
256,192,89114,1,8,0:0:0:0:
256,192,89456,1,8,0:0:0:0:
256,192,89570,1,8,0:0:0:0:
256,192,89684,1,0,0:0:0:0:
256,192,89798,1,8,0:0:0:0:
256,192,90026,1,8,0:0:0:0:
256,192,90141,1,0,0:0:0:0:
256,192,90255,1,8,0:0:0:0:
256,192,90483,1,8,0:0:0:0:
256,192,90597,1,0,0:0:0:0:
256,192,90711,1,8,0:0:0:0:
256,192,90825,1,0,0:0:0:0:
256,192,91053,1,8,0:0:0:0:
256,192,91167,1,8,0:0:0:0:
256,192,91395,1,0,0:0:0:0:
256,192,91623,1,8,0:0:0:0:
256,192,91852,1,8,0:0:0:0:
256,192,91966,1,0,0:0:0:0:
256,192,92080,1,0,0:0:0:0:
256,192,92194,1,8,0:0:0:0:
256,192,92422,1,8,0:0:0:0:
256,192,92536,1,0,0:0:0:0:
256,192,92764,1,8,0:0:0:0:
256,192,92878,1,0,0:0:0:0:
256,192,92935,1,0,0:0:0:0:
256,192,92992,1,8,0:0:0:0:
256,192,93106,1,0,0:0:0:0:
256,192,93220,1,8,0:0:0:0:
256,192,93448,1,0,0:0:0:0:
256,192,93563,1,8,0:0:0:0:
256,192,93677,1,0,0:0:0:0:
256,192,93791,1,8,0:0:0:0:
256,192,93848,5,8,0:0:0:0:
256,192,93905,1,8,0:0:0:0:
256,192,94133,1,8,0:0:0:0:
256,192,94247,1,0,0:0:0:0:
256,192,94304,1,0,0:0:0:0:
256,192,94361,1,8,0:0:0:0:
256,192,94475,1,8,0:0:0:0:
256,192,94589,1,0,0:0:0:0:
256,192,94817,1,0,0:0:0:0:
256,192,94931,1,8,0:0:0:0:
256,192,95160,1,8,0:0:0:0:
256,192,95274,1,8,0:0:0:0:
256,192,95388,1,0,0:0:0:0:
256,192,95502,1,8,0:0:0:0:
256,192,95730,1,0,0:0:0:0:
256,192,95958,1,8,0:0:0:0:
256,192,96072,1,0,0:0:0:0:
256,192,96129,1,0,0:0:0:0:
256,192,96186,1,8,0:0:0:0:
256,192,96300,1,8,0:0:0:0:
256,192,96414,1,0,0:0:0:0:
256,192,96528,1,8,0:0:0:0:
256,192,96642,1,8,0:0:0:0:
256,192,96985,1,0,0:0:0:0:
256,192,97099,1,8,0:0:0:0:
256,192,97213,1,8,0:0:0:0:
256,192,97327,1,0,0:0:0:0:
256,192,97555,1,0,0:0:0:0:
256,192,97669,1,8,0:0:0:0:
256,192,97897,1,8,0:0:0:0:
256,192,98011,1,0,0:0:0:0:
256,192,98239,1,8,0:0:0:0:
256,192,98353,1,0,0:0:0:0:
256,192,98410,1,0,0:0:0:0:
256,192,98467,1,8,0:0:0:0:
256,192,98582,1,0,0:0:0:0:
256,192,98696,1,8,0:0:0:0:
256,192,98924,1,0,0:0:0:0:
256,192,99038,1,8,0:0:0:0:
256,192,99152,1,0,0:0:0:0:
256,192,99266,1,8,0:0:0:0:
256,192,99323,5,8,0:0:0:0:
256,192,99380,1,8,0:0:0:0:
256,192,99608,1,8,0:0:0:0:
256,192,99722,1,0,0:0:0:0:
256,192,99779,1,0,0:0:0:0:
256,192,99836,1,8,0:0:0:0:
256,192,99950,1,8,0:0:0:0:
256,192,100064,1,8,0:0:0:0:
256,192,100293,1,0,0:0:0:0:
256,192,100407,1,8,0:0:0:0:
256,192,100635,1,8,0:0:0:0:
256,192,100749,1,8,0:0:0:0:
256,192,100863,1,0,0:0:0:0:
256,192,100977,1,8,0:0:0:0:
256,192,101091,1,0,0:0:0:0:
256,192,101205,1,8,0:0:0:0:
256,192,101433,1,8,0:0:0:0:
256,192,101490,1,8,0:0:0:0:
256,192,101547,1,0,0:0:0:0:
256,192,101661,1,8,0:0:0:0:
256,192,101775,1,8,0:0:0:0:
256,192,102004,1,8,0:0:0:0:
256,192,102118,1,0,0:0:0:0:
256,192,102346,1,8,0:0:0:0:
256,192,102574,1,8,0:0:0:0:
256,192,102802,1,8,0:0:0:0:
256,192,102916,1,0,0:0:0:0:
256,192,103030,1,0,0:0:0:0:
256,192,103144,1,8,0:0:0:0:
256,192,103372,1,8,0:0:0:0:
256,192,103487,1,0,0:0:0:0:
256,192,103715,1,8,0:0:0:0:
256,192,103829,1,0,0:0:0:0:
256,192,103886,1,0,0:0:0:0:
256,192,103943,1,8,0:0:0:0:
256,192,104057,1,0,0:0:0:0:
256,192,104171,1,8,0:0:0:0:
256,192,104399,1,0,0:0:0:0:
256,192,104513,1,8,0:0:0:0:
256,192,104627,1,0,0:0:0:0:
256,192,104741,1,8,0:0:0:0:
256,192,104798,5,8,0:0:0:0:
256,192,104855,1,8,0:0:0:0:
256,192,105083,1,8,0:0:0:0:
256,192,105198,1,0,0:0:0:0:
256,192,105254,1,0,0:0:0:0:
256,192,105312,1,8,0:0:0:0:
256,192,105426,1,8,0:0:0:0:
256,192,105540,1,0,0:0:0:0:
256,192,105768,1,0,0:0:0:0:
256,192,105882,1,8,0:0:0:0:
256,192,106110,1,8,0:0:0:0:
256,192,106224,1,8,0:0:0:0:
256,192,106338,1,0,0:0:0:0:
256,192,106452,1,8,0:0:0:0:
256,192,106680,1,0,0:0:0:0:
256,192,106909,1,8,0:0:0:0:
256,192,107023,1,0,0:0:0:0:
256,192,107080,1,0,0:0:0:0:
256,192,107137,1,8,0:0:0:0:
256,192,107251,1,8,0:0:0:0:
256,192,107365,1,0,0:0:0:0:
256,192,107479,1,8,0:0:0:0:
256,192,107593,1,8,0:0:0:0:
256,192,107935,1,0,0:0:0:0:
256,192,108049,1,8,0:0:0:0:
256,192,108163,1,8,0:0:0:0:
256,192,108277,1,0,0:0:0:0:
256,192,108506,1,0,0:0:0:0:
256,192,108620,1,8,0:0:0:0:
256,192,108848,1,8,0:0:0:0:
256,192,108962,1,0,0:0:0:0:
256,192,109190,1,8,0:0:0:0:
256,192,109304,1,0,0:0:0:0:
256,192,109361,1,0,0:0:0:0:
256,192,109418,1,8,0:0:0:0:
256,192,109532,1,0,0:0:0:0:
256,192,109646,1,8,0:0:0:0:
256,192,109874,1,0,0:0:0:0:
256,192,109988,1,8,0:0:0:0:
256,192,110102,1,0,0:0:0:0:
256,192,110217,1,8,0:0:0:0:
256,192,110274,5,8,0:0:0:0:
256,192,110331,1,8,0:0:0:0:
256,192,110559,1,8,0:0:0:0:
256,192,110673,1,0,0:0:0:0:
256,192,110730,1,0,0:0:0:0:
256,192,110787,1,8,0:0:0:0:
256,192,110901,1,8,0:0:0:0:
256,192,111015,1,8,0:0:0:0:
256,192,111243,1,0,0:0:0:0:
256,192,111357,1,8,0:0:0:0:
256,192,111585,1,8,0:0:0:0:
256,192,111699,1,8,0:0:0:0:
256,192,111814,1,0,0:0:0:0:
256,192,111928,1,8,0:0:0:0:
256,192,112042,1,0,0:0:0:0:
256,192,112156,1,8,0:0:0:0:
256,192,112384,1,8,0:0:0:0:
256,192,112441,1,8,0:0:0:0:
256,192,112498,1,0,0:0:0:0:
256,192,112612,1,8,0:0:0:0:
256,192,112726,1,8,0:0:0:0:
256,192,112954,1,8,0:0:0:0:
256,192,113068,1,0,0:0:0:0:
256,192,113296,1,8,0:0:0:0:
256,192,113524,1,8,0:0:0:0:
256,192,113752,1,4,0:0:0:0:
