osu file format v14

[General]
AudioFilename: audio.mp3
AudioLeadIn: 1500
PreviewTime: 10964
Countdown: 0
SampleSet: Soft
StackLeniency: 0.7
Mode: 3
LetterboxInBreaks: 0
SpecialStyle: 0
WidescreenStoryboard: 1

[Editor]
DistanceSpacing: 3.6
BeatDivisor: 4
GridSize: 16
TimelineZoom: 1.5

[Metadata]
Title:Spear of Justice
TitleUnicode:Spear of Justice
Artist:toby fox
ArtistUnicode:toby fox
Creator:Monheim
Version:Hard
Source:UNDERTALE
Tags:famoss radiation mania world cup mwc chiptune 16-bit chordjack jack chordjacks jacks undyne undyne's theme civilization video game instrumental ost soundtrack electronic
BeatmapID:2571379
BeatmapSetID:1044193

[Difficulty]
HPDrainRate:8
CircleSize:4
OverallDifficulty:8
ApproachRate:9
SliderMultiplier:1.4
SliderTickRate:1

[Events]
//Background and Video events
0,0,"bg.png",0,0
//Break Periods
//Storyboard Layer 0 (Background)
//Storyboard Layer 1 (Fail)
//Storyboard Layer 2 (Pass)
//Storyboard Layer 3 (Foreground)
//Storyboard Layer 4 (Overlay)
//Storyboard Sound Samples

[TimingPoints]
14,456.274,3,2,1,40,1,0

[HitObjects]
64,192,14,5,2,0:0:0:0:
320,192,14,1,0,0:0:0:0:
448,192,14,1,0,0:0:0:0:
192,192,356,1,0,0:0:0:0:
448,192,584,1,0,0:0:0:0:
320,192,698,1,0,0:0:0:0:
64,192,926,1,0,0:0:0:0:
192,192,1154,1,0,0:0:0:0:
64,192,1382,1,8,0:0:0:0:
192,192,1382,1,4,0:0:0:0:
448,192,1382,1,0,0:0:0:0:
192,192,1725,1,0,0:0:0:0:
448,192,1953,1,0,0:0:0:0:
320,192,2067,1,0,0:0:0:0:
64,192,2295,1,0,0:0:0:0:
192,192,2523,1,0,0:0:0:0:
64,192,2751,1,4,0:0:0:0:
320,192,2751,1,2,0:0:0:0:
448,192,2751,1,0,0:0:0:0:
192,192,3093,1,0,0:0:0:0:
448,192,3321,1,0,0:0:0:0:
320,192,3436,1,0,0:0:0:0:
192,192,3664,1,0,0:0:0:0:
64,192,3892,1,0,0:0:0:0:
192,192,4120,1,4,0:0:0:0:
320,192,4120,1,8,0:0:0:0:
448,192,4120,128,0,4348:0:0:0:0:
192,192,4348,128,0,4576:0:0:0:0:
320,192,4576,128,0,4804:0:0:0:0:
64,192,4804,128,8,5033:0:0:0:0:
192,192,4804,1,4,0:0:0:0:
448,192,4804,1,0,0:0:0:0:
320,192,5033,128,0,5261:0:0:0:0:
192,192,5261,128,0,5489:0:0:0:0:
64,192,5489,1,2,0:0:0:0:
320,192,5489,1,4,0:0:0:0:
448,192,5489,1,0,0:0:0:0:
64,192,5831,1,0,0:0:0:0:
448,192,6059,1,0,0:0:0:0:
320,192,6173,1,0,0:0:0:0:
64,192,6401,1,0,0:0:0:0:
192,192,6629,1,0,0:0:0:0:
64,192,6858,1,8,0:0:0:0:
192,192,6858,1,4,0:0:0:0:
448,192,6858,1,0,0:0:0:0:
192,192,7200,1,0,0:0:0:0:
448,192,7428,1,0,0:0:0:0:
320,192,7542,1,0,0:0:0:0:
64,192,7770,1,0,0:0:0:0:
192,192,7998,1,0,0:0:0:0:
64,192,8226,1,4,0:0:0:0:
320,192,8226,1,2,0:0:0:0:
448,192,8226,1,0,0:0:0:0:
192,192,8569,1,0,0:0:0:0:
448,192,8797,1,0,0:0:0:0:
320,192,8911,1,0,0:0:0:0:
192,192,9139,1,0,0:0:0:0:
64,192,9367,1,0,0:0:0:0:
192,192,9595,1,4,0:0:0:0:
320,192,9595,1,8,0:0:0:0:
448,192,9595,128,0,9823:0:0:0:0:
192,192,9823,128,0,10052:0:0:0:0:
320,192,10052,128,0,10280:0:0:0:0:
64,192,10280,128,8,10508:0:0:0:0:
192,192,10280,1,4,0:0:0:0:
448,192,10280,1,0,0:0:0:0:
320,192,10508,128,0,10736:0:0:0:0:
192,192,10736,128,0,10964:0:0:0:0:
64,192,10964,1,2,0:0:0:0:
320,192,10964,1,4,0:0:0:0:
448,192,10964,1,0,0:0:0:0:
448,192,11192,1,2,0:0:0:0:
64,192,11306,1,8,0:0:0:0:
320,192,11306,1,0,0:0:0:0:
192,192,11420,1,0,0:0:0:0:
64,192,11534,1,8,0:0:0:0:
448,192,11534,1,0,0:0:0:0:
192,192,11648,1,8,0:0:0:0:
320,192,11648,1,0,0:0:0:0:
448,192,11763,1,0,0:0:0:50:LR_Drum Rim Fast.wav
64,192,11877,1,8,0:0:0:0:
192,192,11877,1,0,0:0:0:0:
448,192,11991,1,0,0:0:0:0:
192,192,12105,1,8,0:0:0:0:
320,192,12105,1,0,0:0:0:0:
320,192,12219,1,0,0:0:0:0:
64,192,12333,1,2,0:0:0:0:
192,192,12333,1,4,0:0:0:0:
448,192,12333,1,0,0:0:0:0:
448,192,12561,1,2,0:0:0:0:
64,192,12675,1,8,0:0:0:0:
320,192,12675,1,0,0:0:0:0:
192,192,12789,1,0,0:0:0:0:
64,192,12903,1,8,0:0:0:0:
448,192,12903,1,0,0:0:0:0:
192,192,13017,1,8,0:0:0:0:
320,192,13017,1,0,0:0:0:0:
448,192,13131,1,0,0:0:0:50:LR_Drum Rim Fast.wav
64,192,13245,1,8,0:0:0:0:
192,192,13245,1,0,0:0:0:0:
448,192,13360,1,0,0:0:0:0:
192,192,13474,1,8,0:0:0:0:
320,192,13474,1,0,0:0:0:0:
192,192,13588,1,0,0:0:0:0:
64,192,13702,1,2,0:0:0:0:
320,192,13702,1,4,0:0:0:0:
448,192,13702,1,0,0:0:0:0:
448,192,13930,1,2,0:0:0:0:
64,192,14044,1,8,0:0:0:0:
320,192,14044,1,0,0:0:0:0:
192,192,14158,1,0,0:0:0:0:
64,192,14272,1,8,0:0:0:0:
448,192,14272,1,0,0:0:0:0:
192,192,14386,1,8,0:0:0:0:
320,192,14386,1,0,0:0:0:0:
448,192,14500,1,0,0:0:0:50:LR_Drum Rim Fast.wav
64,192,14614,1,8,0:0:0:0:
320,192,14614,1,0,0:0:0:0:
448,192,14728,1,0,0:0:0:0:
64,192,14842,1,8,0:0:0:0:
192,192,14842,1,0,0:0:0:0:
192,192,14956,1,0,0:0:0:0:
64,192,15071,1,2,0:0:0:0:
320,192,15071,1,4,0:0:0:0:
448,192,15071,1,0,0:0:0:0:
448,192,15185,1,0,0:0:0:0:
64,192,15299,1,8,0:0:0:0:
320,192,15299,1,0,0:0:0:0:
192,192,15413,1,0,0:0:0:50:LR_Drum Rim Fast.wav
64,192,15527,1,8,0:0:0:0:
448,192,15527,1,0,0:0:0:0:
320,192,15641,1,0,0:0:0:50:LR_Drum Rim Fast.wav
64,192,15755,1,4,0:0:0:0:
192,192,15755,1,8,0:0:0:0:
448,192,15755,1,0,0:0:0:0:
64,192,15869,1,0,0:0:0:0:
192,192,15983,1,8,0:0:0:0:
448,192,15983,1,0,0:0:0:0:
320,192,16097,1,0,0:0:0:50:LR_Drum Rim Fast.wav
64,192,16211,1,8,0:0:0:0:
448,192,16211,1,0,0:0:0:0:
192,192,16325,1,0,0:0:0:0:
64,192,16439,1,2,0:0:0:0:
320,192,16439,1,4,0:0:0:0:
448,192,16439,1,0,0:0:0:0:
448,192,16668,1,2,0:0:0:0:
64,192,16782,1,8,0:0:0:0:
320,192,16782,1,0,0:0:0:0:
192,192,16896,1,0,0:0:0:0:
64,192,17010,1,8,0:0:0:0:
448,192,17010,1,0,0:0:0:0:
192,192,17124,1,8,0:0:0:0:
320,192,17124,1,0,0:0:0:0:
448,192,17238,1,0,0:0:0:50:LR_Drum Rim Fast.wav
64,192,17352,1,8,0:0:0:0:
192,192,17352,1,0,0:0:0:0:
448,192,17466,1,0,0:0:0:0:
192,192,17580,1,8,0:0:0:0:
320,192,17580,1,0,0:0:0:0:
320,192,17694,1,0,0:0:0:0:
64,192,17808,1,2,0:0:0:0:
192,192,17808,1,4,0:0:0:0:
448,192,17808,1,0,0:0:0:0:
448,192,18036,1,2,0:0:0:0:
64,192,18150,1,8,0:0:0:0:
320,192,18150,1,0,0:0:0:0:
192,192,18264,1,0,0:0:0:0:
64,192,18379,1,8,0:0:0:0:
448,192,18379,1,0,0:0:0:0:
192,192,18493,1,8,0:0:0:0:
320,192,18493,1,0,0:0:0:0:
448,192,18607,1,0,0:0:0:50:LR_Drum Rim Fast.wav
64,192,18721,1,8,0:0:0:0:
192,192,18721,1,0,0:0:0:0:
448,192,18835,1,0,0:0:0:0:
192,192,18949,1,8,0:0:0:0:
320,192,18949,1,0,0:0:0:0:
192,192,19063,1,0,0:0:0:0:
64,192,19177,1,2,0:0:0:0:
320,192,19177,1,4,0:0:0:0:
448,192,19177,1,0,0:0:0:0:
448,192,19405,1,2,0:0:0:0:
64,192,19519,1,8,0:0:0:0:
320,192,19519,1,0,0:0:0:0:
192,192,19633,1,0,0:0:0:0:
64,192,19747,1,8,0:0:0:0:
448,192,19747,1,0,0:0:0:0:
192,192,19861,1,8,0:0:0:0:
320,192,19861,1,0,0:0:0:0:
448,192,19975,1,0,0:0:0:50:LR_Drum Rim Fast.wav
64,192,20090,1,8,0:0:0:0:
320,192,20090,1,0,0:0:0:0:
448,192,20204,1,0,0:0:0:0:
64,192,20318,1,8,0:0:0:0:
192,192,20318,1,0,0:0:0:0:
192,192,20432,1,0,0:0:0:0:
64,192,20546,1,2,0:0:0:0:
320,192,20546,1,4,0:0:0:0:
448,192,20546,1,0,0:0:0:0:
448,192,20660,1,0,0:0:0:0:
64,192,20774,1,8,0:0:0:0:
320,192,20774,1,0,0:0:0:0:
192,192,20888,1,0,0:0:0:50:LR_Drum Rim Fast.wav
64,192,21002,1,8,0:0:0:0:
448,192,21002,1,0,0:0:0:0:
320,192,21116,1,0,0:0:0:50:LR_Drum Rim Fast.wav
64,192,21230,1,8,0:0:0:0:
192,192,21230,1,4,0:0:0:0:
448,192,21230,1,0,0:0:0:0:
64,192,21344,1,0,0:0:0:0:
192,192,21458,1,8,0:0:0:0:
448,192,21458,1,0,0:0:0:0:
320,192,21572,1,0,0:0:0:50:LR_Drum Rim Fast.wav
64,192,21687,1,8,0:0:0:0:
448,192,21687,1,0,0:0:0:0:
192,192,21801,1,0,0:0:0:0:
64,192,21915,1,2,0:0:0:0:
320,192,21915,1,4,0:0:0:0:
448,192,21915,1,0,0:0:0:0:
448,192,22143,1,2,0:0:0:0:
64,192,22257,1,8,0:0:0:0:
320,192,22257,1,0,0:0:0:0:
192,192,22371,1,0,0:0:0:0:
64,192,22485,1,8,0:0:0:0:
448,192,22485,1,0,0:0:0:0:
192,192,22599,1,8,0:0:0:0:
320,192,22599,1,0,0:0:0:0:
448,192,22713,1,0,0:0:0:50:LR_Drum Rim Fast.wav
64,192,22827,1,8,0:0:0:0:
192,192,22827,1,0,0:0:0:0:
448,192,22941,1,0,0:0:0:0:
192,192,23055,1,8,0:0:0:0:
320,192,23055,1,0,0:0:0:0:
320,192,23169,1,0,0:0:0:0:
64,192,23283,1,2,0:0:0:0:
192,192,23283,1,4,0:0:0:0:
448,192,23283,1,0,0:0:0:0:
448,192,23512,1,2,0:0:0:0:
64,192,23626,1,8,0:0:0:0:
320,192,23626,1,2,0:0:0:0:
192,192,23740,1,0,0:0:0:0:
64,192,23854,1,8,0:0:0:0:
448,192,23854,1,2,0:0:0:0:
192,192,23968,1,8,0:0:0:0:
320,192,23968,1,2,0:0:0:0:
448,192,24082,1,0,0:0:0:50:LR_Drum Rim Fast.wav
64,192,24196,1,8,0:0:0:0:
192,192,24196,1,2,0:0:0:0:
448,192,24310,1,0,0:0:0:0:
192,192,24424,1,8,0:0:0:0:
320,192,24424,1,2,0:0:0:0:
192,192,24538,1,0,0:0:0:0:
64,192,24652,1,2,0:0:0:0:
320,192,24652,1,4,0:0:0:0:
448,192,24652,1,0,0:0:0:0:
448,192,24880,1,2,0:0:0:0:
64,192,24995,1,8,0:0:0:0:
320,192,24995,1,0,0:0:0:0:
192,192,25109,1,0,0:0:0:0:
64,192,25223,1,8,0:0:0:0:
448,192,25223,1,0,0:0:0:0:
192,192,25337,1,8,0:0:0:0:
320,192,25337,1,0,0:0:0:0:
448,192,25451,1,0,0:0:0:50:LR_Drum Rim Fast.wav
64,192,25565,1,8,0:0:0:0:
320,192,25565,1,0,0:0:0:0:
448,192,25679,1,0,0:0:0:0:
64,192,25793,1,8,0:0:0:0:
192,192,25793,1,0,0:0:0:0:
192,192,25907,1,0,0:0:0:0:
64,192,26021,1,2,0:0:0:0:
320,192,26021,1,4,0:0:0:0:
448,192,26021,1,0,0:0:0:0:
448,192,26135,1,0,0:0:0:0:
64,192,26249,1,8,0:0:0:0:
320,192,26249,1,0,0:0:0:0:
192,192,26363,1,0,0:0:0:50:LR_Drum Rim Fast.wav
64,192,26477,1,8,0:0:0:0:
448,192,26477,1,0,0:0:0:0:
320,192,26591,1,0,0:0:0:50:LR_Drum Rim Fast.wav
64,192,26706,1,4,0:0:0:0:
192,192,26706,1,8,0:0:0:0:
448,192,26706,1,0,0:0:0:0:
64,192,26820,1,0,0:0:0:0:
192,192,26934,1,8,0:0:0:0:
448,192,26934,1,0,0:0:0:0:
320,192,27048,1,0,0:0:0:50:LR_Drum Rim Fast.wav
64,192,27162,1,8,0:0:0:0:
448,192,27162,1,0,0:0:0:0:
192,192,27276,1,0,0:0:0:0:
64,192,27390,1,2,0:0:0:0:
320,192,27390,1,4,0:0:0:0:
448,192,27390,1,0,0:0:0:0:
448,192,27618,1,2,0:0:0:0:
64,192,27732,1,8,0:0:0:0:
320,192,27732,1,0,0:0:0:0:
192,192,27846,1,0,0:0:0:0:
64,192,27960,1,8,0:0:0:0:
448,192,27960,1,0,0:0:0:0:
192,192,28074,1,8,0:0:0:0:
320,192,28074,1,0,0:0:0:0:
448,192,28188,1,0,0:0:0:50:LR_Drum Rim Fast.wav
64,192,28302,1,8,0:0:0:0:
192,192,28302,1,0,0:0:0:0:
448,192,28417,1,0,0:0:0:0:
192,192,28531,1,8,0:0:0:0:
320,192,28531,1,0,0:0:0:0:
320,192,28645,1,0,0:0:0:0:
64,192,28759,1,2,0:0:0:0:
192,192,28759,1,4,0:0:0:0:
448,192,28759,1,0,0:0:0:0:
448,192,28987,1,2,0:0:0:0:
64,192,29101,1,2,0:0:0:0:
320,192,29101,1,8,0:0:0:0:
192,192,29215,1,0,0:0:0:0:
64,192,29329,1,2,0:0:0:0:
448,192,29329,1,8,0:0:0:0:
192,192,29443,1,2,0:0:0:0:
320,192,29443,1,8,0:0:0:0:
448,192,29557,1,0,0:0:0:50:LR_Drum Rim Fast.wav
64,192,29671,1,2,0:0:0:0:
192,192,29671,1,8,0:0:0:0:
448,192,29785,1,0,0:0:0:0:
192,192,29899,1,2,0:0:0:0:
320,192,29899,1,8,0:0:0:0:
192,192,30014,1,0,0:0:0:0:
64,192,30128,1,2,0:0:0:0:
320,192,30128,1,4,0:0:0:0:
448,192,30128,1,0,0:0:0:0:
448,192,30356,1,2,0:0:0:0:
64,192,30470,1,8,0:0:0:0:
320,192,30470,1,0,0:0:0:0:
192,192,30584,1,0,0:0:0:0:
64,192,30698,1,8,0:0:0:0:
448,192,30698,1,0,0:0:0:0:
192,192,30812,1,8,0:0:0:0:
320,192,30812,1,0,0:0:0:0:
448,192,30926,1,0,0:0:0:50:LR_Drum Rim Fast.wav
64,192,31040,1,8,0:0:0:0:
320,192,31040,1,0,0:0:0:0:
448,192,31154,1,0,0:0:0:0:
64,192,31268,1,8,0:0:0:0:
192,192,31268,1,0,0:0:0:0:
192,192,31382,1,0,0:0:0:0:
64,192,31496,1,2,0:0:0:0:
320,192,31496,1,4,0:0:0:0:
448,192,31496,1,0,0:0:0:0:
64,192,31725,1,8,0:0:0:0:
320,192,31725,1,0,0:0:0:0:
192,192,31839,1,0,0:0:0:50:LR_Drum Rim Fast.wav
64,192,31953,1,8,0:0:0:0:
448,192,31953,1,0,0:0:0:0:
320,192,32067,1,0,0:0:0:50:LR_Drum Rim Fast.wav
64,192,32181,1,8,0:0:0:0:
192,192,32181,1,4,0:0:0:0:
448,192,32181,1,0,0:0:0:0:
64,192,32295,1,0,0:0:0:0:
192,192,32409,1,8,0:0:0:0:
448,192,32409,1,0,0:0:0:0:
320,192,32523,1,0,0:0:0:50:LR_Drum Rim Fast.wav
64,192,32637,1,8,0:0:0:0:
448,192,32637,1,0,0:0:0:0:
192,192,32751,1,0,0:0:0:0:
64,192,32865,1,2,0:0:0:0:
320,192,32865,1,4,0:0:0:0:
448,192,32865,1,0,0:0:0:0:
192,192,33093,1,8,0:0:0:0:
320,192,33093,1,0,0:0:0:0:
64,192,33207,1,0,0:0:0:50:LR_Drum Rim Fast.wav
192,192,33322,1,8,0:0:0:0:
448,192,33322,1,0,0:0:0:0:
320,192,33436,1,0,0:0:0:50:LR_Drum Rim Fast.wav
64,192,33550,1,8,0:0:0:0:
192,192,33550,1,4,0:0:0:0:
448,192,33550,1,0,0:0:0:0:
64,192,33664,1,0,0:0:0:0:
192,192,33778,1,8,0:0:0:0:
448,192,33778,1,0,0:0:0:0:
320,192,33892,1,0,0:0:0:50:LR_Drum Rim Fast.wav
64,192,34006,1,8,0:0:0:0:
448,192,34006,1,0,0:0:0:0:
192,192,34120,1,0,0:0:0:0:
64,192,34234,1,2,0:0:0:0:
320,192,34234,1,4,0:0:0:0:
448,192,34234,1,0,0:0:0:0:
64,192,34462,1,8,0:0:0:0:
320,192,34462,1,0,0:0:0:0:
192,192,34576,1,0,0:0:0:50:LR_Drum Rim Fast.wav
64,192,34690,1,8,0:0:0:0:
448,192,34690,1,0,0:0:0:0:
320,192,34804,1,0,0:0:0:50:LR_Drum Rim Fast.wav
64,192,34918,1,8,0:0:0:0:
192,192,34918,1,4,0:0:0:0:
448,192,34918,1,0,0:0:0:0:
64,192,35033,1,0,0:0:0:0:
192,192,35147,1,8,0:0:0:0:
320,192,35147,1,0,0:0:0:0:
448,192,35261,1,0,0:0:0:50:LR_Drum Rim Fast.wav
64,192,35375,1,8,0:0:0:0:
320,192,35375,1,0,0:0:0:0:
192,192,35489,1,0,0:0:0:0:
64,192,35603,1,2,0:0:0:0:
320,192,35603,1,4,0:0:0:0:
448,192,35603,1,0,0:0:0:0:
320,192,35831,1,8,0:0:0:0:
192,192,36059,1,8,0:0:0:0:
64,192,36287,1,4,0:0:0:0:
320,192,36287,1,0,0:0:0:70:LR_Snare Drum 2.wav
64,192,36629,1,0,0:0:0:0:
192,192,36744,1,0,0:0:0:0:
448,192,36858,1,0,0:0:0:0:
64,192,36972,1,2,0:0:0:0:
320,192,36972,1,0,0:0:0:0:
448,192,37086,1,0,0:0:0:0:
64,192,37200,1,0,0:0:0:50:LR_Drum Rim Fast.wav
192,192,37314,1,2,0:0:0:0:
448,192,37314,1,0,0:0:0:0:
64,192,37428,1,0,0:0:0:0:
320,192,37542,1,2,0:0:0:0:
448,192,37542,1,0,0:0:0:0:
64,192,37656,1,2,0:0:0:0:
192,192,37656,1,0,0:0:0:0:
64,192,37884,1,2,0:0:0:0:
320,192,37998,1,0,0:0:0:0:
448,192,38112,1,2,0:0:0:0:
192,192,38226,1,0,0:0:0:0:
64,192,38341,1,2,0:0:0:0:
448,192,38341,1,0,0:0:0:0:
192,192,38455,1,0,0:0:0:0:
448,192,38569,1,0,0:0:0:50:LR_Drum Rim Fast.wav
64,192,38683,1,2,0:0:0:0:
320,192,38683,1,0,0:0:0:0:
192,192,38797,1,0,0:0:0:0:
448,192,38911,1,0,0:0:0:50:LR_Drum Rim Fast.wav
320,192,38968,1,0,0:0:0:0:
64,192,39025,1,2,0:0:0:0:
192,192,39025,1,0,0:0:0:0:
64,192,39253,1,2,0:0:0:0:
320,192,39367,1,0,0:0:0:0:
192,192,39481,1,2,0:0:0:0:
320,192,39595,1,0,0:0:0:0:
64,192,39709,1,2,0:0:0:0:
448,192,39709,1,0,0:0:0:0:
192,192,39823,1,0,0:0:0:0:
448,192,39937,1,0,0:0:0:50:LR_Drum Rim Fast.wav
64,192,40052,1,2,0:0:0:0:
320,192,40052,1,0,0:0:0:0:
448,192,40166,1,0,0:0:0:0:
64,192,40280,1,0,0:0:0:50:LR_Drum Rim Fast.wav
192,192,40394,1,2,0:0:0:0:
320,192,40394,1,0,0:0:0:0:
448,192,40508,1,0,0:0:0:0:
64,192,40622,1,0,0:0:0:50:LR_Drum Rim Fast.wav
320,192,40622,1,0,0:0:0:0:
192,192,40736,1,0,0:0:0:0:
64,192,40850,1,0,0:0:0:50:LR_Drum Rim Fast.wav
320,192,40850,1,0,0:0:0:0:
448,192,40964,1,0,0:0:0:0:
64,192,41078,1,2,0:0:0:0:
192,192,41078,1,0,0:0:0:0:
448,192,41192,1,2,0:0:0:0:
192,192,41306,1,0,0:0:0:50:LR_Drum Rim Fast.wav
64,192,41420,1,2,0:0:0:0:
320,192,41420,1,0,0:0:0:0:
448,192,41649,1,2,0:0:0:0:
192,192,41763,1,2,0:0:0:0:
320,192,41763,1,0,0:0:0:0:
64,192,41991,1,2,0:0:0:0:
320,192,42105,1,0,0:0:0:0:
192,192,42219,1,2,0:0:0:0:
448,192,42333,1,0,0:0:0:0:
64,192,42447,1,2,0:0:0:0:
320,192,42447,1,0,0:0:0:0:
448,192,42561,1,0,0:0:0:0:
64,192,42675,1,0,0:0:0:50:LR_Drum Rim Fast.wav
192,192,42789,1,2,0:0:0:0:
448,192,42789,1,0,0:0:0:0:
64,192,42903,1,0,0:0:0:0:
320,192,43017,1,0,0:0:0:50:LR_Drum Rim Fast.wav
448,192,43017,1,0,0:0:0:0:
64,192,43131,1,2,0:0:0:0:
192,192,43131,1,0,0:0:0:0:
64,192,43360,1,2,0:0:0:0:
320,192,43474,1,0,0:0:0:0:
448,192,43588,1,2,0:0:0:0:
192,192,43702,1,0,0:0:0:0:
64,192,43816,1,2,0:0:0:0:
448,192,43816,1,0,0:0:0:0:
192,192,43930,1,0,0:0:0:0:
448,192,44044,1,0,0:0:0:50:LR_Drum Rim Fast.wav
64,192,44158,1,2,0:0:0:0:
320,192,44158,1,0,0:0:0:0:
192,192,44272,1,0,0:0:0:0:
448,192,44386,1,0,0:0:0:50:LR_Drum Rim Fast.wav
320,192,44443,1,0,0:0:0:0:
64,192,44500,1,2,0:0:0:0:
192,192,44500,1,0,0:0:0:0:
64,192,44728,1,2,0:0:0:0:
320,192,44842,1,0,0:0:0:0:
192,192,44956,1,2,0:0:0:0:
320,192,45071,1,0,0:0:0:0:
64,192,45185,1,2,0:0:0:0:
448,192,45185,1,0,0:0:0:0:
192,192,45299,1,0,0:0:0:0:
448,192,45413,1,0,0:0:0:50:LR_Drum Rim Fast.wav
64,192,45527,1,2,0:0:0:0:
320,192,45527,1,0,0:0:0:0:
448,192,45641,1,0,0:0:0:0:
64,192,45755,1,0,0:0:0:50:LR_Drum Rim Fast.wav
192,192,45869,1,2,0:0:0:0:
320,192,45869,1,0,0:0:0:0:
448,192,45983,1,0,0:0:0:0:
64,192,46097,1,0,0:0:0:50:LR_Drum Rim Fast.wav
320,192,46097,1,0,0:0:0:0:
192,192,46211,1,0,0:0:0:0:
64,192,46325,1,0,0:0:0:50:LR_Drum Rim Fast.wav
320,192,46325,1,0,0:0:0:0:
448,192,46439,1,0,0:0:0:0:
64,192,46553,1,2,0:0:0:0:
192,192,46553,1,0,0:0:0:0:
448,192,46668,1,2,0:0:0:0:
192,192,46782,1,0,0:0:0:50:LR_Drum Rim Fast.wav
64,192,46896,1,2,0:0:0:0:
320,192,46896,1,0,0:0:0:0:
448,192,47124,1,2,0:0:0:0:
192,192,47238,1,2,0:0:0:0:
320,192,47238,1,0,0:0:0:0:
192,192,47466,1,2,0:0:0:0:
448,192,47580,1,0,0:0:0:0:
64,192,47694,1,2,0:0:0:0:
320,192,47808,1,0,0:0:0:0:
64,192,47922,1,2,0:0:0:0:
192,192,47922,1,4,0:0:0:0:
448,192,47922,1,0,0:0:0:0:
448,192,48150,1,8,0:0:0:0:
64,192,48264,1,8,0:0:0:0:
192,192,48264,1,4,0:0:0:0:
448,192,48264,1,0,0:0:0:0:
448,192,48493,1,8,0:0:0:0:
64,192,48607,1,2,0:0:0:0:
192,192,48607,1,4,0:0:0:0:
320,192,48607,1,0,0:0:0:0:
64,192,48835,1,8,0:0:0:0:
192,192,48835,1,0,0:0:0:0:
448,192,48949,1,8,0:0:0:0:
64,192,49063,1,8,0:0:0:0:
192,192,49063,1,0,0:0:0:0:
448,192,49177,1,8,0:0:0:0:
64,192,49291,1,2,0:0:0:0:
192,192,49291,1,0,0:0:0:0:
320,192,49291,1,0,0:0:0:0:
448,192,49405,1,2,0:0:0:0:
64,192,49519,1,2,0:0:0:0:
192,192,49633,1,2,0:0:0:0:
320,192,49633,1,4,0:0:0:0:
448,192,49633,1,0,0:0:0:0:
320,192,49747,1,0,0:0:0:50:LR_Drum Rim Fast.wav
192,192,49861,1,2,0:0:0:0:
64,192,49976,1,2,0:0:0:0:
320,192,49976,1,0,0:0:0:0:
448,192,49976,1,0,0:0:0:0:
192,192,50090,1,0,0:0:0:50:LR_Drum Rim Fast.wav
64,192,50204,1,6,0:0:0:0:
448,192,50204,1,8,0:0:0:0:
320,192,50318,1,0,0:0:0:0:
192,192,50432,1,6,0:0:0:0:
448,192,50432,1,8,0:0:0:0:
320,192,50546,1,0,0:0:0:0:
64,192,50660,1,2,0:0:0:0:
192,192,50660,1,4,0:0:0:0:
448,192,50660,1,8,0:0:0:0:
448,192,50888,1,8,0:0:0:0:
64,192,51002,1,8,0:0:0:0:
192,192,51002,1,4,0:0:0:0:
448,192,51002,1,0,0:0:0:0:
448,192,51230,1,8,0:0:0:0:
64,192,51344,1,2,0:0:0:0:
192,192,51344,1,4,0:0:0:0:
320,192,51344,1,0,0:0:0:0:
64,192,51572,1,8,0:0:0:0:
192,192,51572,1,0,0:0:0:0:
320,192,51687,1,8,0:0:0:0:
64,192,51801,1,8,0:0:0:0:
192,192,51801,1,0,0:0:0:0:
448,192,51915,1,8,0:0:0:0:
64,192,52029,1,2,0:0:0:0:
192,192,52029,1,0,0:0:0:0:
320,192,52029,1,0,0:0:0:0:
448,192,52143,1,2,0:0:0:0:
64,192,52257,1,2,0:0:0:0:
192,192,52371,1,2,0:0:0:0:
320,192,52371,1,4,0:0:0:0:
448,192,52371,1,0,0:0:0:0:
448,192,52485,1,0,0:0:0:0:
192,192,52599,1,2,0:0:0:0:
64,192,52713,1,2,0:0:0:0:
320,192,52713,1,0,0:0:0:0:
448,192,52713,1,0,0:0:0:0:
64,192,52827,1,0,0:0:0:0:
192,192,52941,1,6,0:0:0:0:
448,192,52941,1,8,0:0:0:0:
320,192,53055,1,0,0:0:0:0:
64,192,53169,1,6,0:0:0:0:
448,192,53169,1,8,0:0:0:0:
320,192,53283,1,0,0:0:0:0:
64,192,53398,1,2,0:0:0:0:
192,192,53398,1,8,0:0:0:0:
448,192,53398,1,4,0:0:0:0:
448,192,53626,1,8,0:0:0:0:
64,192,53740,1,8,0:0:0:0:
192,192,53740,1,4,0:0:0:0:
448,192,53740,1,0,0:0:0:0:
448,192,53968,1,8,0:0:0:0:
64,192,54082,1,2,0:0:0:0:
192,192,54082,1,4,0:0:0:0:
320,192,54082,1,0,0:0:0:0:
64,192,54310,1,8,0:0:0:0:
192,192,54310,1,0,0:0:0:0:
448,192,54424,1,8,0:0:0:0:
64,192,54538,1,8,0:0:0:0:
192,192,54538,1,0,0:0:0:0:
448,192,54652,1,8,0:0:0:0:
64,192,54766,1,2,0:0:0:0:
192,192,54766,1,0,0:0:0:0:
320,192,54766,1,0,0:0:0:0:
448,192,54880,1,2,0:0:0:0:
64,192,54995,1,2,0:0:0:0:
192,192,55109,1,2,0:0:0:0:
320,192,55109,1,4,0:0:0:0:
448,192,55109,1,0,0:0:0:0:
320,192,55223,1,0,0:0:0:0:
192,192,55337,1,2,0:0:0:0:
64,192,55451,1,2,0:0:0:0:
320,192,55451,1,0,0:0:0:0:
448,192,55451,1,0,0:0:0:0:
192,192,55565,1,0,0:0:0:0:
64,192,55679,1,6,0:0:0:0:
448,192,55679,1,8,0:0:0:0:
320,192,55793,1,0,0:0:0:0:
192,192,55907,1,6,0:0:0:0:
448,192,55907,1,8,0:0:0:0:
320,192,56021,1,0,0:0:0:0:
64,192,56135,1,2,0:0:0:0:
192,192,56135,1,4,0:0:0:0:
448,192,56135,1,8,0:0:0:0:
448,192,56363,1,8,0:0:0:0:
64,192,56477,1,8,0:0:0:0:
192,192,56477,1,4,0:0:0:0:
448,192,56477,1,0,0:0:0:0:
448,192,56706,1,8,0:0:0:0:
64,192,56820,1,2,0:0:0:0:
192,192,56820,1,4,0:0:0:0:
320,192,56820,1,0,0:0:0:0:
64,192,57048,1,8,0:0:0:0:
192,192,57048,1,0,0:0:0:0:
320,192,57162,1,8,0:0:0:0:
64,192,57276,1,8,0:0:0:0:
192,192,57276,1,0,0:0:0:0:
448,192,57390,1,8,0:0:0:0:
64,192,57504,1,2,0:0:0:0:
192,192,57504,1,0,0:0:0:0:
320,192,57504,1,0,0:0:0:0:
448,192,57618,1,2,0:0:0:0:
64,192,57732,1,2,0:0:0:0:
192,192,57846,1,4,0:0:0:0:
320,192,57846,1,2,0:0:0:0:
448,192,57846,1,0,0:0:0:0:
448,192,57960,1,0,0:0:0:0:
192,192,58074,1,2,0:0:0:0:
64,192,58188,1,2,0:0:0:0:
320,192,58188,1,0,0:0:0:0:
448,192,58188,1,0,0:0:0:0:
64,192,58303,1,0,0:0:0:0:
192,192,58417,1,10,0:0:0:0:
448,192,58417,1,4,0:0:0:0:
64,192,58645,1,10,0:0:0:0:
448,192,58645,1,4,0:0:0:0:
192,192,58759,1,0,0:0:0:0:
64,192,58873,1,2,0:0:0:0:
320,192,58873,1,0,0:0:0:0:
448,192,58987,1,0,0:0:0:0:
64,192,59101,1,0,0:0:0:50:LR_Drum Rim Fast.wav
192,192,59215,1,2,0:0:0:0:
448,192,59215,1,0,0:0:0:0:
64,192,59329,1,0,0:0:0:0:
320,192,59443,1,2,0:0:0:0:
448,192,59443,1,0,0:0:0:0:
64,192,59557,1,2,0:0:0:0:
192,192,59557,1,0,0:0:0:0:
64,192,59785,1,2,0:0:0:0:
192,192,59899,1,0,0:0:0:0:
448,192,60014,1,2,0:0:0:0:
64,192,60128,1,0,0:0:0:0:
192,192,60242,1,2,0:0:0:0:
448,192,60242,1,0,0:0:0:0:
64,192,60356,1,0,0:0:0:0:
448,192,60470,1,0,0:0:0:50:LR_Drum Rim Fast.wav
64,192,60584,1,2,0:0:0:0:
320,192,60584,1,0,0:0:0:0:
192,192,60698,1,0,0:0:0:0:
448,192,60812,1,0,0:0:0:50:LR_Drum Rim Fast.wav
320,192,60869,1,0,0:0:0:0:
64,192,60926,1,2,0:0:0:0:
192,192,60926,1,0,0:0:0:0:
64,192,61154,1,2,0:0:0:0:
320,192,61268,1,0,0:0:0:0:
192,192,61382,1,2,0:0:0:0:
320,192,61496,1,0,0:0:0:0:
64,192,61610,1,2,0:0:0:0:
448,192,61610,1,0,0:0:0:0:
192,192,61725,1,0,0:0:0:0:
448,192,61839,1,0,0:0:0:50:LR_Drum Rim Fast.wav
64,192,61953,1,2,0:0:0:0:
320,192,61953,1,0,0:0:0:0:
448,192,62067,1,0,0:0:0:0:
64,192,62181,1,0,0:0:0:50:LR_Drum Rim Fast.wav
192,192,62295,1,2,0:0:0:0:
320,192,62295,1,0,0:0:0:0:
448,192,62409,1,0,0:0:0:0:
64,192,62523,1,0,0:0:0:50:LR_Drum Rim Fast.wav
320,192,62523,1,0,0:0:0:0:
192,192,62637,1,0,0:0:0:0:
64,192,62751,1,0,0:0:0:50:LR_Drum Rim Fast.wav
320,192,62751,1,0,0:0:0:0:
448,192,62865,1,0,0:0:0:0:
64,192,62979,1,2,0:0:0:0:
192,192,62979,1,0,0:0:0:0:
448,192,63093,1,2,0:0:0:0:
192,192,63207,1,0,0:0:0:50:LR_Drum Rim Fast.wav
64,192,63322,1,2,0:0:0:0:
320,192,63322,1,0,0:0:0:0:
448,192,63550,1,2,0:0:0:0:
192,192,63664,1,2,0:0:0:0:
320,192,63664,1,0,0:0:0:0:
192,192,63892,1,2,0:0:0:0:
64,192,64006,1,0,0:0:0:0:
320,192,64120,1,2,0:0:0:0:
448,192,64234,1,0,0:0:0:0:
64,192,64348,1,2,0:0:0:0:
320,192,64348,1,0,0:0:0:0:
448,192,64462,1,0,0:0:0:0:
64,192,64576,1,0,0:0:0:50:LR_Drum Rim Fast.wav
192,192,64690,1,2,0:0:0:0:
448,192,64690,1,0,0:0:0:0:
64,192,64804,1,0,0:0:0:0:
320,192,64918,1,0,0:0:0:50:LR_Drum Rim Fast.wav
448,192,64918,1,0,0:0:0:0:
64,192,65033,1,2,0:0:0:0:
192,192,65033,1,0,0:0:0:0:
64,192,65261,1,2,0:0:0:0:
320,192,65375,1,0,0:0:0:0:
448,192,65489,1,2,0:0:0:0:
192,192,65603,1,0,0:0:0:0:
64,192,65717,1,2,0:0:0:0:
448,192,65717,1,0,0:0:0:0:
192,192,65831,1,0,0:0:0:0:
448,192,65945,1,0,0:0:0:50:LR_Drum Rim Fast.wav
64,192,66059,1,2,0:0:0:0:
320,192,66059,1,0,0:0:0:0:
192,192,66173,1,0,0:0:0:0:
448,192,66287,1,0,0:0:0:50:LR_Drum Rim Fast.wav
320,192,66344,1,0,0:0:0:0:
64,192,66401,1,2,0:0:0:0:
192,192,66401,1,0,0:0:0:0:
64,192,66630,1,2,0:0:0:0:
320,192,66744,1,0,0:0:0:0:
192,192,66858,1,2,0:0:0:0:
320,192,66972,1,0,0:0:0:0:
64,192,67086,1,2,0:0:0:0:
448,192,67086,1,0,0:0:0:0:
192,192,67200,1,0,0:0:0:0:
448,192,67314,1,0,0:0:0:50:LR_Drum Rim Fast.wav
64,192,67428,1,2,0:0:0:0:
320,192,67428,1,0,0:0:0:0:
448,192,67542,1,0,0:0:0:0:
64,192,67656,1,0,0:0:0:50:LR_Drum Rim Fast.wav
192,192,67770,1,2,0:0:0:0:
320,192,67770,1,0,0:0:0:0:
448,192,67884,1,0,0:0:0:0:
64,192,67998,1,0,0:0:0:50:LR_Drum Rim Fast.wav
320,192,67998,1,0,0:0:0:0:
192,192,68112,1,0,0:0:0:0:
64,192,68226,1,0,0:0:0:50:LR_Drum Rim Fast.wav
320,192,68226,1,0,0:0:0:0:
448,192,68341,1,0,0:0:0:0:
64,192,68455,1,2,0:0:0:0:
192,192,68455,1,0,0:0:0:0:
448,192,68569,1,2,0:0:0:0:
192,192,68683,1,0,0:0:0:50:LR_Drum Rim Fast.wav
64,192,68797,1,2,0:0:0:0:
320,192,68797,1,0,0:0:0:0:
448,192,69025,1,2,0:0:0:0:
192,192,69139,1,2,0:0:0:0:
192,192,69367,1,2,0:0:0:0:
448,192,69481,1,2,0:0:0:0:
64,192,69595,1,2,0:0:0:0:
320,192,69709,1,0,0:0:0:50:LR_Drum Rim Fast.wav
64,192,69823,1,2,0:0:0:0:
192,192,69823,1,4,0:0:0:0:
448,192,69823,1,0,0:0:0:0:
448,192,70052,1,8,0:0:0:0:
64,192,70166,1,8,0:0:0:0:
192,192,70166,1,4,0:0:0:0:
448,192,70166,1,0,0:0:0:0:
448,192,70394,1,8,0:0:0:0:
64,192,70508,1,2,0:0:0:0:
192,192,70508,1,4,0:0:0:0:
320,192,70508,1,0,0:0:0:0:
64,192,70736,1,8,0:0:0:0:
192,192,70736,1,0,0:0:0:0:
448,192,70850,1,8,0:0:0:0:
64,192,70964,1,8,0:0:0:0:
192,192,70964,1,0,0:0:0:0:
448,192,71078,1,8,0:0:0:0:
64,192,71192,1,2,0:0:0:0:
192,192,71192,1,0,0:0:0:0:
320,192,71192,1,0,0:0:0:0:
448,192,71306,1,2,0:0:0:0:
64,192,71420,1,2,0:0:0:0:
192,192,71534,1,4,0:0:0:0:
320,192,71534,1,2,0:0:0:0:
448,192,71534,1,0,0:0:0:0:
320,192,71649,1,0,0:0:0:0:
192,192,71763,1,2,0:0:0:0:
64,192,71877,1,2,0:0:0:0:
320,192,71877,1,0,0:0:0:0:
448,192,71877,1,0,0:0:0:0:
192,192,71991,1,0,0:0:0:0:
64,192,72105,1,10,0:0:0:0:
448,192,72105,1,4,0:0:0:0:
320,192,72219,1,0,0:0:0:0:
192,192,72333,1,10,0:0:0:0:
448,192,72333,1,4,0:0:0:0:
320,192,72447,1,0,0:0:0:0:
64,192,72561,1,2,0:0:0:0:
192,192,72561,1,4,0:0:0:0:
448,192,72561,1,8,0:0:0:0:
448,192,72789,1,8,0:0:0:0:
64,192,72903,1,8,0:0:0:0:
192,192,72903,1,4,0:0:0:0:
448,192,72903,1,0,0:0:0:0:
448,192,73131,1,8,0:0:0:0:
64,192,73245,1,2,0:0:0:0:
192,192,73245,1,4,0:0:0:0:
320,192,73245,1,0,0:0:0:0:
64,192,73474,1,8,0:0:0:0:
192,192,73474,1,0,0:0:0:0:
320,192,73588,1,8,0:0:0:0:
64,192,73702,1,8,0:0:0:0:
192,192,73702,1,0,0:0:0:0:
448,192,73816,1,8,0:0:0:0:
64,192,73930,1,2,0:0:0:0:
192,192,73930,1,0,0:0:0:0:
320,192,73930,1,0,0:0:0:0:
448,192,74044,1,2,0:0:0:0:
64,192,74158,1,2,0:0:0:0:
192,192,74272,1,4,0:0:0:0:
320,192,74272,1,2,0:0:0:0:
448,192,74272,1,0,0:0:0:0:
448,192,74386,1,0,0:0:0:0:
192,192,74500,1,2,0:0:0:0:
64,192,74614,1,2,0:0:0:0:
320,192,74614,1,0,0:0:0:0:
448,192,74614,1,0,0:0:0:0:
64,192,74728,1,0,0:0:0:0:
192,192,74842,1,10,0:0:0:0:
448,192,74842,1,4,0:0:0:0:
320,192,74957,1,0,0:0:0:0:
64,192,75071,1,10,0:0:0:0:
448,192,75071,1,4,0:0:0:0:
320,192,75185,1,0,0:0:0:0:
64,192,75299,1,2,0:0:0:0:
192,192,75299,1,4,0:0:0:0:
448,192,75299,1,8,0:0:0:0:
448,192,75527,1,8,0:0:0:0:
64,192,75641,1,8,0:0:0:0:
192,192,75641,1,4,0:0:0:0:
448,192,75641,1,0,0:0:0:0:
448,192,75869,1,8,0:0:0:0:
64,192,75983,1,2,0:0:0:0:
192,192,75983,1,4,0:0:0:0:
320,192,75983,1,0,0:0:0:0:
64,192,76211,1,8,0:0:0:0:
192,192,76211,1,0,0:0:0:0:
448,192,76325,1,8,0:0:0:0:
64,192,76439,1,8,0:0:0:0:
192,192,76439,1,0,0:0:0:0:
448,192,76553,1,8,0:0:0:0:
64,192,76668,1,2,0:0:0:0:
192,192,76668,1,0,0:0:0:0:
320,192,76668,1,0,0:0:0:0:
448,192,76782,1,2,0:0:0:0:
64,192,76896,1,2,0:0:0:0:
192,192,77010,1,4,0:0:0:0:
320,192,77010,1,2,0:0:0:0:
448,192,77010,1,0,0:0:0:0:
320,192,77124,1,0,0:0:0:0:
192,192,77238,1,2,0:0:0:0:
64,192,77352,1,2,0:0:0:0:
320,192,77352,1,0,0:0:0:0:
448,192,77352,1,0,0:0:0:0:
192,192,77466,1,0,0:0:0:0:
64,192,77580,1,10,0:0:0:0:
448,192,77580,1,4,0:0:0:0:
320,192,77694,1,0,0:0:0:0:
192,192,77808,1,10,0:0:0:0:
448,192,77808,1,4,0:0:0:0:
320,192,77922,1,0,0:0:0:0:
64,192,78036,1,2,0:0:0:0:
192,192,78036,1,8,0:0:0:0:
448,192,78036,1,4,0:0:0:0:
448,192,78264,1,8,0:0:0:0:
64,192,78379,1,8,0:0:0:0:
192,192,78379,1,4,0:0:0:0:
448,192,78379,1,0,0:0:0:0:
448,192,78607,1,8,0:0:0:0:
64,192,78721,1,2,0:0:0:0:
192,192,78721,1,4,0:0:0:0:
320,192,78721,1,0,0:0:0:0:
64,192,78949,1,8,0:0:0:0:
192,192,78949,1,0,0:0:0:0:
320,192,79063,1,8,0:0:0:0:
64,192,79177,1,8,0:0:0:0:
192,192,79177,1,0,0:0:0:0:
448,192,79291,1,8,0:0:0:0:
64,192,79405,1,2,0:0:0:0:
192,192,79405,1,0,0:0:0:0:
320,192,79405,1,0,0:0:0:0:
448,192,79519,1,2,0:0:0:0:
64,192,79633,1,2,0:0:0:0:
192,192,79747,1,2,0:0:0:0:
320,192,79747,1,4,0:0:0:0:
448,192,79747,1,0,0:0:0:0:
448,192,79861,1,0,0:0:0:0:
192,192,79976,1,2,0:0:0:0:
64,192,80090,1,2,0:0:0:0:
320,192,80090,1,0,0:0:0:0:
448,192,80090,1,0,0:0:0:0:
64,192,80204,1,0,0:0:0:0:
192,192,80318,1,6,0:0:0:0:
448,192,80318,1,8,0:0:0:0:
320,192,80432,1,0,0:0:0:0:
64,192,80546,1,6,0:0:0:0:
448,192,80546,1,8,0:0:0:0:
320,192,80660,1,0,0:0:0:0:
64,192,80774,1,0,0:0:0:50:LR_Snare Drum 2.wav
192,192,80774,1,0,0:0:0:0:
448,192,80888,128,0,81002:0:0:0:0:
192,192,81002,1,0,0:0:0:50:LR_Drum Rim Fast.wav
64,192,81116,1,0,0:0:0:50:LR_Snare Drum 2.wav
320,192,81116,1,0,0:0:0:0:
448,192,81344,1,0,0:0:0:50:LR_Snare Drum 2.wav
64,192,81458,1,0,0:0:0:50:LR_Snare Drum 2.wav
320,192,81458,1,0,0:0:0:0:
192,192,81572,128,0,81687:0:0:0:0:
64,192,81687,1,0,0:0:0:50:LR_Drum Rim Fast.wav
448,192,81687,1,0,0:0:0:0:
320,192,81801,1,0,0:0:0:0:
192,192,81915,1,0,0:0:0:50:LR_Snare Drum 2.wav
448,192,81915,1,0,0:0:0:0:
64,192,82029,1,0,0:0:0:0:
320,192,82143,1,0,0:0:0:50:LR_Snare Drum 2.wav
448,192,82143,1,0,0:0:0:0:
64,192,82257,128,0,82371:0:0:0:0:
320,192,82371,1,0,0:0:0:50:LR_Drum Rim Fast.wav
192,192,82485,1,0,0:0:0:50:LR_Snare Drum 2.wav
448,192,82485,1,0,0:0:0:0:
448,192,82713,1,0,0:0:0:50:LR_Snare Drum 2.wav
320,192,82770,1,0,0:0:0:0:
64,192,82827,1,0,0:0:0:50:LR_Snare Drum 2.wav
192,192,82827,1,0,0:0:0:0:
320,192,82941,128,0,83055:0:0:0:0:
64,192,83055,1,0,0:0:0:50:LR_Drum Rim Fast.wav
448,192,83055,1,0,0:0:0:0:
192,192,83169,1,0,0:0:0:0:
64,192,83284,1,0,0:0:0:50:LR_Snare Drum 2.wav
320,192,83284,1,0,0:0:0:0:
448,192,83398,1,0,0:0:0:0:
64,192,83512,1,0,0:0:0:50:LR_Snare Drum 2.wav
192,192,83512,1,0,0:0:0:0:
448,192,83626,128,0,83740:0:0:0:0:
192,192,83740,1,0,0:0:0:50:LR_Drum Rim Fast.wav
64,192,83854,1,0,0:0:0:50:LR_Snare Drum 2.wav
320,192,83854,1,0,0:0:0:0:
448,192,84082,1,0,0:0:0:50:LR_Snare Drum 2.wav
64,192,84196,1,0,0:0:0:50:LR_Snare Drum 2.wav
320,192,84196,1,0,0:0:0:0:
192,192,84310,128,0,84424:0:0:0:0:
64,192,84424,1,0,0:0:0:50:LR_Drum Rim Fast.wav
448,192,84424,1,0,0:0:0:0:
320,192,84538,1,0,0:0:0:0:
192,192,84652,1,0,0:0:0:50:LR_Snare Drum 2.wav
448,192,84652,1,0,0:0:0:0:
64,192,84766,1,0,0:0:0:0:
320,192,84880,1,0,0:0:0:50:LR_Snare Drum 2.wav
448,192,84880,1,0,0:0:0:0:
64,192,84995,128,0,85109:0:0:0:0:
320,192,85109,1,0,0:0:0:50:LR_Drum Rim Fast.wav
192,192,85223,1,0,0:0:0:50:LR_Snare Drum 2.wav
448,192,85223,1,0,0:0:0:0:
448,192,85451,1,0,0:0:0:50:LR_Snare Drum 2.wav
64,192,85565,1,0,0:0:0:50:LR_Snare Drum 2.wav
192,192,85565,1,0,0:0:0:0:
320,192,85679,128,0,85793:0:0:0:0:
64,192,85793,1,0,0:0:0:50:LR_Drum Rim Fast.wav
448,192,85793,1,0,0:0:0:0:
192,192,85907,1,0,0:0:0:0:
64,192,86021,1,0,0:0:0:50:LR_Snare Drum 2.wav
320,192,86021,1,0,0:0:0:0:
448,192,86135,1,0,0:0:0:0:
64,192,86249,1,0,0:0:0:50:LR_Snare Drum 2.wav
192,192,86249,1,0,0:0:0:0:
448,192,86363,128,0,86477:0:0:0:0:
192,192,86477,1,0,0:0:0:50:LR_Drum Rim Fast.wav
64,192,86591,1,0,0:0:0:50:LR_Snare Drum 2.wav
320,192,86591,1,0,0:0:0:0:
448,192,86820,1,0,0:0:0:50:LR_Snare Drum 2.wav
64,192,86934,1,0,0:0:0:50:LR_Snare Drum 2.wav
320,192,86934,1,0,0:0:0:0:
192,192,87048,128,0,87162:0:0:0:0:
64,192,87162,1,0,0:0:0:50:LR_Drum Rim Fast.wav
448,192,87162,1,0,0:0:0:0:
320,192,87276,1,0,0:0:0:0:
192,192,87390,1,0,0:0:0:50:LR_Snare Drum 2.wav
448,192,87390,1,0,0:0:0:0:
64,192,87504,1,0,0:0:0:0:
320,192,87618,1,0,0:0:0:50:LR_Snare Drum 2.wav
448,192,87618,1,0,0:0:0:0:
64,192,87732,128,0,87846:0:0:0:0:
320,192,87846,1,0,0:0:0:50:LR_Drum Rim Fast.wav
192,192,87960,1,0,0:0:0:50:LR_Snare Drum 2.wav
448,192,87960,1,0,0:0:0:0:
448,192,88188,1,0,0:0:0:50:LR_Snare Drum 2.wav
320,192,88245,1,0,0:0:0:0:
64,192,88303,1,0,0:0:0:50:LR_Snare Drum 2.wav
192,192,88303,1,0,0:0:0:0:
320,192,88417,128,0,88531:0:0:0:0:
64,192,88531,1,0,0:0:0:50:LR_Drum Rim Fast.wav
448,192,88531,1,0,0:0:0:0:
192,192,88645,1,0,0:0:0:0:
64,192,88759,1,0,0:0:0:50:LR_Snare Drum 2.wav
320,192,88759,1,0,0:0:0:0:
448,192,88873,1,0,0:0:0:0:
64,192,88987,1,0,0:0:0:50:LR_Snare Drum 2.wav
192,192,88987,1,0,0:0:0:0:
448,192,89101,128,0,89215:0:0:0:0:
192,192,89215,1,0,0:0:0:50:LR_Drum Rim Fast.wav
64,192,89329,1,0,0:0:0:50:LR_Snare Drum 2.wav
320,192,89329,1,0,0:0:0:0:
448,192,89557,1,0,0:0:0:50:LR_Snare Drum 2.wav
64,192,89671,1,0,0:0:0:50:LR_Snare Drum 2.wav
320,192,89671,1,0,0:0:0:0:
192,192,89785,128,0,89899:0:0:0:0:
64,192,89899,1,0,0:0:0:50:LR_Drum Rim Fast.wav
448,192,89899,1,0,0:0:0:0:
320,192,90014,1,0,0:0:0:0:
192,192,90128,1,0,0:0:0:50:LR_Snare Drum 2.wav
448,192,90128,1,0,0:0:0:0:
64,192,90242,1,0,0:0:0:0:
320,192,90356,1,0,0:0:0:50:LR_Snare Drum 2.wav
448,192,90356,1,0,0:0:0:0:
64,192,90470,128,0,90584:0:0:0:0:
320,192,90584,1,0,0:0:0:50:LR_Drum Rim Fast.wav
192,192,90698,1,0,0:0:0:50:LR_Snare Drum 2.wav
448,192,90698,1,0,0:0:0:0:
448,192,90926,1,0,0:0:0:50:LR_Snare Drum 2.wav
64,192,91040,1,0,0:0:0:50:LR_Snare Drum 2.wav
192,192,91040,1,0,0:0:0:0:
320,192,91154,128,0,91268:0:0:0:0:
64,192,91268,1,0,0:0:0:50:LR_Drum Rim Fast.wav
448,192,91268,1,0,0:0:0:0:
192,192,91382,1,0,0:0:0:0:
64,192,91496,1,0,0:0:0:50:LR_Snare Drum 2.wav
320,192,91496,1,0,0:0:0:0:
448,192,91611,1,0,0:0:0:0:
64,192,91725,1,2,0:0:0:0:
192,192,91725,1,0,0:0:0:0:
320,192,91725,1,0,0:0:0:0:
64,192,91953,1,0,0:0:0:50:LR_Drum Rim Fast.wav
192,192,92067,1,2,0:0:0:0:
448,192,92067,1,0,0:0:0:0:
192,192,92295,1,0,0:0:0:50:LR_Snare Drum 2.wav
448,192,92295,1,0,0:0:0:0:
64,192,92409,1,2,0:0:0:0:
320,192,92409,1,0,0:0:0:0:
192,192,92637,1,2,0:0:0:0:
320,192,92637,1,0,0:0:0:0:
448,192,92751,1,0,0:0:0:0:
64,192,92865,1,2,0:0:0:0:
320,192,92865,1,0,0:0:0:0:
320,192,92979,1,0,0:0:0:0:
64,192,93093,1,2,0:0:0:0:
192,192,93093,1,0,0:0:0:0:
448,192,93093,1,0,0:0:0:0:
64,192,93322,1,0,0:0:0:50:LR_Drum Rim Fast.wav
192,192,93436,1,2,0:0:0:0:
448,192,93436,1,0,0:0:0:0:
448,192,93664,1,0,0:0:0:50:LR_Snare Drum 2.wav
192,192,93721,1,0,0:0:0:0:
64,192,93778,1,2,0:0:0:0:
320,192,93778,1,0,0:0:0:0:
64,192,94006,1,2,0:0:0:0:
320,192,94006,1,0,0:0:0:0:
192,192,94120,1,0,0:0:0:0:
320,192,94234,1,2,0:0:0:0:
448,192,94234,1,0,0:0:0:0:
320,192,94348,1,0,0:0:0:0:
64,192,94462,1,2,0:0:0:0:
192,192,94462,1,0,0:0:0:0:
448,192,94462,1,0,0:0:0:0:
192,192,94690,1,0,0:0:0:50:LR_Drum Rim Fast.wav
64,192,94804,1,2,0:0:0:0:
320,192,94804,1,0,0:0:0:0:
192,192,95033,1,0,0:0:0:50:LR_Snare Drum 2.wav
320,192,95033,1,0,0:0:0:0:
64,192,95147,1,2,0:0:0:0:
448,192,95147,1,0,0:0:0:0:
64,192,95375,1,2,0:0:0:0:
320,192,95375,1,0,0:0:0:0:
64,192,95603,1,2,0:0:0:0:
192,192,95603,1,0,0:0:0:0:
64,192,95831,1,2,0:0:0:0:
320,192,95831,1,0,0:0:0:0:
448,192,95831,1,0,0:0:0:0:
192,192,95945,1,0,0:0:0:0:
64,192,96059,1,0,0:0:0:50:LR_Drum Rim Fast.wav
192,192,96173,1,2,0:0:0:0:
448,192,96173,1,0,0:0:0:0:
192,192,96401,1,0,0:0:0:50:LR_Snare Drum 2.wav
448,192,96401,1,0,0:0:0:0:
64,192,96515,1,2,0:0:0:0:
320,192,96515,1,0,0:0:0:0:
192,192,96744,1,2,0:0:0:0:
320,192,96744,1,0,0:0:0:0:
448,192,96858,1,0,0:0:0:0:
64,192,96972,1,2,0:0:0:0:
192,192,96972,1,0,0:0:0:0:
320,192,97086,1,0,0:0:0:0:
64,192,97200,1,2,0:0:0:0:
192,192,97200,1,0,0:0:0:0:
448,192,97200,1,0,0:0:0:0:
64,192,97428,1,0,0:0:0:50:LR_Drum Rim Fast.wav
192,192,97542,1,2,0:0:0:0:
448,192,97542,1,0,0:0:0:0:
192,192,97770,1,0,0:0:0:50:LR_Snare Drum 2.wav
448,192,97770,1,0,0:0:0:0:
64,192,97884,1,2,0:0:0:0:
320,192,97884,1,0,0:0:0:0:
192,192,98112,1,2,0:0:0:0:
320,192,98112,1,0,0:0:0:0:
448,192,98226,1,0,0:0:0:0:
64,192,98341,1,2,0:0:0:0:
320,192,98341,1,0,0:0:0:0:
320,192,98455,1,0,0:0:0:0:
64,192,98569,1,2,0:0:0:0:
192,192,98569,1,0,0:0:0:0:
448,192,98569,1,0,0:0:0:0:
64,192,98797,1,0,0:0:0:50:LR_Drum Rim Fast.wav
192,192,98911,1,2,0:0:0:0:
448,192,98911,1,0,0:0:0:0:
448,192,99139,1,0,0:0:0:50:LR_Snare Drum 2.wav
192,192,99196,1,0,0:0:0:0:
64,192,99253,1,2,0:0:0:0:
320,192,99253,1,0,0:0:0:0:
64,192,99481,1,2,0:0:0:0:
320,192,99481,1,0,0:0:0:0:
192,192,99595,1,0,0:0:0:0:
64,192,99709,1,2,0:0:0:0:
448,192,99709,1,0,0:0:0:0:
448,192,99823,1,0,0:0:0:0:
64,192,99938,1,2,0:0:0:0:
192,192,99938,1,0,0:0:0:0:
320,192,99938,1,0,0:0:0:0:
448,192,100166,1,0,0:0:0:50:LR_Drum Rim Fast.wav
64,192,100280,1,2,0:0:0:0:
320,192,100280,1,0,0:0:0:0:
192,192,100508,1,0,0:0:0:50:LR_Snare Drum 2.wav
320,192,100508,1,0,0:0:0:0:
64,192,100622,1,2,0:0:0:0:
448,192,100622,1,0,0:0:0:0:
64,192,100850,1,2,0:0:0:0:
320,192,100850,1,0,0:0:0:0:
64,192,101078,1,2,0:0:0:0:
192,192,101078,1,0,0:0:0:0:
64,192,101306,1,2,0:0:0:0:
320,192,101306,1,0,0:0:0:0:
448,192,101306,1,0,0:0:0:0:
192,192,101420,1,0,0:0:0:0:
448,192,101534,1,0,0:0:0:50:LR_Drum Rim Fast.wav
64,192,101649,1,2,0:0:0:0:
320,192,101649,1,0,0:0:0:0:
448,192,101877,1,0,0:0:0:50:LR_Snare Drum 2.wav
192,192,101991,1,2,0:0:0:0:
320,192,101991,1,0,0:0:0:0:
192,192,102219,1,2,0:0:0:0:
320,192,102219,1,0,0:0:0:0:
192,192,102447,1,2,0:0:0:0:
320,192,102447,1,0,0:0:0:0:
64,192,102675,1,2,0:0:0:0:
192,192,102675,1,0,0:0:0:0:
448,192,102675,1,0,0:0:0:0:
64,192,102903,1,0,0:0:0:50:LR_Drum Rim Fast.wav
192,192,103017,1,2,0:0:0:0:
448,192,103017,1,0,0:0:0:0:
192,192,103245,1,0,0:0:0:50:LR_Snare Drum 2.wav
448,192,103245,1,0,0:0:0:0:
64,192,103360,1,2,0:0:0:0:
320,192,103360,1,0,0:0:0:0:
192,192,103588,1,2,0:0:0:0:
320,192,103588,1,0,0:0:0:0:
448,192,103702,1,0,0:0:0:0:
64,192,103816,1,2,0:0:0:0:
320,192,103816,1,0,0:0:0:0:
320,192,103930,1,0,0:0:0:0:
64,192,104044,1,2,0:0:0:0:
192,192,104044,1,0,0:0:0:0:
448,192,104044,1,0,0:0:0:0:
64,192,104272,1,0,0:0:0:50:LR_Drum Rim Fast.wav
192,192,104386,1,2,0:0:0:0:
448,192,104386,1,0,0:0:0:0:
448,192,104614,1,0,0:0:0:50:LR_Snare Drum 2.wav
192,192,104671,1,0,0:0:0:0:
64,192,104728,1,2,0:0:0:0:
320,192,104728,1,0,0:0:0:0:
64,192,104957,1,2,0:0:0:0:
320,192,104957,1,0,0:0:0:0:
192,192,105071,1,0,0:0:0:0:
320,192,105185,1,2,0:0:0:0:
448,192,105185,1,0,0:0:0:0:
320,192,105299,1,0,0:0:0:0:
64,192,105413,1,2,0:0:0:0:
192,192,105413,1,0,0:0:0:0:
448,192,105413,1,0,0:0:0:0:
192,192,105641,1,0,0:0:0:50:LR_Drum Rim Fast.wav
64,192,105755,1,2,0:0:0:0:
320,192,105755,1,0,0:0:0:0:
192,192,105983,1,0,0:0:0:50:LR_Snare Drum 2.wav
320,192,105983,1,0,0:0:0:0:
64,192,106097,1,2,0:0:0:0:
448,192,106097,1,0,0:0:0:0:
64,192,106325,1,2,0:0:0:0:
320,192,106325,1,0,0:0:0:0:
64,192,106553,1,2,0:0:0:0:
192,192,106553,1,0,0:0:0:0:
64,192,106782,1,2,0:0:0:0:
320,192,106782,1,0,0:0:0:0:
448,192,106782,1,0,0:0:0:0:
192,192,106896,1,0,0:0:0:0:
64,192,107010,1,0,0:0:0:50:LR_Drum Rim Fast.wav
192,192,107124,1,2,0:0:0:0:
448,192,107124,1,0,0:0:0:0:
192,192,107352,1,0,0:0:0:50:LR_Snare Drum 2.wav
448,192,107352,1,0,0:0:0:0:
64,192,107466,1,2,0:0:0:0:
320,192,107466,1,0,0:0:0:0:
64,192,107694,1,2,0:0:0:0:
320,192,107694,1,0,0:0:0:0:
448,192,107808,1,0,0:0:0:0:
64,192,107922,1,2,0:0:0:0:
192,192,107922,1,0,0:0:0:0:
320,192,108036,1,0,0:0:0:0:
64,192,108150,1,2,0:0:0:0:
192,192,108150,1,0,0:0:0:0:
448,192,108150,1,0,0:0:0:0:
64,192,108379,1,0,0:0:0:50:LR_Drum Rim Fast.wav
192,192,108493,1,2,0:0:0:0:
448,192,108493,1,0,0:0:0:0:
192,192,108721,1,0,0:0:0:50:LR_Snare Drum 2.wav
448,192,108721,1,0,0:0:0:0:
64,192,108835,1,2,0:0:0:0:
320,192,108835,1,0,0:0:0:0:
192,192,109063,1,2,0:0:0:0:
320,192,109063,1,0,0:0:0:0:
448,192,109177,1,0,0:0:0:0:
64,192,109291,1,2,0:0:0:0:
320,192,109291,1,0,0:0:0:0:
320,192,109405,1,0,0:0:0:0:
64,192,109519,1,2,0:0:0:0:
192,192,109519,1,0,0:0:0:0:
448,192,109519,1,0,0:0:0:0:
64,192,109747,1,0,0:0:0:50:LR_Drum Rim Fast.wav
192,192,109861,1,2,0:0:0:0:
448,192,109861,1,0,0:0:0:0:
448,192,110090,1,0,0:0:0:50:LR_Snare Drum 2.wav
192,192,110147,1,0,0:0:0:0:
64,192,110204,1,2,0:0:0:0:
320,192,110204,1,0,0:0:0:0:
64,192,110432,1,2,0:0:0:0:
320,192,110432,1,0,0:0:0:0:
192,192,110546,1,0,0:0:0:0:
64,192,110660,1,2,0:0:0:0:
448,192,110660,1,0,0:0:0:0:
64,192,110774,1,0,0:0:0:0:
192,192,110888,1,2,0:0:0:0:
320,192,110888,1,0,0:0:0:0:
448,192,110888,1,0,0:0:0:0:
448,192,111116,1,0,0:0:0:50:LR_Drum Rim Fast.wav
64,192,111230,1,2,0:0:0:0:
320,192,111230,1,0,0:0:0:0:
192,192,111458,1,0,0:0:0:50:LR_Snare Drum 2.wav
320,192,111458,1,0,0:0:0:0:
64,192,111572,1,2,0:0:0:0:
448,192,111572,1,0,0:0:0:0:
64,192,111801,1,2,0:0:0:0:
320,192,111801,1,0,0:0:0:0:
64,192,112029,1,2,0:0:0:0:
192,192,112029,1,0,0:0:0:0:
64,192,112257,1,2,0:0:0:0:
320,192,112257,1,0,0:0:0:0:
448,192,112257,1,0,0:0:0:0:
192,192,112371,1,0,0:0:0:0:
448,192,112485,1,0,0:0:0:50:LR_Drum Rim Fast.wav
64,192,112599,1,2,0:0:0:0:
320,192,112599,1,0,0:0:0:0:
448,192,112827,1,0,0:0:0:50:LR_Snare Drum 2.wav
192,192,112941,1,2,0:0:0:0:
320,192,112941,1,0,0:0:0:0:
192,192,113169,1,2,0:0:0:0:
320,192,113169,1,0,0:0:0:0:
192,192,113398,1,2,0:0:0:0:
320,192,113398,1,0,0:0:0:0:
64,192,113626,1,2,0:0:0:0:
192,192,113626,1,0,0:0:0:0:
320,192,113626,1,0,0:0:0:0:
448,192,113626,1,0,0:0:0:0:
