osu file format v14

[General]
AudioFilename: audio.mp3
AudioLeadIn: 1500
PreviewTime: 10964
Countdown: 0
SampleSet: Soft
StackLeniency: 0.7
Mode: 3
LetterboxInBreaks: 0
SpecialStyle: 0
WidescreenStoryboard: 1

[Editor]
DistanceSpacing: 3.6
BeatDivisor: 4
GridSize: 16
TimelineZoom: 1.5

[Metadata]
Title:Spear of Justice
TitleUnicode:Spear of Justice
Artist:toby fox
ArtistUnicode:toby fox
Creator:Monheim
Version:Easy
Source:UNDERTALE
Tags:famoss radiation mania world cup mwc chiptune 16-bit chordjack jack chordjacks jacks undyne undyne's theme civilization video game instrumental ost soundtrack electronic
BeatmapID:2571376
BeatmapSetID:1044193

[Difficulty]
HPDrainRate:7
CircleSize:4
OverallDifficulty:7
ApproachRate:9
SliderMultiplier:1.4
SliderTickRate:1

[Events]
//Background and Video events
0,0,"bg.png",0,0
//Break Periods
//Storyboard Layer 0 (Background)
//Storyboard Layer 1 (Fail)
//Storyboard Layer 2 (Pass)
//Storyboard Layer 3 (Foreground)
//Storyboard Layer 4 (Overlay)
//Storyboard Sound Samples

[TimingPoints]
14,456.274,3,2,1,40,1,0

[HitObjects]
64,192,14,5,2,0:0:0:0:
320,192,14,1,0,0:0:0:0:
64,192,1382,1,8,0:0:0:0:
448,192,1382,1,4,0:0:0:0:
64,192,2751,1,4,0:0:0:0:
320,192,2751,1,2,0:0:0:0:
64,192,4120,1,4,0:0:0:0:
192,192,4120,1,8,0:0:0:0:
320,192,4576,1,0,0:0:0:0:
64,192,4804,1,8,0:0:0:0:
448,192,4804,1,4,0:0:0:0:
448,192,5261,1,0,0:0:0:0:
64,192,5489,1,2,0:0:0:0:
320,192,5489,1,4,0:0:0:0:
64,192,6858,1,8,0:0:0:0:
448,192,6858,1,4,0:0:0:0:
64,192,8226,1,4,0:0:0:0:
320,192,8226,1,2,0:0:0:0:
64,192,9595,1,4,0:0:0:0:
192,192,9595,1,8,0:0:0:0:
192,192,10052,1,0,0:0:0:0:
64,192,10280,1,8,0:0:0:0:
320,192,10280,1,4,0:0:0:0:
320,192,10736,1,0,0:0:0:0:
64,192,10964,1,2,0:0:0:0:
448,192,10964,1,4,0:0:0:0:
448,192,11306,1,8,0:0:0:0:
64,192,11648,1,8,0:0:0:0:
448,192,11877,1,8,0:0:0:0:
192,192,12105,1,8,0:0:0:0:
64,192,12333,1,2,0:0:0:0:
320,192,12333,1,4,0:0:0:0:
320,192,12675,1,8,0:0:0:0:
64,192,13017,1,8,0:0:0:0:
320,192,13245,1,8,0:0:0:0:
192,192,13474,1,8,0:0:0:0:
64,192,13702,1,2,0:0:0:0:
448,192,13702,1,4,0:0:0:0:
448,192,14044,1,8,0:0:0:0:
64,192,14386,1,8,0:0:0:0:
448,192,14614,1,8,0:0:0:0:
192,192,14842,1,8,0:0:0:0:
64,192,15071,1,2,0:0:0:0:
320,192,15071,1,4,0:0:0:0:
64,192,15527,1,8,0:0:0:0:
192,192,15755,1,4,0:0:0:0:
448,192,15755,1,8,0:0:0:0:
320,192,16211,1,8,0:0:0:0:
64,192,16439,1,2,0:0:0:0:
448,192,16439,1,4,0:0:0:0:
448,192,16782,1,8,0:0:0:0:
64,192,17124,1,8,0:0:0:0:
448,192,17352,1,8,0:0:0:0:
192,192,17580,1,8,0:0:0:0:
64,192,17808,1,2,0:0:0:0:
320,192,17808,1,4,0:0:0:0:
320,192,18150,1,8,0:0:0:0:
192,192,18493,1,8,0:0:0:0:
320,192,18721,1,8,0:0:0:0:
64,192,18949,1,8,0:0:0:0:
192,192,19177,1,2,0:0:0:0:
448,192,19177,1,4,0:0:0:0:
448,192,19519,1,8,0:0:0:0:
64,192,19861,1,8,0:0:0:0:
448,192,20090,1,8,0:0:0:0:
192,192,20318,1,8,0:0:0:0:
64,192,20546,1,2,0:0:0:0:
320,192,20546,1,4,0:0:0:0:
64,192,21002,1,8,0:0:0:0:
192,192,21230,1,8,0:0:0:0:
448,192,21230,1,4,0:0:0:0:
320,192,21687,1,8,0:0:0:0:
64,192,21915,1,2,0:0:0:0:
448,192,21915,1,4,0:0:0:0:
448,192,22257,1,8,0:0:0:0:
192,192,22599,1,8,0:0:0:0:
448,192,22827,1,8,0:0:0:0:
64,192,23055,1,8,0:0:0:0:
192,192,23283,1,2,0:0:0:0:
320,192,23283,1,4,0:0:0:0:
320,192,23626,1,10,0:0:0:0:
64,192,23968,1,10,0:0:0:0:
320,192,24196,1,10,0:0:0:0:
192,192,24424,1,10,0:0:0:0:
64,192,24652,1,2,0:0:0:0:
448,192,24652,1,4,0:0:0:0:
448,192,24995,1,8,0:0:0:0:
64,192,25337,1,8,0:0:0:0:
448,192,25565,1,8,0:0:0:0:
64,192,25793,1,8,0:0:0:0:
192,192,26021,1,2,0:0:0:0:
320,192,26021,1,4,0:0:0:0:
64,192,26477,1,8,0:0:0:0:
192,192,26706,1,4,0:0:0:0:
448,192,26706,1,8,0:0:0:0:
320,192,27162,1,8,0:0:0:0:
64,192,27390,1,2,0:0:0:0:
448,192,27390,1,4,0:0:0:0:
448,192,27732,1,8,0:0:0:0:
192,192,28074,1,8,0:0:0:0:
448,192,28302,1,8,0:0:0:0:
64,192,28531,1,8,0:0:0:0:
192,192,28759,1,2,0:0:0:0:
320,192,28759,1,4,0:0:0:0:
320,192,29101,1,10,0:0:0:0:
64,192,29443,1,10,0:0:0:0:
320,192,29671,1,10,0:0:0:0:
192,192,29899,1,10,0:0:0:0:
64,192,30128,1,2,0:0:0:0:
448,192,30128,1,4,0:0:0:0:
448,192,30470,1,8,0:0:0:0:
192,192,30812,1,8,0:0:0:0:
448,192,31040,1,8,0:0:0:0:
64,192,31268,1,8,0:0:0:0:
192,192,31496,1,2,0:0:0:0:
320,192,31496,1,4,0:0:0:0:
192,192,31953,1,8,0:0:0:0:
64,192,32181,1,8,0:0:0:0:
320,192,32181,1,4,0:0:0:0:
64,192,32637,1,8,0:0:0:0:
192,192,32865,1,2,0:0:0:0:
448,192,32865,1,4,0:0:0:0:
192,192,33322,1,8,0:0:0:0:
64,192,33550,1,8,0:0:0:0:
320,192,33550,1,4,0:0:0:0:
448,192,34006,1,8,0:0:0:0:
192,192,34234,1,2,0:0:0:0:
320,192,34234,1,4,0:0:0:0:
192,192,34690,1,8,0:0:0:0:
64,192,34918,1,8,0:0:0:0:
320,192,34918,1,4,0:0:0:0:
192,192,35375,1,8,0:0:0:0:
64,192,35603,1,2,0:0:0:0:
448,192,35603,1,4,0:0:0:0:
320,192,35831,1,8,0:0:0:0:
64,192,36059,1,8,0:0:0:0:
192,192,36287,1,4,0:0:0:0:
192,192,36972,1,2,0:0:0:0:
320,192,37314,1,2,0:0:0:0:
64,192,37656,1,2,0:0:0:0:
448,192,37884,1,2,0:0:0:0:
320,192,38112,1,2,0:0:0:0:
192,192,38341,1,2,0:0:0:0:
320,192,38683,1,2,0:0:0:0:
64,192,39025,1,2,0:0:0:0:
448,192,39253,1,2,0:0:0:0:
320,192,39481,1,2,0:0:0:0:
192,192,39709,1,2,0:0:0:0:
320,192,40052,1,2,0:0:0:0:
64,192,40394,1,2,0:0:0:0:
448,192,40622,1,0,0:0:0:50:LR_Drum Rim Fast.wav
64,192,40850,1,0,0:0:0:50:LR_Drum Rim Fast.wav
192,192,41078,1,2,0:0:0:0:
448,192,41420,1,2,0:0:0:0:
64,192,41763,1,2,0:0:0:0:
320,192,41991,1,2,0:0:0:0:
448,192,42219,1,2,0:0:0:0:
192,192,42447,1,2,0:0:0:0:
320,192,42789,1,2,0:0:0:0:
64,192,43131,1,2,0:0:0:0:
320,192,43360,1,2,0:0:0:0:
448,192,43588,1,2,0:0:0:0:
192,192,43816,1,2,0:0:0:0:
320,192,44158,1,2,0:0:0:0:
64,192,44500,1,2,0:0:0:0:
320,192,44728,1,2,0:0:0:0:
448,192,44956,1,2,0:0:0:0:
192,192,45185,1,2,0:0:0:0:
320,192,45527,1,2,0:0:0:0:
64,192,45869,1,2,0:0:0:0:
448,192,46097,1,0,0:0:0:50:LR_Drum Rim Fast.wav
64,192,46325,1,0,0:0:0:50:LR_Drum Rim Fast.wav
192,192,46553,1,2,0:0:0:0:
448,192,46896,1,2,0:0:0:0:
64,192,47238,1,2,0:0:0:0:
320,192,47466,1,2,0:0:0:0:
192,192,47694,1,2,0:0:0:0:
64,192,47922,1,2,0:0:0:0:
448,192,47922,1,4,0:0:0:0:
192,192,48264,1,12,0:0:0:0:
64,192,48607,1,2,0:0:0:0:
320,192,48607,1,4,0:0:0:0:
448,192,48835,1,8,0:0:0:0:
64,192,49063,1,8,0:0:0:0:
192,192,49291,1,2,0:0:0:0:
320,192,49633,1,2,0:0:0:0:
448,192,49633,1,4,0:0:0:0:
64,192,49976,1,2,0:0:0:0:
320,192,50204,1,14,0:0:0:0:
192,192,50432,1,14,0:0:0:0:
64,192,50660,1,6,0:0:0:0:
448,192,50660,1,8,0:0:0:0:
192,192,51002,1,12,0:0:0:0:
64,192,51344,1,2,0:0:0:0:
320,192,51344,1,4,0:0:0:0:
448,192,51572,1,8,0:0:0:0:
192,192,51801,1,8,0:0:0:0:
64,192,52029,1,2,0:0:0:0:
320,192,52371,1,2,0:0:0:0:
448,192,52371,1,4,0:0:0:0:
192,192,52713,1,2,0:0:0:0:
320,192,53055,1,0,0:0:0:0:
64,192,53398,1,10,0:0:0:0:
448,192,53398,1,4,0:0:0:0:
192,192,53740,1,12,0:0:0:0:
64,192,54082,1,2,0:0:0:0:
320,192,54082,1,4,0:0:0:0:
448,192,54310,1,8,0:0:0:0:
64,192,54538,1,8,0:0:0:0:
192,192,54766,1,2,0:0:0:0:
320,192,55109,1,2,0:0:0:0:
448,192,55109,1,4,0:0:0:0:
64,192,55451,1,2,0:0:0:0:
320,192,55679,1,14,0:0:0:0:
192,192,55907,1,14,0:0:0:0:
64,192,56135,1,6,0:0:0:0:
448,192,56135,1,8,0:0:0:0:
192,192,56477,1,12,0:0:0:0:
64,192,56820,1,2,0:0:0:0:
320,192,56820,1,4,0:0:0:0:
448,192,57048,1,8,0:0:0:0:
192,192,57276,1,8,0:0:0:0:
64,192,57504,1,2,0:0:0:0:
192,192,57846,1,4,0:0:0:0:
448,192,57846,1,2,0:0:0:0:
320,192,58188,1,2,0:0:0:0:
64,192,58417,1,14,0:0:0:0:
448,192,58645,1,14,0:0:0:0:
192,192,58873,1,2,0:0:0:0:
320,192,59215,1,2,0:0:0:0:
64,192,59557,1,2,0:0:0:0:
448,192,59785,1,2,0:0:0:0:
320,192,60014,1,2,0:0:0:0:
192,192,60242,1,2,0:0:0:0:
320,192,60584,1,2,0:0:0:0:
64,192,60926,1,2,0:0:0:0:
448,192,61154,1,2,0:0:0:0:
320,192,61382,1,2,0:0:0:0:
192,192,61610,1,2,0:0:0:0:
320,192,61953,1,2,0:0:0:0:
64,192,62295,1,2,0:0:0:0:
448,192,62523,1,0,0:0:0:50:LR_Drum Rim Fast.wav
64,192,62751,1,0,0:0:0:50:LR_Drum Rim Fast.wav
192,192,62979,1,2,0:0:0:0:
448,192,63322,1,2,0:0:0:0:
64,192,63664,1,2,0:0:0:0:
320,192,63892,1,2,0:0:0:0:
448,192,64120,1,2,0:0:0:0:
192,192,64348,1,2,0:0:0:0:
320,192,64690,1,2,0:0:0:0:
64,192,65033,1,2,0:0:0:0:
320,192,65261,1,2,0:0:0:0:
448,192,65489,1,2,0:0:0:0:
192,192,65717,1,2,0:0:0:0:
320,192,66059,1,2,0:0:0:0:
64,192,66401,1,2,0:0:0:0:
320,192,66630,1,2,0:0:0:0:
448,192,66858,1,2,0:0:0:0:
192,192,67086,1,2,0:0:0:0:
320,192,67428,1,2,0:0:0:0:
64,192,67770,1,2,0:0:0:0:
448,192,67998,1,0,0:0:0:50:LR_Drum Rim Fast.wav
64,192,68226,1,0,0:0:0:50:LR_Drum Rim Fast.wav
192,192,68455,1,2,0:0:0:0:
448,192,68797,1,2,0:0:0:0:
64,192,69139,1,2,0:0:0:0:
320,192,69367,1,2,0:0:0:0:
192,192,69595,1,2,0:0:0:0:
64,192,69823,1,2,0:0:0:0:
448,192,69823,1,4,0:0:0:0:
192,192,70166,1,12,0:0:0:0:
64,192,70508,1,2,0:0:0:0:
320,192,70508,1,4,0:0:0:0:
448,192,70736,1,8,0:0:0:0:
64,192,70964,1,8,0:0:0:0:
192,192,71192,1,2,0:0:0:0:
320,192,71534,1,4,0:0:0:0:
448,192,71534,1,2,0:0:0:0:
64,192,71877,1,2,0:0:0:0:
320,192,72105,1,14,0:0:0:0:
192,192,72333,1,14,0:0:0:0:
64,192,72561,1,6,0:0:0:0:
448,192,72561,1,8,0:0:0:0:
192,192,72903,1,12,0:0:0:0:
64,192,73245,1,2,0:0:0:0:
320,192,73245,1,4,0:0:0:0:
448,192,73474,1,8,0:0:0:0:
192,192,73702,1,8,0:0:0:0:
64,192,73930,1,2,0:0:0:0:
320,192,74272,1,4,0:0:0:0:
448,192,74272,1,2,0:0:0:0:
192,192,74614,1,2,0:0:0:0:
320,192,74957,1,0,0:0:0:0:
64,192,75299,1,6,0:0:0:0:
448,192,75299,1,8,0:0:0:0:
192,192,75641,1,12,0:0:0:0:
64,192,75983,1,2,0:0:0:0:
320,192,75983,1,4,0:0:0:0:
448,192,76211,1,8,0:0:0:0:
64,192,76439,1,8,0:0:0:0:
192,192,76668,1,2,0:0:0:0:
320,192,77010,1,4,0:0:0:0:
448,192,77010,1,2,0:0:0:0:
64,192,77352,1,2,0:0:0:0:
320,192,77580,1,14,0:0:0:0:
192,192,77808,1,14,0:0:0:0:
64,192,78036,1,10,0:0:0:0:
448,192,78036,1,4,0:0:0:0:
192,192,78379,1,12,0:0:0:0:
64,192,78721,1,2,0:0:0:0:
320,192,78721,1,4,0:0:0:0:
448,192,78949,1,8,0:0:0:0:
192,192,79177,1,8,0:0:0:0:
64,192,79405,1,2,0:0:0:0:
192,192,79747,1,2,0:0:0:0:
448,192,79747,1,4,0:0:0:0:
320,192,80090,1,2,0:0:0:0:
64,192,80318,1,14,0:0:0:0:
448,192,80546,1,14,0:0:0:0:
320,192,80774,1,0,0:0:0:50:LR_Snare Drum 2.wav
192,192,82143,1,0,0:0:0:50:LR_Snare Drum 2.wav
320,192,83512,1,0,0:0:0:50:LR_Snare Drum 2.wav
64,192,84880,1,0,0:0:0:50:LR_Snare Drum 2.wav
320,192,86249,1,0,0:0:0:50:LR_Snare Drum 2.wav
192,192,87618,1,0,0:0:0:50:LR_Snare Drum 2.wav
320,192,88987,1,0,0:0:0:50:LR_Snare Drum 2.wav
320,192,90356,1,0,0:0:0:50:LR_Snare Drum 2.wav
192,192,90698,1,0,0:0:0:50:LR_Snare Drum 2.wav
320,192,91040,1,0,0:0:0:50:LR_Snare Drum 2.wav
64,192,91725,1,2,0:0:0:0:
320,192,91725,1,0,0:0:0:0:
192,192,93093,1,2,0:0:0:0:
320,192,93093,1,0,0:0:0:0:
192,192,94462,1,2,0:0:0:0:
448,192,94462,1,0,0:0:0:0:
64,192,95831,1,2,0:0:0:0:
192,192,95831,1,0,0:0:0:0:
320,192,96515,1,2,0:0:0:0:
448,192,96515,1,0,0:0:0:0:
64,192,97200,1,2,0:0:0:0:
320,192,97200,1,0,0:0:0:0:
192,192,98569,1,2,0:0:0:0:
320,192,98569,1,0,0:0:0:0:
192,192,99938,1,2,0:0:0:0:
448,192,99938,1,0,0:0:0:0:
192,192,101306,1,2,0:0:0:0:
448,192,101306,1,0,0:0:0:0:
64,192,101649,1,2,0:0:0:0:
320,192,101649,1,0,0:0:0:0:
192,192,101991,1,2,0:0:0:0:
448,192,101991,1,0,0:0:0:0:
64,192,102675,1,2,0:0:0:0:
320,192,102675,1,0,0:0:0:0:
192,192,104044,1,2,0:0:0:0:
320,192,104044,1,0,0:0:0:0:
192,192,105413,1,2,0:0:0:0:
448,192,105413,1,0,0:0:0:0:
64,192,106782,1,2,0:0:0:0:
192,192,106782,1,0,0:0:0:0:
320,192,107466,1,2,0:0:0:0:
448,192,107466,1,0,0:0:0:0:
64,192,108150,1,2,0:0:0:0:
320,192,108150,1,0,0:0:0:0:
192,192,109519,1,2,0:0:0:0:
320,192,109519,1,0,0:0:0:0:
192,192,110888,1,2,0:0:0:0:
448,192,110888,1,0,0:0:0:0:
192,192,112257,1,2,0:0:0:0:
448,192,112257,1,0,0:0:0:0:
64,192,112599,1,2,0:0:0:0:
320,192,112599,1,0,0:0:0:0:
192,192,112941,1,2,0:0:0:0:
448,192,112941,1,0,0:0:0:0:
320,192,113626,1,2,0:0:0:0:
448,192,113626,1,0,0:0:0:0:
