osu file format v14

[General]
AudioFilename: sans!!!!!!!!.ogg
AudioLeadIn: 0
PreviewTime: 2013
Countdown: 0
SampleSet: Normal
StackLeniency: 0.3
Mode: 1
LetterboxInBreaks: 0
WidescreenStoryboard: 1

[Editor]
Bookmarks: 2000
DistanceSpacing: 1.1
BeatDivisor: 4
GridSize: 32
TimelineZoom: 1.472001

[Metadata]
Title:Song That Might Play When You Fight Sans
TitleUnicode:Song That Might Play When You Fight Sans
Artist:toby fox
ArtistUnicode:toby fox
Creator:meiqth
Version:Muzukashii
Source:UNDERTALE
Tags:stmpwyfs videogame electronic instrumental ost original soundtrack _pizzaninjax yenmaster
BeatmapID:4346310
BeatmapSetID:1504271

[Difficulty]
HPDrainRate:9
CircleSize:2
OverallDifficulty:5
ApproachRate:10
SliderMultiplier:1.3
SliderTickRate:1

[Events]
//Background and Video events
0,0,"sans-in-undertale-.png",0,-80
//Break Periods
//Storyboard Layer 0 (Background)
//Storyboard Layer 1 (Fail)
//Storyboard Layer 2 (Pass)
//Storyboard Layer 3 (Foreground)
//Storyboard Layer 4 (Overlay)
//Storyboard Sound Samples

[TimingPoints]
1984,250,4,1,0,66,1,0

[Colours]
Combo1 : 94,94,94
Combo2 : 38,72,164
Combo3 : 219,219,219

[HitObjects]
256,192,46,12,0,984,0:0:0:0:
256,192,1984,5,8,0:0:0:0:
256,192,2234,1,0,0:0:0:0:
256,192,2484,1,8,0:0:0:0:
256,192,2734,1,0,0:0:0:0:
256,192,2859,1,0,0:0:0:0:
256,192,2984,1,8,0:0:0:0:
256,192,3234,1,0,0:0:0:0:
256,192,3359,1,8,0:0:0:0:
256,192,3421,1,8,0:0:0:0:
256,192,3484,1,8,0:0:0:0:
256,192,3609,1,0,0:0:0:0:
256,192,3734,1,0,0:0:0:0:
256,192,3859,1,8,0:0:0:0:
256,192,4234,1,8,0:0:0:0:
256,192,4359,1,0,0:0:0:0:
256,192,4484,1,8,0:0:0:0:
256,192,4734,1,0,0:0:0:0:
256,192,4859,1,0,0:0:0:0:
256,192,4984,1,8,0:0:0:0:
256,192,5234,1,0,0:0:0:0:
256,192,5359,1,8,0:0:0:0:
256,192,5609,1,0,0:0:0:0:
256,192,5734,1,8,0:0:0:0:
256,192,6234,1,0,0:0:0:0:
256,192,6296,1,0,0:0:0:0:
256,192,6359,1,0,0:0:0:0:
256,192,6484,1,8,0:0:0:0:
256,192,6734,1,8,0:0:0:0:
256,192,6859,1,8,0:0:0:0:
256,192,6984,1,0,0:0:0:0:
256,192,7234,1,8,0:0:0:0:
256,192,7359,1,0,0:0:0:0:
256,192,7421,1,0,0:0:0:0:
256,192,7484,1,0,0:0:0:0:
256,192,7609,1,8,0:0:0:0:
256,192,7734,1,8,0:0:0:0:
256,192,7859,1,0,0:0:0:0:
256,192,8234,1,8,0:0:0:0:
256,192,8359,1,0,0:0:0:0:
256,192,8484,1,8,0:0:0:0:
256,192,8734,1,0,0:0:0:0:
256,192,8859,1,0,0:0:0:0:
256,192,8984,1,8,0:0:0:0:
256,192,9234,1,0,0:0:0:0:
256,192,9359,1,8,0:0:0:0:
256,192,9609,1,0,0:0:0:0:
256,192,9734,1,8,0:0:0:0:
256,192,10234,1,8,0:0:0:0:
256,192,10359,1,8,0:0:0:0:
256,192,10484,1,8,0:0:0:0:
256,192,10734,1,0,0:0:0:0:
256,192,10859,1,0,0:0:0:0:
256,192,10984,1,8,0:0:0:0:
256,192,11109,1,8,0:0:0:0:
256,192,11234,1,0,0:0:0:0:
256,192,11359,1,8,0:0:0:0:
256,192,11609,1,8,0:0:0:0:
256,192,11734,1,0,0:0:0:0:
256,192,12234,1,8,0:0:0:0:
256,192,12359,1,0,0:0:0:0:
256,192,12484,1,8,0:0:0:0:
256,192,12734,1,0,0:0:0:0:
256,192,12859,1,0,0:0:0:0:
256,192,12984,1,8,0:0:0:0:
256,192,13109,1,0,0:0:0:0:
256,192,13234,1,8,0:0:0:0:
256,192,13359,1,8,0:0:0:0:
256,192,13609,1,0,0:0:0:0:
256,192,13734,1,0,0:0:0:0:
256,192,14234,1,8,0:0:0:0:
256,192,14359,1,8,0:0:0:0:
256,192,14484,1,8,0:0:0:0:
256,192,14734,1,0,0:0:0:0:
256,192,14859,1,8,0:0:0:0:
256,192,14984,1,8,0:0:0:0:
256,192,15109,1,8,0:0:0:0:
256,192,15234,1,0,0:0:0:0:
256,192,15359,1,8,0:0:0:0:
256,192,15609,1,8,0:0:0:0:
256,192,15734,1,0,0:0:0:0:
256,192,16234,1,0,0:0:0:0:
256,192,16359,1,0,0:0:0:0:
256,192,16484,1,8,0:0:0:0:
256,192,16734,1,0,0:0:0:0:
256,192,16859,1,8,0:0:0:0:
256,192,16984,1,0,0:0:0:0:
256,192,17984,5,0,0:0:0:0:
256,192,18234,1,0,0:0:0:0:
256,192,18484,1,8,0:0:0:0:
256,192,18734,1,0,0:0:0:0:
256,192,18859,1,8,0:0:0:0:
256,192,18984,1,0,0:0:0:0:
256,192,19234,1,8,0:0:0:0:
256,192,19359,1,0,0:0:0:0:
256,192,19421,1,0,0:0:0:0:
256,192,19484,1,0,0:0:0:0:
256,192,19609,1,8,0:0:0:0:
256,192,19734,1,8,0:0:0:0:
256,192,19859,1,0,0:0:0:0:
256,192,20234,1,8,0:0:0:0:
256,192,20359,1,0,0:0:0:0:
256,192,20484,1,8,0:0:0:0:
256,192,20734,1,0,0:0:0:0:
256,192,20859,1,0,0:0:0:0:
256,192,20984,1,8,0:0:0:0:
256,192,21234,1,0,0:0:0:0:
256,192,21359,1,8,0:0:0:0:
256,192,21609,1,0,0:0:0:0:
256,192,21734,1,8,0:0:0:0:
256,192,22234,1,8,0:0:0:0:
256,192,22296,1,8,0:0:0:0:
256,192,22359,1,8,0:0:0:0:
256,192,22484,1,0,0:0:0:0:
256,192,22734,1,0,0:0:0:0:
256,192,22859,1,8,0:0:0:0:
256,192,22984,1,0,0:0:0:0:
256,192,23234,1,0,0:0:0:0:
256,192,23359,1,8,0:0:0:0:
256,192,23421,1,8,0:0:0:0:
256,192,23484,1,8,0:0:0:0:
256,192,23609,1,0,0:0:0:0:
256,192,23734,1,8,0:0:0:0:
256,192,23859,1,0,0:0:0:0:
256,192,24234,1,8,0:0:0:0:
256,192,24359,1,0,0:0:0:0:
256,192,24484,1,8,0:0:0:0:
256,192,24734,1,0,0:0:0:0:
256,192,24859,1,0,0:0:0:0:
256,192,24984,1,8,0:0:0:0:
256,192,25234,1,0,0:0:0:0:
256,192,25359,1,8,0:0:0:0:
256,192,25609,1,0,0:0:0:0:
256,192,25734,1,8,0:0:0:0:
256,192,26234,1,8,0:0:0:0:
256,192,26359,1,8,0:0:0:0:
256,192,26484,1,8,0:0:0:0:
256,192,26734,1,0,0:0:0:0:
256,192,26859,1,0,0:0:0:0:
256,192,26984,1,8,0:0:0:0:
256,192,27109,1,8,0:0:0:0:
256,192,27234,1,0,0:0:0:0:
256,192,27359,1,8,0:0:0:0:
256,192,27609,1,8,0:0:0:0:
256,192,27734,1,0,0:0:0:0:
256,192,28234,1,8,0:0:0:0:
256,192,28359,1,0,0:0:0:0:
256,192,28484,1,8,0:0:0:0:
256,192,28734,1,0,0:0:0:0:
256,192,28859,1,0,0:0:0:0:
256,192,28984,1,8,0:0:0:0:
256,192,29109,1,0,0:0:0:0:
256,192,29234,1,8,0:0:0:0:
256,192,29359,1,8,0:0:0:0:
256,192,29609,1,0,0:0:0:0:
256,192,29734,1,0,0:0:0:0:
256,192,30234,1,8,0:0:0:0:
256,192,30359,1,8,0:0:0:0:
256,192,30484,1,8,0:0:0:0:
256,192,30734,1,0,0:0:0:0:
256,192,30859,1,8,0:0:0:0:
256,192,30984,1,8,0:0:0:0:
256,192,31109,1,8,0:0:0:0:
256,192,31234,1,0,0:0:0:0:
256,192,31359,1,8,0:0:0:0:
256,192,31609,1,8,0:0:0:0:
256,192,31734,1,0,0:0:0:0:
256,192,32234,1,0,0:0:0:0:
256,192,32359,1,0,0:0:0:0:
256,192,32484,1,8,0:0:0:0:
256,192,32734,1,0,0:0:0:0:
256,192,32859,1,8,0:0:0:0:
256,192,32984,1,0,0:0:0:0:
256,192,33984,1,8,0:0:0:0:
256,192,34109,1,8,0:0:0:0:
256,192,34359,1,8,0:0:0:0:
256,192,34484,1,0,0:0:0:0:
256,192,34609,1,0,0:0:0:0:
256,192,34859,1,0,0:0:0:0:
256,192,34984,1,8,0:0:0:0:
256,192,35109,1,8,0:0:0:0:
256,192,35359,1,8,0:0:0:0:
256,192,35484,1,0,0:0:0:0:
256,192,35609,1,0,0:0:0:0:
256,192,35859,1,0,0:0:0:0:
256,192,35984,1,8,0:0:0:0:
256,192,36109,1,0,0:0:0:0:
256,192,36359,1,0,0:0:0:0:
256,192,36484,1,8,0:0:0:0:
256,192,36609,1,8,0:0:0:0:
256,192,36859,1,8,0:0:0:0:
256,192,36984,1,8,0:0:0:0:
256,192,37109,1,0,0:0:0:0:
256,192,37359,1,0,0:0:0:0:
256,192,37484,1,8,0:0:0:0:
256,192,37609,1,8,0:0:0:0:
256,192,37984,1,8,0:0:0:0:
256,192,38109,1,8,0:0:0:0:
256,192,38359,1,8,0:0:0:0:
256,192,38484,1,0,0:0:0:0:
256,192,38609,1,0,0:0:0:0:
256,192,38859,1,0,0:0:0:0:
256,192,38984,1,8,0:0:0:0:
256,192,39109,1,8,0:0:0:0:
256,192,39359,1,8,0:0:0:0:
256,192,39484,1,0,0:0:0:0:
256,192,39609,1,0,0:0:0:0:
256,192,39859,1,0,0:0:0:0:
256,192,39984,1,8,0:0:0:0:
256,192,40109,1,8,0:0:0:0:
256,192,40359,1,8,0:0:0:0:
256,192,40484,1,8,0:0:0:0:
256,192,40609,1,0,0:0:0:0:
256,192,40859,1,0,0:0:0:0:
256,192,40984,1,8,0:0:0:0:
256,192,41109,1,8,0:0:0:0:
256,192,41359,1,8,0:0:0:0:
256,192,41484,1,0,0:0:0:0:
256,192,41609,1,0,0:0:0:0:
256,192,41984,1,8,0:0:0:0:
256,192,42234,1,0,0:0:0:0:
256,192,42359,1,8,0:0:0:0:
256,192,42484,1,0,0:0:0:0:
256,192,42734,1,8,0:0:0:0:
256,192,42984,1,0,0:0:0:0:
256,192,43046,1,0,0:0:0:0:
256,192,43109,1,0,0:0:0:0:
256,192,43234,1,8,0:0:0:0:
256,192,43359,1,0,0:0:0:0:
256,192,43484,1,8,0:0:0:0:
256,192,43546,1,8,0:0:0:0:
256,192,43609,1,8,0:0:0:0:
256,192,43734,1,0,0:0:0:0:
256,192,43984,1,8,0:0:0:0:
256,192,44109,1,0,0:0:0:0:
256,192,44234,1,8,0:0:0:0:
256,192,44484,1,0,0:0:0:0:
256,192,44546,1,0,0:0:0:0:
256,192,44609,1,0,0:0:0:0:
256,192,44734,1,8,0:0:0:0:
256,192,45234,1,8,0:0:0:0:
256,192,45359,1,0,0:0:0:0:
256,192,45484,1,8,0:0:0:0:
256,192,45546,1,8,0:0:0:0:
256,192,45609,1,8,0:0:0:0:
256,192,45734,1,0,0:0:0:0:
256,192,45859,1,0,0:0:0:0:
256,192,45984,1,8,0:0:0:0:
256,192,46109,1,8,0:0:0:0:
256,192,46359,1,8,0:0:0:0:
256,192,46484,1,0,0:0:0:0:
256,192,46609,1,0,0:0:0:0:
256,192,46859,1,0,0:0:0:0:
256,192,46984,1,8,0:0:0:0:
256,192,47109,1,8,0:0:0:0:
256,192,47359,1,8,0:0:0:0:
256,192,47484,1,0,0:0:0:0:
256,192,47609,1,0,0:0:0:0:
256,192,47859,1,0,0:0:0:0:
256,192,47984,1,8,0:0:0:0:
256,192,48109,1,0,0:0:0:0:
256,192,48359,1,0,0:0:0:0:
256,192,48484,1,8,0:0:0:0:
256,192,48609,1,8,0:0:0:0:
256,192,48859,1,8,0:0:0:0:
256,192,48984,1,8,0:0:0:0:
256,192,49109,1,0,0:0:0:0:
256,192,49359,1,0,0:0:0:0:
256,192,49484,1,8,0:0:0:0:
256,192,49609,1,8,0:0:0:0:
256,192,49984,1,8,0:0:0:0:
256,192,50109,1,8,0:0:0:0:
256,192,50234,1,0,0:0:0:0:
256,192,50359,1,8,0:0:0:0:
256,192,50484,1,0,0:0:0:0:
256,192,50609,1,0,0:0:0:0:
256,192,50734,1,8,0:0:0:0:
256,192,50984,1,0,0:0:0:0:
256,192,51046,1,0,0:0:0:0:
256,192,51109,1,0,0:0:0:0:
256,192,51234,1,8,0:0:0:0:
256,192,51359,1,0,0:0:0:0:
256,192,51484,1,8,0:0:0:0:
256,192,51546,1,8,0:0:0:0:
256,192,51609,1,8,0:0:0:0:
256,192,51734,1,0,0:0:0:0:
256,192,51984,1,8,0:0:0:0:
256,192,52109,1,0,0:0:0:0:
256,192,52234,1,8,0:0:0:0:
256,192,52359,1,8,0:0:0:0:
256,192,52484,1,0,0:0:0:0:
256,192,52546,1,0,0:0:0:0:
256,192,52609,1,0,0:0:0:0:
256,192,52734,1,8,0:0:0:0:
256,192,52984,1,0,0:0:0:0:
256,192,53234,1,8,0:0:0:0:
256,192,53484,1,0,0:0:0:0:
256,192,53609,1,8,0:0:0:0:
256,192,53734,1,0,0:0:0:0:
256,192,53859,1,8,0:0:0:0:
256,192,53984,1,8,0:0:0:0:
256,192,54109,1,8,0:0:0:0:
256,192,54359,1,8,0:0:0:0:
256,192,54484,1,0,0:0:0:0:
256,192,54609,1,0,0:0:0:0:
256,192,54859,1,0,0:0:0:0:
256,192,54984,1,8,0:0:0:0:
256,192,55109,1,8,0:0:0:0:
256,192,55359,1,8,0:0:0:0:
256,192,55484,1,0,0:0:0:0:
256,192,55609,1,0,0:0:0:0:
256,192,55859,1,0,0:0:0:0:
256,192,55984,1,8,0:0:0:0:
256,192,56109,1,0,0:0:0:0:
256,192,56359,1,0,0:0:0:0:
256,192,56484,1,8,0:0:0:0:
256,192,56609,1,8,0:0:0:0:
256,192,56859,1,8,0:0:0:0:
256,192,56984,1,8,0:0:0:0:
256,192,57109,1,0,0:0:0:0:
256,192,57359,1,0,0:0:0:0:
256,192,57484,1,8,0:0:0:0:
256,192,57609,1,8,0:0:0:0:
256,192,57984,12,0,59984,0:0:0:0:
