osu file format v14

[General]
AudioFilename: toby fox - Song That Might Play When You Fight Sans.mp3
AudioLeadIn: 0
PreviewTime: 33980
Countdown: 1
SampleSet: None
StackLeniency: 0.7
Mode: 1
LetterboxInBreaks: 0
WidescreenStoryboard: 1

[Editor]
DistanceSpacing: 1
BeatDivisor: 4
GridSize: 32
TimelineZoom: 3.099999

[Metadata]
Title:Song That Might Play When You Fight Sans
TitleUnicode:Song That Might Play When You Fight Sans
Artist:toby fox
ArtistUnicode:toby fox
Creator:Vulkin
Version:worst possible timeline
Source:UNDERTALE
Tags:videogame soundtrack Frisk Papyrus "radiation" 072 sans. nyeh! heh heh! megalovania
BeatmapID:1821280
BeatmapSetID:871697

[Difficulty]
HPDrainRate:5
CircleSize:2
OverallDifficulty:5
ApproachRate:5
SliderMultiplier:1.3999999666214
SliderTickRate:1

[Events]
//Background and Video events
0,0,"maxresdefault.jpg",0,0
//Break Periods
//Storyboard Layer 0 (Background)
//Storyboard Layer 1 (Fail)
//Storyboard Layer 2 (Pass)
//Storyboard Layer 3 (Foreground)
//Storyboard Sound Samples

[TimingPoints]
1980,250,4,1,0,70,1,0
1980,-100,4,1,0,70,0,1
9980,-100,4,1,0,70,0,0
17980,-100,4,1,0,70,0,1
25980,-100,4,1,0,70,0,0

[HitObjects]
256,192,980,5,0,0:0:0:0:
256,192,1230,1,8,0:0:0:0:
256,192,1480,1,0,0:0:0:0:
256,192,1605,1,0,0:0:0:0:
256,192,1730,1,0,0:0:0:0:
256,192,1792,1,0,0:0:0:0:
256,192,1855,1,0,0:0:0:0:
256,192,1917,1,0,0:0:0:0:
256,192,1980,1,8,0:0:0:0:
256,192,2105,1,0,0:0:0:0:
256,192,2167,1,0,0:0:0:0:
256,192,2230,1,8,0:0:0:0:
256,192,2355,1,0,0:0:0:0:
256,192,2480,1,8,0:0:0:0:
256,192,2542,1,8,0:0:0:0:
256,192,2605,1,0,0:0:0:0:
256,192,2730,1,8,0:0:0:0:
256,192,2855,1,0,0:0:0:0:
256,192,2917,1,0,0:0:0:0:
256,192,2980,1,0,0:0:0:0:
256,192,3105,1,8,0:0:0:0:
256,192,3167,1,0,0:0:0:0:
256,192,3230,1,8,0:0:0:0:
256,192,3292,1,8,0:0:0:0:
256,192,3355,1,0,0:0:0:0:
256,192,3480,1,0,0:0:0:0:
256,192,3605,1,8,0:0:0:0:
256,192,3667,1,8,0:0:0:0:
256,192,3730,1,8,0:0:0:0:
256,192,3855,1,8,0:0:0:0:
256,192,3980,1,0,0:0:0:0:
256,192,4105,1,0,0:0:0:0:
256,192,4167,1,0,0:0:0:0:
256,192,4230,1,8,0:0:0:0:
256,192,4355,1,0,0:0:0:0:
256,192,4480,1,8,0:0:0:0:
256,192,4542,1,8,0:0:0:0:
256,192,4605,1,0,0:0:0:0:
256,192,4730,1,8,0:0:0:0:
256,192,4855,1,0,0:0:0:0:
256,192,4917,1,0,0:0:0:0:
256,192,4980,1,8,0:0:0:0:
256,192,5042,1,8,0:0:0:0:
256,192,5105,1,8,0:0:0:0:
256,192,5230,1,0,0:0:0:0:
256,192,5355,1,8,0:0:0:0:
256,192,5417,1,8,0:0:0:0:
256,192,5480,1,8,0:0:0:0:
256,192,5605,1,0,0:0:0:0:
256,192,5730,1,8,0:0:0:0:
256,192,5792,1,8,0:0:0:0:
256,192,5855,1,8,0:0:0:0:
256,192,5980,1,0,0:0:0:0:
256,192,6105,1,0,0:0:0:0:
256,192,6167,1,0,0:0:0:0:
256,192,6230,1,8,0:0:0:0:
256,192,6292,1,0,0:0:0:0:
256,192,6355,1,8,0:0:0:0:
256,192,6417,1,8,0:0:0:0:
256,192,6480,1,0,0:0:0:0:
256,192,6605,1,0,0:0:0:0:
256,192,6667,1,0,0:0:0:0:
256,192,6730,1,8,0:0:0:0:
256,192,6855,1,0,0:0:0:0:
256,192,6980,1,8,0:0:0:0:
256,192,7042,1,8,0:0:0:0:
256,192,7105,1,0,0:0:0:0:
256,192,7230,1,0,0:0:0:0:
256,192,7355,1,8,0:0:0:0:
256,192,7417,1,8,0:0:0:0:
256,192,7480,1,0,0:0:0:0:
256,192,7542,1,0,0:0:0:0:
256,192,7605,1,8,0:0:0:0:
256,192,7667,1,0,0:0:0:0:
256,192,7730,1,8,0:0:0:0:
256,192,7792,1,8,0:0:0:0:
256,192,7855,1,0,0:0:0:0:
256,192,7980,1,0,0:0:0:0:
256,192,8105,1,8,0:0:0:0:
256,192,8167,1,0,0:0:0:0:
256,192,8230,1,8,0:0:0:0:
256,192,8292,1,8,0:0:0:0:
256,192,8355,1,0,0:0:0:0:
256,192,8417,1,0,0:0:0:0:
256,192,8480,1,8,0:0:0:0:
256,192,8605,1,0,0:0:0:0:
256,192,8667,1,0,0:0:0:0:
256,192,8730,1,8,0:0:0:0:
256,192,8855,1,0,0:0:0:0:
256,192,8980,1,12,0:0:0:0:
256,192,9105,1,0,0:0:0:0:
256,192,9230,1,0,0:0:0:0:
256,192,9355,1,12,0:0:0:0:
256,192,9480,1,0,0:0:0:0:
256,192,9605,1,0,0:0:0:0:
256,192,9730,1,8,0:0:0:0:
256,192,9792,1,0,0:0:0:0:
256,192,9855,1,8,0:0:0:0:
256,192,9917,1,8,0:0:0:0:
256,192,9980,1,0,0:0:0:0:
256,192,10230,1,8,0:0:0:0:
256,192,10292,1,8,0:0:0:0:
256,192,10355,1,0,0:0:0:0:
256,192,10417,1,0,0:0:0:0:
256,192,10480,1,8,0:0:0:0:
256,192,10605,1,0,0:0:0:0:
256,192,10730,1,8,0:0:0:0:
256,192,10855,1,0,0:0:0:0:
256,192,10917,1,0,0:0:0:0:
256,192,10980,1,8,0:0:0:0:
256,192,11105,1,8,0:0:0:0:
256,192,11230,1,0,0:0:0:0:
256,192,11355,1,8,0:0:0:0:
256,192,11417,1,8,0:0:0:0:
256,192,11480,1,0,0:0:0:0:
256,192,11542,1,8,0:0:0:0:
256,192,11605,1,0,0:0:0:0:
256,192,11730,1,8,0:0:0:0:
256,192,11855,1,0,0:0:0:0:
256,192,11917,1,0,0:0:0:0:
256,192,11980,1,8,0:0:0:0:
256,192,12230,1,8,0:0:0:0:
256,192,12292,1,8,0:0:0:0:
256,192,12355,1,0,0:0:0:0:
256,192,12417,1,0,0:0:0:0:
256,192,12480,1,8,0:0:0:0:
256,192,12605,1,0,0:0:0:0:
256,192,12730,1,8,0:0:0:0:
256,192,12855,1,0,0:0:0:0:
256,192,12917,1,0,0:0:0:0:
256,192,12980,1,8,0:0:0:0:
256,192,13105,1,0,0:0:0:0:
256,192,13230,1,8,0:0:0:0:
256,192,13292,1,0,0:0:0:0:
256,192,13355,1,8,0:0:0:0:
256,192,13417,1,8,0:0:0:0:
256,192,13480,1,0,0:0:0:0:
256,192,13542,1,8,0:0:0:0:
256,192,13605,1,0,0:0:0:0:
256,192,13730,1,8,0:0:0:0:
256,192,13855,1,0,0:0:0:0:
256,192,13917,1,0,0:0:0:0:
256,192,13980,1,8,0:0:0:0:
256,192,14230,1,8,0:0:0:0:
256,192,14292,1,8,0:0:0:0:
256,192,14355,1,0,0:0:0:0:
256,192,14417,1,0,0:0:0:0:
256,192,14480,1,8,0:0:0:0:
256,192,14605,1,0,0:0:0:0:
256,192,14730,1,8,0:0:0:0:
256,192,14855,1,0,0:0:0:0:
256,192,14917,1,0,0:0:0:0:
256,192,14980,1,8,0:0:0:0:
256,192,15105,1,8,0:0:0:0:
256,192,15230,1,0,0:0:0:0:
256,192,15355,1,8,0:0:0:0:
256,192,15417,1,8,0:0:0:0:
256,192,15480,1,0,0:0:0:0:
256,192,15542,1,8,0:0:0:0:
256,192,15605,1,0,0:0:0:0:
256,192,15730,1,8,0:0:0:0:
256,192,15855,1,0,0:0:0:0:
256,192,15917,1,0,0:0:0:0:
256,192,15980,1,8,0:0:0:0:
256,192,16230,1,8,0:0:0:0:
256,192,16292,1,8,0:0:0:0:
256,192,16355,1,0,0:0:0:0:
256,192,16417,1,0,0:0:0:0:
256,192,16480,1,8,0:0:0:0:
256,192,16605,1,0,0:0:0:0:
256,192,16730,1,8,0:0:0:0:
256,192,16855,1,8,0:0:0:0:
256,192,16917,1,8,0:0:0:0:
256,192,16980,1,0,0:0:0:0:
256,192,17042,1,8,0:0:0:0:
256,192,17105,1,0,0:0:0:0:
256,192,17230,1,0,0:0:0:0:
256,192,17355,1,8,0:0:0:0:
256,192,17605,1,0,0:0:0:0:
256,192,17730,1,8,0:0:0:0:
256,192,17792,1,8,0:0:0:0:
256,192,17855,1,0,0:0:0:0:
256,192,17917,1,0,0:0:0:0:
256,192,17980,1,8,0:0:0:0:
256,192,18105,1,0,0:0:0:0:
256,192,18167,1,0,0:0:0:0:
256,192,18230,1,8,0:0:0:0:
256,192,18355,1,0,0:0:0:0:
256,192,18480,1,8,0:0:0:0:
256,192,18542,1,8,0:0:0:0:
256,192,18605,1,0,0:0:0:0:
256,192,18730,1,8,0:0:0:0:
256,192,18855,1,0,0:0:0:0:
256,192,18917,1,0,0:0:0:0:
256,192,18980,1,0,0:0:0:0:
256,192,19105,1,8,0:0:0:0:
256,192,19167,1,0,0:0:0:0:
256,192,19230,1,8,0:0:0:0:
256,192,19292,1,8,0:0:0:0:
256,192,19355,1,0,0:0:0:0:
256,192,19480,1,0,0:0:0:0:
256,192,19605,1,8,0:0:0:0:
256,192,19667,1,8,0:0:0:0:
256,192,19730,1,8,0:0:0:0:
256,192,19855,1,8,0:0:0:0:
256,192,19980,1,0,0:0:0:0:
256,192,20105,1,0,0:0:0:0:
256,192,20167,1,0,0:0:0:0:
256,192,20230,1,8,0:0:0:0:
256,192,20355,1,0,0:0:0:0:
256,192,20480,1,8,0:0:0:0:
256,192,20542,1,8,0:0:0:0:
256,192,20605,1,0,0:0:0:0:
256,192,20730,1,8,0:0:0:0:
256,192,20855,1,0,0:0:0:0:
256,192,20917,1,0,0:0:0:0:
256,192,20980,1,8,0:0:0:0:
256,192,21042,1,8,0:0:0:0:
256,192,21105,1,8,0:0:0:0:
256,192,21230,1,0,0:0:0:0:
256,192,21355,1,8,0:0:0:0:
256,192,21417,1,8,0:0:0:0:
256,192,21480,1,8,0:0:0:0:
256,192,21605,1,0,0:0:0:0:
256,192,21730,1,8,0:0:0:0:
256,192,21792,1,8,0:0:0:0:
256,192,21855,1,8,0:0:0:0:
256,192,21980,1,0,0:0:0:0:
256,192,22105,1,0,0:0:0:0:
256,192,22167,1,0,0:0:0:0:
256,192,22230,1,8,0:0:0:0:
256,192,22292,1,0,0:0:0:0:
256,192,22355,1,8,0:0:0:0:
256,192,22417,1,8,0:0:0:0:
256,192,22480,1,0,0:0:0:0:
256,192,22605,1,0,0:0:0:0:
256,192,22667,1,0,0:0:0:0:
256,192,22730,1,8,0:0:0:0:
256,192,22855,1,0,0:0:0:0:
256,192,22980,1,8,0:0:0:0:
256,192,23042,1,8,0:0:0:0:
256,192,23105,1,0,0:0:0:0:
256,192,23230,1,0,0:0:0:0:
256,192,23355,1,8,0:0:0:0:
256,192,23417,1,8,0:0:0:0:
256,192,23480,1,0,0:0:0:0:
256,192,23542,1,0,0:0:0:0:
256,192,23605,1,8,0:0:0:0:
256,192,23667,1,0,0:0:0:0:
256,192,23730,1,8,0:0:0:0:
256,192,23792,1,8,0:0:0:0:
256,192,23855,1,0,0:0:0:0:
256,192,23980,1,0,0:0:0:0:
256,192,24105,1,8,0:0:0:0:
256,192,24167,1,0,0:0:0:0:
256,192,24230,1,8,0:0:0:0:
256,192,24292,1,8,0:0:0:0:
256,192,24355,1,0,0:0:0:0:
256,192,24417,1,0,0:0:0:0:
256,192,24480,1,8,0:0:0:0:
256,192,24605,1,0,0:0:0:0:
256,192,24667,1,0,0:0:0:0:
256,192,24730,1,8,0:0:0:0:
256,192,24855,1,0,0:0:0:0:
256,192,24980,1,12,0:0:0:0:
256,192,25105,1,0,0:0:0:0:
256,192,25230,1,0,0:0:0:0:
256,192,25355,1,12,0:0:0:0:
256,192,25480,1,0,0:0:0:0:
256,192,25605,1,0,0:0:0:0:
256,192,25730,1,8,0:0:0:0:
256,192,25792,1,0,0:0:0:0:
256,192,25855,1,8,0:0:0:0:
256,192,25917,1,8,0:0:0:0:
256,192,25980,1,0,0:0:0:0:
256,192,26230,1,8,0:0:0:0:
256,192,26292,1,8,0:0:0:0:
256,192,26355,1,0,0:0:0:0:
256,192,26417,1,0,0:0:0:0:
256,192,26480,1,8,0:0:0:0:
256,192,26605,1,0,0:0:0:0:
256,192,26730,1,8,0:0:0:0:
256,192,26855,1,0,0:0:0:0:
256,192,26917,1,0,0:0:0:0:
256,192,26980,1,8,0:0:0:0:
256,192,27105,1,8,0:0:0:0:
256,192,27230,1,0,0:0:0:0:
256,192,27355,1,8,0:0:0:0:
256,192,27417,1,8,0:0:0:0:
256,192,27480,1,0,0:0:0:0:
256,192,27542,1,8,0:0:0:0:
256,192,27605,1,0,0:0:0:0:
256,192,27730,1,8,0:0:0:0:
256,192,27855,1,0,0:0:0:0:
256,192,27917,1,0,0:0:0:0:
256,192,27980,1,8,0:0:0:0:
256,192,28230,1,8,0:0:0:0:
256,192,28292,1,8,0:0:0:0:
256,192,28355,1,0,0:0:0:0:
256,192,28417,1,0,0:0:0:0:
256,192,28480,1,8,0:0:0:0:
256,192,28605,1,0,0:0:0:0:
256,192,28730,1,8,0:0:0:0:
256,192,28855,1,0,0:0:0:0:
256,192,28917,1,0,0:0:0:0:
256,192,28980,1,8,0:0:0:0:
256,192,29105,1,0,0:0:0:0:
256,192,29230,1,8,0:0:0:0:
256,192,29292,1,0,0:0:0:0:
256,192,29355,1,8,0:0:0:0:
256,192,29417,1,8,0:0:0:0:
256,192,29480,1,0,0:0:0:0:
256,192,29542,1,8,0:0:0:0:
256,192,29605,1,0,0:0:0:0:
256,192,29730,1,8,0:0:0:0:
256,192,29855,1,0,0:0:0:0:
256,192,29917,1,0,0:0:0:0:
256,192,29980,1,8,0:0:0:0:
256,192,30230,1,8,0:0:0:0:
256,192,30292,1,8,0:0:0:0:
256,192,30355,1,0,0:0:0:0:
256,192,30417,1,0,0:0:0:0:
256,192,30480,1,8,0:0:0:0:
256,192,30605,1,0,0:0:0:0:
256,192,30730,1,8,0:0:0:0:
256,192,30855,1,0,0:0:0:0:
256,192,30917,1,0,0:0:0:0:
256,192,30980,1,8,0:0:0:0:
256,192,31105,1,8,0:0:0:0:
256,192,31230,1,0,0:0:0:0:
256,192,31355,1,8,0:0:0:0:
256,192,31417,1,8,0:0:0:0:
256,192,31480,1,0,0:0:0:0:
256,192,31542,1,8,0:0:0:0:
256,192,31605,1,0,0:0:0:0:
256,192,31730,1,8,0:0:0:0:
256,192,31855,1,0,0:0:0:0:
256,192,31917,1,0,0:0:0:0:
256,192,31980,1,8,0:0:0:0:
256,192,32230,1,8,0:0:0:0:
256,192,32292,1,8,0:0:0:0:
256,192,32355,1,0,0:0:0:0:
256,192,32417,1,0,0:0:0:0:
256,192,32480,1,8,0:0:0:0:
256,192,32605,1,0,0:0:0:0:
256,192,32730,1,8,0:0:0:0:
256,192,32855,1,8,0:0:0:0:
256,192,32917,1,8,0:0:0:0:
256,192,32980,1,0,0:0:0:0:
256,192,33042,1,8,0:0:0:0:
256,192,33105,1,0,0:0:0:0:
256,192,33230,1,0,0:0:0:0:
256,192,33355,1,8,0:0:0:0:
256,192,33605,1,0,0:0:0:0:
256,192,33730,1,8,0:0:0:0:
256,192,33792,1,8,0:0:0:0:
256,192,33855,1,8,0:0:0:0:
256,192,33917,1,8,0:0:0:0:
256,192,33980,1,4,0:0:0:0:
256,192,34230,1,8,0:0:0:0:
256,192,34355,1,0,0:0:0:0:
256,192,34480,1,0,0:0:0:0:
256,192,34605,1,0,0:0:0:0:
256,192,34730,1,8,0:0:0:0:
256,192,34980,1,0,0:0:0:0:
256,192,35230,1,8,0:0:0:0:
256,192,35355,1,0,0:0:0:0:
256,192,35605,1,0,0:0:0:0:
256,192,35730,1,8,0:0:0:0:
256,192,35980,1,0,0:0:0:0:
256,192,36230,1,8,0:0:0:0:
256,192,36355,1,8,0:0:0:0:
256,192,36480,1,0,0:0:0:0:
256,192,36605,1,0,0:0:0:0:
256,192,36730,1,8,0:0:0:0:
256,192,36980,1,0,0:0:0:0:
256,192,37230,1,8,0:0:0:0:
256,192,37355,1,0,0:0:0:0:
256,192,37605,1,8,0:0:0:0:
256,192,37730,1,8,0:0:0:0:
256,192,37980,1,0,0:0:0:0:
256,192,38230,1,8,0:0:0:0:
256,192,38355,1,0,0:0:0:0:
256,192,38480,1,0,0:0:0:0:
256,192,38605,1,0,0:0:0:0:
256,192,38730,1,8,0:0:0:0:
256,192,38980,1,0,0:0:0:0:
256,192,39230,1,8,0:0:0:0:
256,192,39355,1,0,0:0:0:0:
256,192,39605,1,0,0:0:0:0:
256,192,39730,1,8,0:0:0:0:
256,192,39980,1,0,0:0:0:0:
256,192,40230,1,8,0:0:0:0:
256,192,40355,1,8,0:0:0:0:
256,192,40480,1,0,0:0:0:0:
256,192,40605,1,0,0:0:0:0:
256,192,40730,1,8,0:0:0:0:
256,192,40980,1,0,0:0:0:0:
256,192,41230,1,8,0:0:0:0:
256,192,41355,1,0,0:0:0:0:
256,192,41605,1,8,0:0:0:0:
256,192,41730,1,8,0:0:0:0:
256,192,41855,1,8,0:0:0:0:
256,192,41980,1,0,0:0:0:0:
256,192,42230,1,8,0:0:0:0:
256,192,42355,1,0,0:0:0:0:
256,192,42417,1,0,0:0:0:0:
256,192,42480,1,8,0:0:0:0:
256,192,42605,1,0,0:0:0:0:
256,192,42730,1,8,0:0:0:0:
256,192,42855,1,0,0:0:0:0:
256,192,42980,1,8,0:0:0:0:
256,192,43042,1,8,0:0:0:0:
256,192,43105,1,8,0:0:0:0:
256,192,43167,1,8,0:0:0:0:
256,192,43230,1,0,0:0:0:0:
256,192,43355,1,0,0:0:0:0:
256,192,43480,1,8,0:0:0:0:
256,192,43542,1,8,0:0:0:0:
256,192,43605,1,0,0:0:0:0:
256,192,43667,1,8,0:0:0:0:
256,192,43730,1,0,0:0:0:0:
256,192,43855,1,0,0:0:0:0:
256,192,43980,1,8,0:0:0:0:
256,192,44042,1,8,0:0:0:0:
256,192,44105,1,0,0:0:0:0:
256,192,44167,1,0,0:0:0:0:
256,192,44230,1,8,0:0:0:0:
256,192,44355,1,0,0:0:0:0:
256,192,44480,1,8,0:0:0:0:
256,192,44542,1,8,0:0:0:0:
256,192,44605,1,8,0:0:0:0:
256,192,44667,1,8,0:0:0:0:
256,192,44730,1,0,0:0:0:0:
256,192,44855,1,8,0:0:0:0:
256,192,44980,1,0,0:0:0:0:
256,192,45105,1,0,0:0:0:0:
256,192,45167,1,0,0:0:0:0:
256,192,45230,1,8,0:0:0:0:
256,192,45355,1,0,0:0:0:0:
256,192,45480,1,8,0:0:0:0:
256,192,45542,1,8,0:0:0:0:
256,192,45605,1,0,0:0:0:0:
256,192,45667,1,0,0:0:0:0:
256,192,45730,1,8,0:0:0:0:
256,192,45855,1,0,0:0:0:0:
256,192,45980,1,8,0:0:0:0:
256,192,46042,1,8,0:0:0:0:
256,192,46105,1,0,0:0:0:0:
256,192,46167,1,8,0:0:0:0:
256,192,46230,1,0,0:0:0:0:
256,192,46292,1,0,0:0:0:0:
256,192,46355,1,8,0:0:0:0:
256,192,46417,1,0,0:0:0:0:
256,192,46480,1,8,0:0:0:0:
256,192,46542,1,8,0:0:0:0:
256,192,46605,1,0,0:0:0:0:
256,192,46667,1,8,0:0:0:0:
256,192,46730,1,0,0:0:0:0:
256,192,46792,1,0,0:0:0:0:
256,192,46855,1,8,0:0:0:0:
256,192,46917,1,0,0:0:0:0:
256,192,46980,1,8,0:0:0:0:
256,192,47042,1,8,0:0:0:0:
256,192,47105,1,0,0:0:0:0:
256,192,47167,1,8,0:0:0:0:
256,192,47230,1,0,0:0:0:0:
256,192,47292,1,0,0:0:0:0:
256,192,47355,1,8,0:0:0:0:
256,192,47417,1,0,0:0:0:0:
256,192,47480,1,8,0:0:0:0:
256,192,47542,1,8,0:0:0:0:
256,192,47605,1,0,0:0:0:0:
256,192,47667,1,0,0:0:0:0:
256,192,47730,1,8,0:0:0:0:
256,192,47792,1,8,0:0:0:0:
256,192,47855,1,0,0:0:0:0:
256,192,47917,1,0,0:0:0:0:
256,192,47980,1,8,0:0:0:0:
256,192,48105,1,8,0:0:0:0:
256,192,48167,1,8,0:0:0:0:
256,192,48230,1,0,0:0:0:0:
256,192,48355,1,8,0:0:0:0:
256,192,48480,1,0,0:0:0:0:
256,192,48605,1,0,0:0:0:0:
256,192,48667,1,0,0:0:0:0:
256,192,48730,1,8,0:0:0:0:
256,192,48855,1,0,0:0:0:0:
256,192,48980,1,8,0:0:0:0:
256,192,49105,1,8,0:0:0:0:
256,192,49167,1,8,0:0:0:0:
256,192,49230,1,0,0:0:0:0:
256,192,49355,1,8,0:0:0:0:
256,192,49480,1,0,0:0:0:0:
256,192,49542,1,0,0:0:0:0:
256,192,49605,1,0,0:0:0:0:
256,192,49667,1,0,0:0:0:0:
256,192,49730,1,8,0:0:0:0:
256,192,49855,1,0,0:0:0:0:
256,192,49980,1,8,0:0:0:0:
256,192,50042,1,0,0:0:0:0:
256,192,50105,1,8,0:0:0:0:
256,192,50167,1,8,0:0:0:0:
256,192,50230,1,0,0:0:0:0:
256,192,50292,1,0,0:0:0:0:
256,192,50355,1,8,0:0:0:0:
256,192,50417,1,0,0:0:0:0:
256,192,50480,1,8,0:0:0:0:
256,192,50542,1,8,0:0:0:0:
256,192,50605,1,0,0:0:0:0:
256,192,50667,1,0,0:0:0:0:
256,192,50730,1,8,0:0:0:0:
256,192,50855,1,0,0:0:0:0:
256,192,50980,1,8,0:0:0:0:
256,192,51042,1,8,0:0:0:0:
256,192,51105,1,8,0:0:0:0:
256,192,51167,1,8,0:0:0:0:
256,192,51230,1,0,0:0:0:0:
256,192,51355,1,8,0:0:0:0:
256,192,51480,1,0,0:0:0:0:
256,192,51542,1,0,0:0:0:0:
256,192,51605,1,0,0:0:0:0:
256,192,51667,1,0,0:0:0:0:
256,192,51730,1,8,0:0:0:0:
256,192,51792,1,0,0:0:0:0:
256,192,51855,1,8,0:0:0:0:
256,192,51917,1,0,0:0:0:0:
256,192,51980,1,8,0:0:0:0:
256,192,52042,1,8,0:0:0:0:
256,192,52105,1,0,0:0:0:0:
256,192,52167,1,0,0:0:0:0:
256,192,52230,1,8,0:0:0:0:
256,192,52355,1,0,0:0:0:0:
256,192,52480,1,8,0:0:0:0:
256,192,52542,1,8,0:0:0:0:
256,192,52605,1,8,0:0:0:0:
256,192,52667,1,8,0:0:0:0:
256,192,52730,1,0,0:0:0:0:
256,192,52855,1,8,0:0:0:0:
256,192,52980,1,0,0:0:0:0:
256,192,53105,1,0,0:0:0:0:
256,192,53167,1,0,0:0:0:0:
256,192,53230,1,8,0:0:0:0:
256,192,53355,1,0,0:0:0:0:
256,192,53480,1,8,0:0:0:0:
256,192,53542,1,8,0:0:0:0:
256,192,53605,1,0,0:0:0:0:
256,192,53667,1,0,0:0:0:0:
256,192,53730,1,8,0:0:0:0:
256,192,53855,1,0,0:0:0:0:
256,192,53980,1,8,0:0:0:0:
256,192,54042,1,8,0:0:0:0:
256,192,54105,1,0,0:0:0:0:
256,192,54167,1,8,0:0:0:0:
256,192,54230,1,0,0:0:0:0:
256,192,54292,1,0,0:0:0:0:
256,192,54355,1,8,0:0:0:0:
256,192,54417,1,0,0:0:0:0:
256,192,54480,1,8,0:0:0:0:
256,192,54542,1,8,0:0:0:0:
256,192,54605,1,0,0:0:0:0:
256,192,54667,1,8,0:0:0:0:
256,192,54730,1,0,0:0:0:0:
256,192,54792,1,0,0:0:0:0:
256,192,54855,1,8,0:0:0:0:
256,192,54917,1,0,0:0:0:0:
256,192,54980,1,8,0:0:0:0:
256,192,55042,1,8,0:0:0:0:
256,192,55105,1,0,0:0:0:0:
256,192,55167,1,0,0:0:0:0:
256,192,55230,1,8,0:0:0:0:
256,192,55292,1,8,0:0:0:0:
256,192,55355,1,0,0:0:0:0:
256,192,55417,1,0,0:0:0:0:
256,192,55480,1,8,0:0:0:0:
256,192,55542,1,8,0:0:0:0:
256,192,55605,1,0,0:0:0:0:
256,192,55667,1,8,0:0:0:0:
256,192,55730,1,0,0:0:0:0:
256,192,55792,1,0,0:0:0:0:
256,192,55855,1,8,0:0:0:0:
256,192,55980,1,0,0:0:0:0:
256,192,56042,1,0,0:0:0:0:
256,192,56105,1,0,0:0:0:0:
256,192,56167,1,0,0:0:0:0:
256,192,56230,1,8,0:0:0:0:
256,192,56292,1,8,0:0:0:0:
256,192,56355,1,8,0:0:0:0:
256,192,56417,1,8,0:0:0:0:
256,192,56480,1,0,0:0:0:0:
256,192,56542,1,0,0:0:0:0:
256,192,56605,1,8,0:0:0:0:
256,192,56667,1,8,0:0:0:0:
256,192,56730,1,0,0:0:0:0:
256,192,56792,1,0,0:0:0:0:
256,192,56855,1,8,0:0:0:0:
256,192,56917,1,8,0:0:0:0:
256,192,56980,1,0,0:0:0:0:
256,192,57042,1,8,0:0:0:0:
256,192,57105,1,0,0:0:0:0:
256,192,57167,1,0,0:0:0:0:
256,192,57230,1,8,0:0:0:0:
256,192,57292,1,0,0:0:0:0:
256,192,57355,1,8,0:0:0:0:
256,192,57417,1,8,0:0:0:0:
256,192,57480,1,0,0:0:0:0:
256,192,57542,1,8,0:0:0:0:
256,192,57605,1,0,0:0:0:0:
256,192,57667,1,0,0:0:0:0:
256,192,57730,1,8,0:0:0:0:
256,192,57792,1,0,0:0:0:0:
256,192,57855,1,8,0:0:0:0:
256,192,57917,1,8,0:0:0:0:
256,192,57980,1,0,0:0:0:0:
