osu file format v14

[General]
AudioFilename: audio.mp3
AudioLeadIn: 0
PreviewTime: 19162
Countdown: 0
SampleSet: Normal
StackLeniency: 0.7
Mode: 1
LetterboxInBreaks: 0
WidescreenStoryboard: 1

[Editor]
Bookmarks: 37985,56809,70926
DistanceSpacing: 1.8
BeatDivisor: 8
GridSize: 32
TimelineZoom: 2.2

[Metadata]
Title:Snowdin Town
TitleUnicode:Snowdin Town
Artist:toby fox
ArtistUnicode:toby fox
Creator:tadahitotsu
Version:_Vex's Blizzard
Source:UNDERTALE
Tags:rpg indie ost original soundtrack winter christmas xmas x-mas instrumental video game radiation _vex
BeatmapID:2717075
BeatmapSetID:1310156

[Difficulty]
HPDrainRate:6
CircleSize:2
OverallDifficulty:5
ApproachRate:10
SliderMultiplier:1.4
SliderTickRate:1

[Events]
//Background and Video events
0,0,"a3d6849a815643f49c8b62c8d7e0358de6a8ea1er1-1777-1000v2_uhq.jpg",0,0
//Break Periods
//Storyboard Layer 0 (Background)
//Storyboard Layer 1 (Fail)
//Storyboard Layer 2 (Pass)
//Storyboard Layer 3 (Foreground)
//Storyboard Layer 4 (Overlay)
//Storyboard Sound Samples

[TimingPoints]
61,594.059405940594,4,1,0,32,1,0
8080,638.297872340426,4,1,0,32,1,8
8080,-93.0693069306931,4,1,0,32,0,8
8717,594.059405940594,4,1,0,32,1,8
9050,594.059405940594,4,1,0,32,1,8
9734,594.059405940594,4,1,0,32,1,0
13575,594.059405940594,4,1,0,32,1,8
14444,594.059405940594,4,1,0,32,1,0
19162,588.235294117647,4,1,0,42,1,0
26509,-96.8054211035818,4,1,0,42,0,0
26803,-93.8086303939962,4,1,0,42,0,0
27097,-90.9090909090909,4,1,0,42,0,0
27980,-93.8086303939962,4,1,0,42,0,0
28127,-95.3390638466643,4,1,0,42,0,0
28274,-96.8054211035818,4,1,0,42,0,0
28568,-100,4,1,0,42,0,0
35921,-96.8054211035818,4,1,0,42,0,0
36215,-93.8086303939962,4,1,0,42,0,0
36509,-90.9090909090909,4,1,0,42,0,0
37392,-93.8086303939962,4,1,0,42,0,0
37686,-96.8054211035818,4,1,0,42,0,0
37980,-100,4,1,0,42,0,0
45333,-96.8054211035818,4,1,0,42,0,0
45627,-93.8086303939962,4,1,0,42,0,0
45921,-90.9090909090909,4,1,0,42,0,0
46804,-93.8086303939962,4,1,0,42,0,0
46951,-95.3390638466643,4,1,0,42,0,0
47098,-96.8054211035818,4,1,0,42,0,0
47392,-100,4,1,0,42,0,0
54745,-96.8054211035818,4,1,0,42,0,0
55039,-93.8086303939962,4,1,0,42,0,0
55333,-90.9090909090909,4,1,0,42,0,0
56216,-93.8086303939962,4,1,0,42,0,0
56510,-96.8054211035818,4,1,0,42,0,0
56809,-100,4,1,0,50,0,1
70632,-98.0392156862745,4,1,0,50,0,0
70774,-96.1538461538461,4,1,0,50,0,0
70921,-94.3396226415094,4,1,0,50,0,0
71215,-92.5925925925926,4,1,0,50,0,0
71509,-90.9090909090909,4,1,0,46,0,0
71804,-89.2857142857143,4,1,0,42,0,0
72098,-87.719298245614,4,1,0,38,0,0
72392,-86.2068965517241,4,1,0,34,0,0
72686,-84.7457627118644,4,1,0,28,0,0
72980,-83.3333333333333,4,1,0,24,0,0
73274,-81.9672131147541,4,1,0,20,0,0

[HitObjects]
256,192,61,5,8,0:0:0:0:
256,192,358,1,0,0:0:0:0:
256,192,655,1,8,0:0:0:0:
256,192,952,1,0,0:0:0:0:
256,192,1249,1,8,0:0:0:0:
256,192,2140,1,0,0:0:0:0:
256,192,2288,1,0,0:0:0:0:
256,192,2437,1,8,0:0:0:0:
256,192,2734,1,0,0:0:0:0:
256,192,3031,1,8,0:0:0:0:
256,192,3328,1,0,0:0:0:0:
256,192,3922,1,0,0:0:0:0:
256,192,4219,1,0,0:0:0:0:
256,192,4813,1,8,0:0:0:0:
256,192,5110,1,0,0:0:0:0:
256,192,5407,1,8,0:0:0:0:
256,192,5704,1,0,0:0:0:0:
256,192,6001,1,8,0:0:0:0:
256,192,6892,1,0,0:0:0:0:
256,192,7041,1,0,0:0:0:0:
256,192,7189,1,8,0:0:0:0:
256,192,7486,1,8,0:0:0:0:
256,192,7783,1,8,0:0:0:0:
256,192,8080,1,0,0:0:0:0:
256,192,8718,1,8,0:0:0:0:
256,192,9050,1,0,0:0:0:0:
256,192,9734,1,8,0:0:0:0:
256,192,10031,1,0,0:0:0:0:
256,192,10328,1,0,0:0:0:0:
256,192,10625,1,0,0:0:0:0:
256,192,10922,1,8,0:0:0:0:
256,192,11813,1,0,0:0:0:0:
256,192,11961,1,8,0:0:0:0:
256,192,12110,1,8,0:0:0:0:
256,192,12407,1,0,0:0:0:0:
256,192,12704,1,8,0:0:0:0:
256,192,13001,1,0,0:0:0:0:
256,192,13575,1,0,0:0:0:0:
256,192,13872,1,0,0:0:0:0:
256,192,14444,1,8,0:0:0:0:
256,192,14741,1,0,0:0:0:0:
256,192,15038,1,0,0:0:0:0:
256,192,15335,1,0,0:0:0:0:
256,192,15632,1,8,0:0:0:0:
256,192,16523,1,0,0:0:0:0:
256,192,16671,1,8,0:0:0:0:
256,192,16820,1,8,0:0:0:0:
256,192,17117,1,8,0:0:0:0:
256,192,17414,1,8,0:0:0:0:
256,192,17711,1,0,0:0:0:0:
256,192,19162,1,8,0:0:0:0:
256,192,19456,1,0,0:0:0:0:
256,192,19750,1,8,0:0:0:0:
256,192,20044,1,0,0:0:0:0:
256,192,20191,1,0,0:0:0:0:
256,192,20338,1,8,0:0:0:0:
256,192,20632,1,8,0:0:0:0:
256,192,20926,1,0,0:0:0:0:
256,192,21000,1,8,0:0:0:0:
256,192,21073,1,0,0:0:0:0:
256,192,21220,1,0,0:0:0:0:
256,192,21514,1,8,0:0:0:0:
256,192,21809,1,0,0:0:0:0:
256,192,22103,1,8,0:0:0:0:
256,192,22397,1,0,0:0:0:0:
256,192,22544,1,0,0:0:0:0:
256,192,22691,1,8,0:0:0:0:
256,192,22985,1,8,0:0:0:0:
256,192,23279,5,0,0:0:0:0:
256,192,23353,1,8,0:0:0:0:
256,192,23426,1,8,0:0:0:0:
256,192,23573,1,0,0:0:0:0:
256,192,23867,1,8,0:0:0:0:
256,192,24162,1,0,0:0:0:0:
256,192,24456,1,0,0:0:0:0:
256,192,24750,1,8,0:0:0:0:
256,192,24897,1,0,0:0:0:0:
256,192,25044,1,8,0:0:0:0:
256,192,25338,1,0,0:0:0:0:
256,192,25632,1,8,0:0:0:0:
256,192,25779,1,8,0:0:0:0:
256,192,25926,1,0,0:0:0:0:
256,192,26073,1,0,0:0:0:0:
256,192,26220,1,8,0:0:0:0:
256,192,26514,1,0,0:0:0:0:
256,192,26809,1,0,0:0:0:0:
256,192,27103,1,8,0:0:0:0:
256,192,27691,1,8,0:0:0:0:
256,192,27985,1,8,0:0:0:0:
256,192,28132,1,0,0:0:0:0:
256,192,28279,1,0,0:0:0:0:
256,192,28573,1,8,0:0:0:0:
256,192,28867,1,0,0:0:0:0:
256,192,29161,1,8,0:0:0:0:
256,192,29455,1,0,0:0:0:0:
256,192,29602,1,0,0:0:0:0:
256,192,29749,1,8,0:0:0:0:
256,192,30043,1,8,0:0:0:0:
256,192,30337,1,0,0:0:0:0:
256,192,30411,1,8,0:0:0:0:
256,192,30484,1,0,0:0:0:0:
256,192,30631,1,0,0:0:0:0:
256,192,30925,1,8,0:0:0:0:
256,192,31220,1,0,0:0:0:0:
256,192,31514,1,8,0:0:0:0:
256,192,31808,1,0,0:0:0:0:
256,192,31955,1,0,0:0:0:0:
256,192,32102,1,8,0:0:0:0:
256,192,32396,1,8,0:0:0:0:
256,192,32690,5,0,0:0:0:0:
256,192,32764,1,8,0:0:0:0:
256,192,32837,1,8,0:0:0:0:
256,192,32984,1,0,0:0:0:0:
256,192,33278,1,8,0:0:0:0:
256,192,33573,1,0,0:0:0:0:
256,192,33867,1,0,0:0:0:0:
256,192,34161,1,8,0:0:0:0:
256,192,34308,1,0,0:0:0:0:
256,192,34455,1,8,0:0:0:0:
256,192,34749,1,0,0:0:0:0:
256,192,35043,1,8,0:0:0:0:
256,192,35485,1,0,0:0:0:0:
256,192,35631,1,0,0:0:0:0:
256,192,35925,1,0,0:0:0:0:
256,192,36220,1,0,0:0:0:0:
256,192,36514,1,8,0:0:0:0:
256,192,37103,1,8,0:0:0:0:
256,192,37397,1,8,0:0:0:0:
256,192,37691,1,0,0:0:0:0:
256,192,37985,1,4,0:0:0:0:
256,192,38279,1,0,0:0:0:0:
256,192,38573,1,8,0:0:0:0:
256,192,38867,1,0,0:0:0:0:
256,192,39014,1,0,0:0:0:0:
256,192,39161,1,8,0:0:0:0:
256,192,39455,1,8,0:0:0:0:
256,192,39749,1,0,0:0:0:0:
256,192,39823,1,8,0:0:0:0:
256,192,39896,1,0,0:0:0:0:
256,192,40043,1,0,0:0:0:0:
256,192,40337,1,0,0:0:0:0:
256,192,40632,1,0,0:0:0:0:
256,192,40926,1,8,0:0:0:0:
256,192,41220,1,0,0:0:0:0:
256,192,41367,1,0,0:0:0:0:
256,192,41514,1,8,0:0:0:0:
256,192,41808,1,8,0:0:0:0:
256,192,42102,5,0,0:0:0:0:
256,192,42176,1,8,0:0:0:0:
256,192,42249,1,8,0:0:0:0:
256,192,42396,1,0,0:0:0:0:
256,192,42690,1,0,0:0:0:0:
256,192,42985,1,0,0:0:0:0:
256,192,43279,1,8,0:0:0:0:
256,192,43573,1,0,0:0:0:0:
256,192,43720,1,8,0:0:0:0:
256,192,43867,1,0,0:0:0:0:
256,192,44161,1,0,0:0:0:0:
256,192,44455,1,8,0:0:0:0:
256,192,44749,1,0,0:0:0:0:
256,192,44897,1,8,0:0:0:0:
256,192,45043,1,0,0:0:0:0:
256,192,45337,1,0,0:0:0:0:
256,192,45632,1,0,0:0:0:0:
256,192,45926,1,8,0:0:0:0:
256,192,46514,1,8,0:0:0:0:
256,192,46808,1,8,0:0:0:0:
256,192,46955,1,0,0:0:0:0:
256,192,47102,1,0,0:0:0:0:
256,192,47396,1,4,0:0:0:0:
256,192,47690,1,0,0:0:0:0:
256,192,47984,1,8,0:0:0:0:
256,192,48278,1,0,0:0:0:0:
256,192,48425,1,0,0:0:0:0:
256,192,48572,1,8,0:0:0:0:
256,192,48866,1,8,0:0:0:0:
256,192,49160,1,0,0:0:0:0:
256,192,49235,1,8,0:0:0:0:
256,192,49309,1,0,0:0:0:0:
256,192,49456,1,0,0:0:0:0:
256,192,49750,1,0,0:0:0:0:
256,192,50043,1,0,0:0:0:0:
256,192,50337,1,8,0:0:0:0:
256,192,50631,1,0,0:0:0:0:
256,192,50778,1,0,0:0:0:0:
256,192,50925,1,8,0:0:0:0:
256,192,51219,1,8,0:0:0:0:
256,192,51513,5,0,0:0:0:0:
256,192,51587,1,8,0:0:0:0:
256,192,51660,1,8,0:0:0:0:
256,192,51809,1,0,0:0:0:0:
256,192,52103,1,8,0:0:0:0:
256,192,52396,1,0,0:0:0:0:
256,192,52690,1,0,0:0:0:0:
256,192,52984,1,0,0:0:0:0:
256,192,53131,1,0,0:0:0:0:
256,192,53278,1,8,0:0:0:0:
256,192,53572,1,0,0:0:0:0:
256,192,53866,1,8,0:0:0:0:
256,192,54308,1,8,0:0:0:0:
256,192,54456,1,0,0:0:0:0:
256,192,54750,1,0,0:0:0:0:
256,192,55043,1,0,0:0:0:0:
256,192,55337,1,8,0:0:0:0:
320,192,55926,1,8,0:0:0:0:
320,192,56220,1,8,0:0:0:0:
320,192,56514,1,0,0:0:0:0:
320,192,56809,1,4,0:0:0:0:
320,192,57103,1,8,0:0:0:0:
320,192,57397,1,8,0:0:0:0:
320,192,57691,1,8,0:0:0:0:
320,192,57838,1,0,0:0:0:0:
320,192,57985,1,8,0:0:0:0:
320,192,58279,1,0,0:0:0:0:
320,192,58426,1,0,0:0:0:0:
320,192,58573,1,8,0:0:0:0:
320,192,58867,1,8,0:0:0:0:
320,192,59161,1,0,0:0:0:0:
320,192,59750,1,8,0:0:0:0:
320,192,60338,1,0,0:0:0:0:
320,192,60632,1,8,0:0:0:0:
320,192,60779,1,8,0:0:0:0:
320,192,60926,1,0,0:0:0:0:
320,192,61073,1,0,0:0:0:0:
320,192,61220,1,8,0:0:0:0:
320,192,61514,1,0,0:0:0:0:
320,192,61809,1,8,0:0:0:0:
320,192,62103,1,8,0:0:0:0:
320,192,62397,1,8,0:0:0:0:
320,192,62544,1,0,0:0:0:0:
320,192,62691,1,8,0:0:0:0:
320,192,62985,1,0,0:0:0:0:
320,192,63279,1,0,0:0:0:0:
320,192,63573,1,0,0:0:0:0:
320,192,63720,1,0,0:0:0:0:
320,192,63867,1,8,0:0:0:0:
320,192,64161,1,8,0:0:0:0:
320,192,64456,1,0,0:0:0:0:
320,192,64750,1,8,0:0:0:0:
320,192,65338,1,0,0:0:0:0:
320,192,65485,1,0,0:0:0:0:
320,192,65632,1,8,0:0:0:0:
320,192,66220,1,4,0:0:0:0:
320,192,66514,1,8,0:0:0:0:
320,192,66809,1,8,0:0:0:0:
320,192,67103,1,8,0:0:0:0:
320,192,67250,1,0,0:0:0:0:
320,192,67397,1,8,0:0:0:0:
320,192,67691,1,0,0:0:0:0:
320,192,67838,1,8,0:0:0:0:
320,192,67985,1,0,0:0:0:0:
320,192,68132,1,0,0:0:0:0:
320,192,68279,1,8,0:0:0:0:
320,192,68573,1,0,0:0:0:0:
320,192,69162,1,8,0:0:0:0:
320,192,69750,1,0,0:0:0:0:
320,192,70044,1,8,0:0:0:0:
320,192,70191,1,8,0:0:0:0:
320,192,70338,1,0,0:0:0:0:
320,192,70485,1,0,0:0:0:0:
320,192,70632,1,0,0:0:0:0:
320,192,70779,1,0,0:0:0:0:
320,192,70926,1,8,0:0:0:0:
320,192,71220,1,8,0:0:0:0:
320,192,71514,1,8,0:0:0:0:
320,192,71809,1,8,0:0:0:0:
320,192,72103,1,8,0:0:0:0:
320,192,72397,1,0,0:0:0:0:
320,192,72691,1,0,0:0:0:0:
320,192,72985,1,8,0:0:0:0:
320,192,73279,1,8,0:0:0:0:
