osu file format v14

[General]
AudioFilename: audio.mp3
AudioLeadIn: 0
PreviewTime: 19162
Countdown: 1
SampleSet: Soft
StackLeniency: 0.7
Mode: 0
LetterboxInBreaks: 0
WidescreenStoryboard: 1

[Editor]
Bookmarks: 56809
DistanceSpacing: 1.3
BeatDivisor: 4
GridSize: 8
TimelineZoom: 1

[Metadata]
Title:Snowdin Town
TitleUnicode:Snowdin Town
Artist:toby fox
ArtistUnicode:toby fox
Creator:Error-
Version:Normal
Source:UNDERTALE
Tags:merry christmas xmas x-mas white snow chiptune soundtrack papyrus sans
BeatmapID:1560105
BeatmapSetID:689649

[Difficulty]
HPDrainRate:3
CircleSize:3.5
OverallDifficulty:4
ApproachRate:5
SliderMultiplier:0.9
SliderTickRate:1

[Events]
//Background and Video events
0,0,"04_snowdin_v02b_by_bakenius-d9lg4d4.jpg",0,0
//Break Periods
//Storyboard Layer 0 (Background)
//Storyboard Layer 1 (Fail)
//Storyboard Layer 2 (Pass)
//Storyboard Layer 3 (Foreground)
//Storyboard Sound Samples

[TimingPoints]
61,594.059405940594,4,2,1,50,1,0
8080,638.297872340426,4,2,1,50,1,0
8718,594.059405940594,4,2,1,50,1,0
8718,-99.02,4,2,1,50,0,0
9050,594.059405940594,4,2,1,50,1,0
9050,-99.02,4,2,1,50,0,0
9734,594.059405940594,4,2,1,50,1,0
13575,594.059405940594,4,2,1,50,1,0
13575,-99.02,4,2,1,50,0,0
14444,594.059405940594,4,2,1,50,1,0
18305,-100,4,2,1,50,0,0
19162,588.235294117647,4,2,1,60,1,0
19162,-100,4,2,1,60,0,0
56809,-100,4,3,1,60,0,0
70632,-100,4,2,1,60,0,0
73426,-100,4,2,1,25,0,0
75632,-100,4,2,1,5,0,0

[Colours]
Combo1 : 0,0,255
Combo2 : 0,64,128
Combo3 : 215,215,255

[HitObjects]
0,112,61,6,0,L|64:120,1,45,2|0,0:0|0:0,0:0:0:0:
104,104,655,2,0,L|168:112,1,45
208,104,1249,2,0,L|304:112,1,90,2|0,0:0|0:0,0:0:0:0:
400,168,2437,6,0,P|416:208|400:272,1,90,2|0,0:0|0:0,0:0:0:0:
368,296,3328,2,0,L|272:288,1,90,2|0,0:0|0:0,0:0:0:0:
232,256,4219,1,2,0:0:0:0:
136,320,4813,6,0,L|120:264,1,45,2|0,0:0|0:0,0:0:0:0:
152,224,5407,2,0,L|136:160,1,45
176,136,6001,2,0,L|160:40,1,90,2|0,0:0|0:0,0:0:0:0:
272,8,7189,6,0,P|320:8|376:24,1,90,2|0,0:0|0:0,0:0:0:0:
384,66,8080,2,0,L|392:162,1,90,2|0,0:0|0:0,0:0:0:0:
376,220,9050,1,2,0:0:0:0:
320,344,9734,6,0,L|264:352,1,45,2|0,0:0|0:0,0:0:0:0:
216,336,10328,2,0,L|160:344,1,45
136,296,10922,2,0,P|120:256|128:192,1,90,2|0,0:0|0:0,0:0:0:0:
168,96,12110,6,0,L|264:80,1,90,2|0,0:0|0:0,0:0:0:0:
312,104,13001,2,0,L|408:88,1,87,2|0,0:0|0:0,0:0:0:0:
456,95,13872,1,2,0:0:0:0:
504,200,14444,6,0,L|512:256,1,45,2|0,0:0|0:0,0:0:0:0:
464,280,15038,2,0,L|472:328,1,45
432,368,15632,2,0,L|336:376,1,90,2|0,0:0|0:0,0:0:0:0:
264,288,16820,6,0,L|168:288,1,90,2|0,0:0|0:0,0:0:0:0:
120,320,17711,1,2,0:0:0:0:
336,120,19162,6,0,P|392:104|440:112,2,90,2|8|2,0:0|0:0|0:0,0:0:0:0:
256,208,20926,2,0,L|200:208,1,45,8|0,0:0|0:0,0:0:0:0:
160,176,21514,2,0,L|64:184,2,90,2|8|2,0:0|0:0|0:0,0:0:0:0:
264,120,23279,2,0,L|320:112,1,45,8|0,0:0|0:0,0:0:0:0:
368,112,23867,6,0,P|392:152|392:208,1,90,2|8,0:0|0:0,0:0:0:0:
376,248,24750,1,2,0:0:0:0:
328,272,25044,2,0,L|224:288,1,90,2|8,0:0|0:0,0:0:0:0:
320,360,26220,2,0,L|408:344,1,90,2|8,0:0|0:0,0:0:0:0:
464,328,27103,2,0,P|480:264|472:224,1,90,2|8,0:0|0:0,0:0:0:0:
446,196,27985,1,2,0:0:0:0:
344,152,28573,6,0,L|240:176,2,90,2|8|2,0:0|0:0|0:0,0:0:0:0:
368,40,30338,2,0,L|304:56,1,45,8|0,0:0|0:0,0:0:0:0:
268,69,30926,2,0,L|166:96,2,90,2|8|2,0:0|0:0|0:0,0:0:0:0:
360,144,32691,2,0,L|376:192,1,45,8|0,0:0|0:0,0:0:0:0:
368,248,33279,6,0,P|304:248|272:272,1,90,2|8,0:0|0:0,0:0:0:0:
248,304,34162,1,2,0:0:0:0:
216,344,34456,2,0,L|120:352,1,90,2|8,0:0|0:0,0:0:0:0:
32,304,35632,2,0,P|24:256|32:200,1,90,2|8,0:0|0:0,0:0:0:0:
46,164,36514,2,0,P|54:108|46:60,1,90,2|8,0:0|0:0,0:0:0:0:
24,27,37397,1,2,0:0:0:0:
128,53,37985,6,0,P|192:61|224:53,2,90,2|8|2,0:0|0:0|0:0,0:0:0:0:
64,140,39750,2,0,L|64:188,1,45,8|0,0:0|0:0,0:0:0:0:
104,221,40338,2,0,P|168:205|208:221,2,90,2|8|2,0:0|0:0|0:0,0:0:0:0:
161,312,42103,2,0,L|177:368,1,45,8|0,0:0|0:0,0:0:0:0:
223,376,42691,6,0,B|266:356|266:356|314:356,1,90,2|8,0:0|0:0,0:0:0:0:
362,359,43573,1,2,0:0:0:0:
413,341,43867,2,0,P|429:301|429:237,1,90,2|8,0:0|0:0,0:0:0:0:
400,152,45044,2,0,L|296:160,1,90,2|8,0:0|0:0,0:0:0:0:
264,184,45926,2,0,L|160:192,1,90,2|8,0:0|0:0,0:0:0:0:
123,209,46809,1,2,0:0:0:0:
96,104,47397,6,0,L|200:96,2,90,2|8|2,0:0|0:0|0:0,0:0:0:0:
40,208,49162,2,0,L|40:256,1,45,8|0,0:0|0:0,0:0:0:0:
64,304,49750,2,0,P|112:312|168:296,2,90,2|8|2,0:0|0:0|0:0,0:0:0:0:
107,204,51514,2,0,L|171:196,1,45,8|0,0:0|0:0,0:0:0:0:
205,201,52103,6,0,L|309:185,1,90,2|8,0:0|0:0,0:0:0:0:
347,185,52985,1,2,0:0:0:0:
393,211,53279,2,0,P|419:259|422:313,1,90,2|8,0:0|0:0,0:0:0:0:
341,364,54456,2,0,L|245:372,1,90,2|8,0:0|0:0,0:0:0:0:
203,346,55338,2,0,L|107:354,1,90,2|8,0:0|0:0,0:0:0:0:
60,340,56220,1,2,0:0:0:0:
120,248,56809,6,0,P|128:192|80:120,2,135,4|4|8,0:0|0:0|0:0,0:0:0:0:
80,288,58867,1,8,0:0:0:0:
80,288,59161,2,0,L|224:280,2,135,4|4|8,0:0|0:0|0:0,0:0:0:0:
8,208,61514,6,0,P|8:152|32:104,1,90,4|0,0:0|0:0,0:0:0:0:
56,80,62397,2,0,L|160:72,1,90,4|0,0:0|0:0,0:0:0:0:
200,88,63279,2,8,L|280:80,1,45
293,107,63867,2,0,L|442:94,2,135,4|4|8,0:0|0:0|0:0,0:0:0:0:
240,200,66220,6,0,P|216:256|240:336,2,135,4|4|8,0:0|0:0|0:0,0:0:0:0:
290,170,68279,1,8,0:0:0:0:
290,170,68573,2,0,L|466:178,2,135,4|4|8,0:0|0:0|0:0,0:0:0:0:
240,152,70632,1,0,0:0:0:0:
240,152,70926,6,0,L|160:144,1,45,2|0,0:0|0:0,0:0:0:0:
140,167,71514,2,0,L|76:159,1,45
38,177,72103,2,0,P|6:225|0:272,1,90,2|0,0:0|0:0,0:0:0:0:
28,306,72985,1,0,0:0:0:0:
85,318,73279,5,2,0:0:0:0:
256,192,73573,12,0,75632,0:0:0:0:
