osu file format v14

[General]
AudioFilename: audio.mp3
AudioLeadIn: 0
PreviewTime: 19162
Countdown: 1
SampleSet: Soft
StackLeniency: 0.7
Mode: 0
LetterboxInBreaks: 0
WidescreenStoryboard: 0

[Editor]
Bookmarks: 56809
DistanceSpacing: 1.8
BeatDivisor: 4
GridSize: 8
TimelineZoom: 1

[Metadata]
Title:Snowdin Town
TitleUnicode:Snowdin Town
Artist:toby fox
ArtistUnicode:toby fox
Creator:Error-
Version:Snowy
Source:UNDERTALE
Tags:merry christmas xmas x-mas white snow chiptune soundtrack papyrus sans
BeatmapID:1459804
BeatmapSetID:689649

[Difficulty]
HPDrainRate:6
CircleSize:4
OverallDifficulty:7
ApproachRate:7.5
SliderMultiplier:1.4
SliderTickRate:1

[Events]
//Background and Video events
0,0,"04_snowdin_v02b_by_bakenius-d9lg4d4.jpg",0,0
//Break Periods
//Storyboard Layer 0 (Background)
//Storyboard Layer 1 (Fail)
//Storyboard Layer 2 (Pass)
//Storyboard Layer 3 (Foreground)
//Storyboard Sound Samples

[TimingPoints]
61,594.059405940594,4,2,1,50,1,0
8080,638.297872340426,4,2,1,50,1,0
8718,594.059405940594,4,2,1,50,1,0
9050,594.059405940594,4,2,1,50,1,0
9734,594.059405940594,4,2,1,50,1,0
13575,594.059405940594,4,2,1,50,1,0
14444,594.059405940594,4,2,1,50,1,0
18602,-100,4,2,1,5,0,0
19162,588.235294117647,4,2,1,60,1,0
19162,-66.6666666666667,4,2,1,60,0,0
56809,-66.6666666666667,4,3,1,60,0,0
70632,-66.6666666666667,4,2,1,60,0,0
73426,-66.6666666666667,4,2,1,25,0,0
75632,-66.6666666666667,4,2,1,5,0,0

[Colours]
Combo1 : 0,0,255
Combo2 : 0,64,128
Combo3 : 215,215,255

[HitObjects]
48,272,61,6,0,P|40:312|48:352,1,70,2|0,0:0|0:0,0:0:0:0:
120,224,655,2,0,P|128:184|120:144,1,70,2|0,0:0|0:0,0:0:0:0:
64,80,1249,2,0,B|104:112|104:112|224:112,1,140,2|0,0:0|0:0,0:0:0:0:
272,48,2140,1,0,0:0:0:0:
272,48,2288,1,0,0:0:0:0:
272,48,2437,5,2,0:0:0:0:
344,112,2734,1,0,0:0:0:0:
272,184,3031,1,2,0:0:0:0:
192,112,3328,2,0,B|120:96|120:96|48:112,1,140,2|0,0:0|0:0,0:0:0:0:
120,208,4219,1,2,0:0:0:0:
144,232,4813,6,0,P|152:264|144:312,1,70,2|0,0:0|0:0,0:0:0:0:
40,384,5407,2,0,P|32:352|40:304,1,70,2|0,0:0|0:0,0:0:0:0:
80,168,6001,2,0,P|152:144|232:176,1,140,2|0,0:0|0:0,0:0:0:0:
256,248,6892,1,0,0:0:0:0:
256,248,7041,1,0,0:0:0:0:
256,248,7189,5,2,0:0:0:0:
320,176,7486,1,0,0:0:0:0:
256,104,7783,1,2,0:0:0:0:
176,176,8080,2,0,P|128:192|48:144,1,140,2|0,0:0|0:0,0:0:0:0:
128,96,9050,1,2,0:0:0:0:
288,32,9734,6,0,L|384:32,1,70,2|0,0:0|0:0,0:0:0:0:
312,168,10328,2,0,L|224:168,1,70,2|0,0:0|0:0,0:0:0:0:
360,104,10922,2,0,P|392:152|360:240,1,140,2|0,0:0|0:0,0:0:0:0:
256,280,11813,1,0,0:0:0:0:
256,280,11961,1,0,0:0:0:0:
256,280,12110,5,2,0:0:0:0:
342,222,12407,1,0,0:0:0:0:
399,308,12704,1,2,0:0:0:0:
313,366,13001,2,0,B|255:375|255:375|140:366,1,135.5,2|0,0:0|0:0,0:0:0:0:
128,272,13872,1,2,0:0:0:0:
104,240,14444,6,0,P|96:200|104:160,1,70,2|0,0:0|0:0,0:0:0:0:
176,72,15038,2,0,P|184:112|176:152,1,70,2|0,0:0|0:0,0:0:0:0:
112,16,15632,2,0,B|152:40|152:40|256:40,1,140,2|0,0:0|0:0,0:0:0:0:
344,96,16523,1,0,0:0:0:0:
344,96,16671,1,0,0:0:0:0:
344,96,16820,5,2,0:0:0:0:
448,48,17117,1,0,0:0:0:0:
488,160,17414,1,2,0:0:0:0:
376,216,17711,2,0,P|288:208|221:109,1,210,2|0,0:0|0:0,0:0:0:0:
232,88,19162,5,2,0:0:0:0:
160,256,19456,1,0,0:0:0:0:
16,160,19750,1,8,0:0:0:0:
160,256,20044,1,2,0:0:0:0:
231,294,20191,1,2,0:0:0:0:
305,259,20338,6,0,B|357:239|357:239|405:259,1,105.000004005432,2|0,0:0|0:0,0:0:0:0:
488,360,20926,1,8,0:0:0:0:
488,360,21000,1,0,0:0:0:0:
488,360,21073,2,0,L|484:308,1,52.5000020027161
464,160,21514,5,2,0:0:0:0:
344,80,21809,1,0,0:0:0:0:
240,176,22103,1,8,0:0:0:0:
136,80,22397,1,2,0:0:0:0:
48,64,22544,1,2,0:0:0:0:
16,144,22691,6,0,B|8:200|8:200|32:264,1,105.000004005432,2|0,0:0|0:0,0:0:0:0:
184,200,23279,1,8,0:0:0:0:
184,200,23353,1,0,0:0:0:0:
184,200,23426,2,0,L|120:192,1,52.5000020027161
72,344,23867,5,2,0:0:0:0:
184,200,24162,1,2,0:0:0:0:
288,352,24456,1,8,0:0:0:0:
128,272,24750,1,2,0:0:0:0:
240,128,25044,5,2,0:0:0:0:
176,352,25339,1,2,0:0:0:0:
128,128,25633,1,8,0:0:0:0:
288,272,25927,1,2,0:0:0:0:
64,272,26220,5,2,0:0:0:0:
128,128,26514,1,2,0:0:0:0:
176,352,26809,1,8,0:0:0:0:
0,184,27103,1,2,0:0:0:0:
288,272,27691,1,2,0:0:0:0:
128,272,27985,2,0,L|128:208,1,52.5000020027161,8|0,0:0|0:0,0:0:0:0:
199,116,28279,2,0,L|199:172,1,52.5000020027161
88,352,28573,5,2,0:0:0:0:
200,240,28867,1,2,0:0:0:0:
288,376,29162,1,8,0:0:0:0:
200,240,29456,1,2,0:0:0:0:
172,152,29603,1,2,0:0:0:0:
244,92,29750,6,0,L|356:92,1,105.000004005432,2|0,0:0|0:0,0:0:0:0:
432,256,30338,1,8,0:0:0:0:
432,256,30412,1,0,0:0:0:0:
432,256,30485,2,0,L|360:256,1,52.5000020027161
224,112,30926,5,2,0:0:0:0:
336,192,31220,1,0,0:0:0:0:
224,272,31514,1,8,0:0:0:0:
112,192,31809,1,2,0:0:0:0:
40,152,31956,1,2,0:0:0:0:
8,232,32103,6,0,P|0:288|16:336,1,105.000004005432,2|0,0:0|0:0,0:0:0:0:
171,272,32691,1,8,0:0:0:0:
171,272,32764,1,0,0:0:0:0:
171,272,32838,2,0,L|235:272,1,52.5000020027161
384,272,33279,5,2,0:0:0:0:
320,360,33573,1,2,0:0:0:0:
304,200,33867,1,8,0:0:0:0:
480,336,34162,1,2,0:0:0:0:
224,272,34456,5,2,0:0:0:0:
408,160,34750,1,0,0:0:0:0:
480,336,35044,1,8,0:0:0:0:
228,276,35485,1,0,0:0:0:0:
228,276,35632,6,0,L|116:276,1,105.000004005432,2|0,0:0|0:0,0:0:0:0:
32,360,36220,1,8,0:0:0:0:
0,208,36514,2,0,P|-8:136|96:40,1,210.000008010865,2|0,0:0|0:0,0:0:0:0:
192,192,37397,1,8,0:0:0:0:
344,72,37691,1,0,0:0:0:0:
376,368,37985,5,2,0:0:0:0:
200,320,38279,1,0,0:0:0:0:
328,192,38573,1,8,0:0:0:0:
200,320,38867,1,2,0:0:0:0:
96,328,39014,1,2,0:0:0:0:
8,272,39162,6,0,P|0:216|24:152,1,105.000004005432,2|0,0:0|0:0,0:0:0:0:
176,96,39750,1,8,0:0:0:0:
176,96,39823,1,0,0:0:0:0:
176,96,39897,2,0,L|240:96,1,52.5000020027161
376,224,40338,5,2,0:0:0:0:
256,120,40632,1,0,0:0:0:0:
408,64,40926,1,8,0:0:0:0:
376,224,41220,1,2,0:0:0:0:
328,312,41367,1,2,0:0:0:0:
232,288,41514,6,0,P|184:280|128:296,1,105.000004005432,2|0,0:0|0:0,0:0:0:0:
64,192,42103,1,8,0:0:0:0:
64,192,42176,1,0,0:0:0:0:
64,192,42250,2,0,L|72:120,1,52.5000020027161
144,40,42691,5,2,0:0:0:0:
168,160,42985,1,2,0:0:0:0:
344,64,43279,1,8,0:0:0:0:
232,80,43573,1,2,0:0:0:0:
312,232,43867,5,2,0:0:0:0:
344,64,44162,1,2,0:0:0:0:
208,248,44456,1,8,0:0:0:0:
424,216,44750,1,2,0:0:0:0:
168,160,45044,5,2,0:0:0:0:
112,296,45338,1,2,0:0:0:0:
232,360,45632,1,8,0:0:0:0:
168,160,45926,1,2,0:0:0:0:
232,360,46514,1,2,0:0:0:0:
296,160,46809,2,0,L|304:96,1,52.5000020027161,2|0,0:0|0:0,0:0:0:0:
384,32,47103,2,0,L|376:104,1,52.5000020027161
288,240,47397,5,2,0:0:0:0:
376,112,47691,1,0,0:0:0:0:
448,240,47985,1,8,0:0:0:0:
288,240,48279,1,2,0:0:0:0:
200,224,48426,1,2,0:0:0:0:
128,280,48573,6,0,P|120:352|128:392,1,105.000004005432,2|0,0:0|0:0,0:0:0:0:
208,232,49162,1,8,0:0:0:0:
208,232,49235,1,0,0:0:0:0:
208,232,49309,2,0,L|208:160,1,52.5000020027161
144,16,49750,5,2,0:0:0:0:
32,160,50044,1,0,0:0:0:0:
208,179,50338,1,8,0:0:0:0:
32,160,50632,1,2,0:0:0:0:
0,252,50779,1,2,0:0:0:0:
48,336,50926,6,0,P|96:352|160:336,1,105.000004005432,2|0,0:0|0:0,0:0:0:0:
216,240,51514,1,8,0:0:0:0:
216,240,51588,1,0,0:0:0:0:
216,240,51661,2,0,L|272:240,1,52.5000020027161
448,296,52103,5,2,0:0:0:0:
260,320,52397,1,2,0:0:0:0:
480,312,52691,1,8,0:0:0:0:
352,192,52985,1,2,0:0:0:0:
324,384,53279,5,2,0:0:0:0:
352,152,53573,1,0,0:0:0:0:
424,376,53867,1,8,0:0:0:0:
352,120,54309,1,0,0:0:0:0:
352,120,54457,6,0,P|359:65|352:0,1,105.000004005432,2|0,0:0|0:0,0:0:0:0:
240,72,55044,1,8,0:0:0:0:
112,24,55338,2,0,P|96:88|128:240,1,210.000008010865,2|0,0:0|0:0,0:0:0:0:
256,176,56220,1,8,0:0:0:0:
368,280,56514,1,0,0:0:0:0:
200,352,56809,6,0,P|128:320|-8:368,1,210.000008010865,4|0,0:0|0:0,0:0:0:0:
80,232,57691,2,0,P|96:144|24:56,1,210.000008010865,4|0,0:0|0:0,0:0:0:0:
200,104,58573,1,8,0:0:0:0:
336,16,58867,1,8,0:0:0:0:
472,152,59161,6,0,P|490:233|384:336,1,210.000008010865,4|0,0:0|0:0,0:0:0:0:
192,272,60044,2,0,B|256:216|256:216|408:216,1,210.000008010865,4|0,0:0|0:0,0:0:0:0:
312,352,60926,1,8,0:0:0:0:
192,272,61220,1,8,0:0:0:0:
240,136,61514,6,0,P|256:88|232:16,1,105.000004005432,4|0,0:0|0:0,0:0:0:0:
120,8,62103,1,8,0:0:0:0:
32,112,62397,1,4,0:0:0:0:
136,232,62691,2,0,P|152:280|112:368,1,105.000004005432,0|8,0:0|0:0,0:0:0:0:
37,212,63279,2,0,P|21:164|59:79,1,105.000004005432,4|8,0:0|0:0,0:0:0:0:
136,48,63867,6,0,L|256:40,1,105.000004005432,4|0,0:0|0:0,0:0:0:0:
360,88,64456,1,8,0:0:0:0:
317,213,64750,2,0,P|245:149|261:5,1,210.000008010865,4|0,0:0|0:0,0:0:0:0:
368,0,65632,1,8,0:0:0:0:
400,0,66220,6,0,P|472:64|456:208,1,210.000008010865,4|0,0:0|0:0,0:0:0:0:
368,296,67103,2,0,L|112:312,1,210.000008010865,4|0,0:0|0:0,0:0:0:0:
80,144,67985,1,8,0:0:0:0:
8,320,68279,1,8,0:0:0:0:
168,128,68573,6,0,P|120:64|0:104,1,210.000008010865,4|0,0:0|0:0,0:0:0:0:
136,256,69456,2,0,B|216:248|216:248|256:200|256:200|352:184,1,210.000008010865,4|0,0:0|0:0,0:0:0:0:
432,304,70338,1,4,0:0:0:0:
464,120,70632,1,2,0:0:0:0:
464,120,70779,1,0,0:0:0:0:
464,120,70926,5,2,0:0:0:0:
464,216,71220,1,0,0:0:0:0:
368,80,71514,1,0,0:0:0:0:
376,176,71809,1,0,0:0:0:0:
272,32,72103,5,2,0:0:0:0:
304,144,72397,1,0,0:0:0:0:
136,144,72691,1,0,0:0:0:0:
272,32,72985,1,0,0:0:0:0:
216,216,73279,5,2,0:0:0:0:
256,192,73426,12,0,75632,0:0:0:0:
