osu file format v14

[General]
AudioFilename: audio.mp3
AudioLeadIn: 0
PreviewTime: 19162
Countdown: 1
SampleSet: Soft
StackLeniency: 0.7
Mode: 0
LetterboxInBreaks: 0
WidescreenStoryboard: 1

[Editor]
Bookmarks: 56809
DistanceSpacing: 1.5
BeatDivisor: 4
GridSize: 4
TimelineZoom: 1

[Metadata]
Title:Snowdin Town
TitleUnicode:Snowdin Town
Artist:toby fox
ArtistUnicode:toby fox
Creator:Error-
Version:Hard
Source:UNDERTALE
Tags:merry christmas xmas x-mas white snow chiptune soundtrack papyrus sans
BeatmapID:1560104
BeatmapSetID:689649

[Difficulty]
HPDrainRate:4
CircleSize:4
OverallDifficulty:5
ApproachRate:7
SliderMultiplier:1.1
SliderTickRate:1

[Events]
//Background and Video events
0,0,"04_snowdin_v02b_by_bakenius-d9lg4d4.jpg",0,0
//Break Periods
//Storyboard Layer 0 (Background)
//Storyboard Layer 1 (Fail)
//Storyboard Layer 2 (Pass)
//Storyboard Layer 3 (Foreground)
//Storyboard Sound Samples

[TimingPoints]
61,594.059405940594,4,2,1,50,1,0
8080,638.297872340426,4,2,1,50,1,0
8718,594.059405940594,4,2,1,50,1,0
9050,594.059405940594,4,2,1,50,1,0
9734,594.059405940594,4,2,1,50,1,0
13575,594.059405940594,4,2,1,50,1,0
14444,594.059405940594,4,2,1,50,1,0
18602,-100,4,2,1,5,0,0
19162,588.235294117647,4,2,1,60,1,0
19162,-83.3333333333333,4,2,1,60,0,0
56809,-80,4,3,1,60,0,0
70632,-100,4,2,1,60,0,0
73426,-100,4,2,1,25,0,0
75632,-100,4,2,1,5,0,0

[Colours]
Combo1 : 0,0,255
Combo2 : 0,64,128
Combo3 : 215,215,255

[HitObjects]
56,80,61,6,0,L|128:80,1,55,2|0,0:0|0:0,0:0:0:0:
176,132,655,2,0,L|240:132,1,55,2|0,0:0|0:0,0:0:0:0:
304,88,1249,2,0,P|320:136|288:200,1,110,2|0,0:0|0:0,0:0:0:0:
232,232,2140,1,0,0:0:0:0:
232,232,2288,1,0,0:0:0:0:
232,232,2437,6,0,L|160:224,1,55,2|0,0:0|0:0,0:0:0:0:
96,240,3031,1,2,0:0:0:0:
96,240,3328,2,0,P|64:296|80:360,1,110,2|0,0:0|0:0,0:0:0:0:
144,376,4219,1,2,0:0:0:0:
304,336,4813,6,0,L|312:264,1,55,2|0,0:0|0:0,0:0:0:0:
368,224,5407,2,0,L|360:144,1,55,2|0,0:0|0:0,0:0:0:0:
328,96,6001,2,0,P|272:80|216:120,1,110,2|0,0:0|0:0,0:0:0:0:
200,184,6892,1,0,0:0:0:0:
200,184,7041,1,0,0:0:0:0:
200,184,7189,6,0,L|208:248,1,55,2|0,0:0|0:0,0:0:0:0:
256,311,7783,1,2,0:0:0:0:
256,311,8080,2,0,L|128:327,1,110,2|0,0:0|0:0,0:0:0:0:
92,250,9050,5,2,0:0:0:0:
216,104,9734,6,0,P|256:96|288:104,1,55,2|0,0:0|0:0,0:0:0:0:
344,128,10328,2,0,P|376:136|408:128,1,55,2|0,0:0|0:0,0:0:0:0:
464,80,10922,2,0,P|448:128|456:208,1,110,2|0,0:0|0:0,0:0:0:0:
494,269,11813,1,0,0:0:0:0:
494,269,11961,1,0,0:0:0:0:
494,269,12110,6,0,L|499:340,1,55,2|0,0:0|0:0,0:0:0:0:
424,360,12704,1,2,0:0:0:0:
424,360,13001,2,0,P|376:328|312:336,1,106.5,2|0,0:0|0:0,0:0:0:0:
252,360,13872,1,2,0:0:0:0:
96,368,14444,6,0,P|80:320|80:304,1,55,2|0,0:0|0:0,0:0:0:0:
112,240,15038,2,0,P|120:192|120:168,1,55,2|0,0:0|0:0,0:0:0:0:
88,112,15632,2,0,P|128:144|204:132,1,110,2|0,0:0|0:0,0:0:0:0:
236,80,16523,1,0,0:0:0:0:
236,80,16671,1,0,0:0:0:0:
236,80,16820,6,0,L|308:80,1,55,2|0,0:0|0:0,0:0:0:0:
360,136,17414,1,0,0:0:0:0:
360,136,17711,2,0,P|416:136|464:240,1,165,2|0,0:0|0:0,0:0:0:0:
352,352,19162,6,0,L|273:354,1,65.9999979858399,2|0,0:0|0:0,0:0:0:0:
203,298,19750,1,8,0:0:0:0:
120,352,20044,2,0,L|76:352,2,32.99999899292,2|2|2,0:0|0:0|0:0,0:0:0:0:
203,298,20632,1,0,0:0:0:0:
212,200,20926,1,8,0:0:0:0:
212,200,21073,1,0,0:0:0:0:
212,200,21220,1,0,0:0:0:0:
296,252,21514,6,0,P|328:236|384:240,1,65.9999979858399,2|0,0:0|0:0,0:0:0:0:
440,288,22103,1,8,0:0:0:0:
480,204,22397,2,0,L|516:204,2,32.99999899292,2|2|2,0:0|0:0|0:0,0:0:0:0:
440,288,22985,1,0,0:0:0:0:
496,368,23279,1,8,0:0:0:0:
496,368,23426,1,0,0:0:0:0:
496,368,23573,1,0,0:0:0:0:
396,360,23867,6,0,L|252:360,1,131.99999597168,2|8,0:0|0:0,0:0:0:0:
164,356,24750,1,2,0:0:0:0:
88,292,25044,2,0,P|72:260|72:212,1,65.9999979858399,2|2,0:0|0:0,0:0:0:0:
144,168,25632,2,0,P|152:128|144:92,1,65.9999979858399,8|2,0:0|0:0,0:0:0:0:
120,8,26220,6,0,L|196:0,2,65.9999979858399,2|0|8,0:0|0:0|0:0,0:0:0:0:
48,76,27103,2,0,P|24:132|44:200,1,131.99999597168,2|0,0:0|0:0,0:0:0:0:
136,224,27985,2,0,L|192:224,2,32.99999899292,8|0|0,0:0|0:0|0:0,0:0:0:0:
64,292,28573,6,0,L|72:372,1,65.9999979858399,2|0,0:0|0:0,0:0:0:0:
168,368,29162,1,8,0:0:0:0:
244,308,29456,2,0,L|248:264,2,32.99999899292,2|2|2,0:0|0:0|0:0,0:0:0:0:
320,372,30044,1,0,0:0:0:0:
396,308,30338,1,8,0:0:0:0:
396,308,30485,1,0,0:0:0:0:
396,308,30632,1,0,0:0:0:0:
312,256,30926,6,0,P|304:216|308:184,1,65.9999979858399,2|0,0:0|0:0,0:0:0:0:
360,108,31514,1,8,0:0:0:0:
432,36,31809,2,0,L|472:32,2,32.99999899292,2|2|2,0:0|0:0|0:0,0:0:0:0:
332,24,32397,1,0,0:0:0:0:
256,88,32691,1,8,0:0:0:0:
256,88,32838,1,0,0:0:0:0:
256,88,32985,1,0,0:0:0:0:
344,136,33279,6,0,B|384:212|336:268,1,131.99999597168,2|8,0:0|0:0,0:0:0:0:
280,340,34162,1,2,0:0:0:0:
376,364,34456,1,2,0:0:0:0:
444,292,34750,1,0,0:0:0:0:
372,224,35044,2,0,P|356:176|372:124,1,98.9999969787599,8|0,0:0|0:0,0:0:0:0:
404,100,35632,6,0,L|412:4,1,65.9999979858399,2|0,0:0|0:0,0:0:0:0:
316,4,36220,1,8,0:0:0:0:
316,4,36514,2,0,L|180:16,1,131.99999597168,2|0,0:0|0:0,0:0:0:0:
140,104,37397,1,8,0:0:0:0:
40,96,37691,1,0,0:0:0:0:
20,192,37985,6,0,P|21:245|36:272,1,65.9999979858399,2|0,0:0|0:0,0:0:0:0:
100,320,38573,1,8,0:0:0:0:
156,236,38867,2,0,L|168:176,2,32.99999899292,2|2|2,0:0|0:0|0:0,0:0:0:0:
216,316,39456,1,0,0:0:0:0:
280,244,39750,1,8,0:0:0:0:
280,244,39897,1,0,0:0:0:0:
280,244,40044,1,0,0:0:0:0:
240,152,40338,6,0,P|232:112|244:72,1,65.9999979858399,2|0,0:0|0:0,0:0:0:0:
284,0,40926,1,8,0:0:0:0:
348,76,41220,2,0,L|356:128,2,32.99999899292,2|2|2,0:0|0:0|0:0,0:0:0:0:
432,24,41809,1,0,0:0:0:0:
492,104,42103,1,8,0:0:0:0:
492,104,42250,1,0,0:0:0:0:
492,104,42397,1,0,0:0:0:0:
432,24,42691,6,0,P|360:16|308:44,1,131.99999597168,2|8,0:0|0:0,0:0:0:0:
224,96,43573,1,2,0:0:0:0:
164,16,43867,2,0,P|116:8|80:24,1,65.9999979858399,2|2,0:0|0:0,0:0:0:0:
52,100,44456,2,0,L|44:176,1,65.9999979858399,8|2,0:0|0:0,0:0:0:0:
116,236,45044,6,0,L|108:320,2,65.9999979858399,2|0|8,0:0|0:0|0:0,0:0:0:0:
184,168,45926,2,0,P|248:160|312:184,1,131.99999597168,2|0,0:0|0:0,0:0:0:0:
336,280,46809,2,0,L|336:320,2,32.99999899292,8|0|0,0:0|0:0|0:0,0:0:0:0:
396,204,47397,6,0,L|404:132,1,65.9999979858399,2|0,0:0|0:0,0:0:0:0:
352,52,47985,1,8,0:0:0:0:
264,100,48279,2,0,L|260:140,2,32.99999899292,2|2|2,0:0|0:0|0:0,0:0:0:0:
200,24,48867,1,0,0:0:0:0:
124,88,49162,1,8,0:0:0:0:
124,88,49309,1,0,0:0:0:0:
124,88,49456,1,0,0:0:0:0:
204,148,49750,6,0,P|220:188|220:220,1,65.9999979858399,2|0,0:0|0:0,0:0:0:0:
184,304,50338,1,8,0:0:0:0:
276,340,50632,2,0,L|316:344,2,32.99999899292,2|2|2,0:0|0:0|0:0,0:0:0:0:
184,304,51220,1,0,0:0:0:0:
100,352,51514,1,8,0:0:0:0:
100,352,51661,1,0,0:0:0:0:
100,352,51809,1,0,0:0:0:0:
184,304,52103,6,0,P|192:264|176:168,1,131.99999597168,2|8,0:0|0:0,0:0:0:0:
132,88,52985,1,2,0:0:0:0:
196,12,53279,1,2,0:0:0:0:
280,64,53573,1,0,0:0:0:0:
368,16,53867,2,0,P|416:0|472:16,1,98.9999969787599,8|0,0:0|0:0,0:0:0:0:
480,32,54456,6,0,L|492:112,1,65.9999979858399,2|0,0:0|0:0,0:0:0:0:
432,180,55044,1,8,0:0:0:0:
432,180,55338,2,0,P|448:228|424:312,1,131.99999597168,2|0,0:0|0:0,0:0:0:0:
355,370,56220,1,8,0:0:0:0:
256,378,56514,1,0,0:0:0:0:
217,283,56809,6,0,P|169:267|85:303,1,137.5,4|0,0:0|0:0,0:0:0:0:
56,224,57691,2,0,L|64:76,1,137.5,4|0,0:0|0:0,0:0:0:0:
164,72,58573,2,0,L|168:0,1,68.75,8|8,0:0|0:0,0:0:0:0:
248,132,59161,6,0,P|300:144|380:100,1,137.5,4|0,0:0|0:0,0:0:0:0:
296,40,60044,2,0,L|440:28,1,137.5,4|0,0:0|0:0,0:0:0:0:
416,132,60926,2,0,L|334:139,1,68.75,8|8,0:0|0:0,0:0:0:0:
504,176,61514,6,0,P|512:232|468:304,1,137.5,4|0,0:0|0:0,0:0:0:0:
384,252,62397,1,4,0:0:0:0:
324,336,62691,2,0,L|248:352,2,68.75,0|0|8,0:0|0:0|0:0,0:0:0:0:
384,252,63573,1,8,0:0:0:0:
384,252,63867,6,0,P|360:196|376:120,1,137.5,4|0,0:0|0:0,0:0:0:0:
456,60,64750,2,0,L|304:32,1,137.5,4|0,0:0|0:0,0:0:0:0:
256,116,65632,1,8,0:0:0:0:
60,60,66220,6,0,P|36:132|64:204,1,137.5,4|0,0:0|0:0,0:0:0:0:
148,228,67103,2,0,L|292:216,1,137.5,4|0,0:0|0:0,0:0:0:0:
360,148,67985,2,8,L|365:71,1,68.75
420,228,68573,6,0,P|428:276|384:360,1,137.5,4|0,0:0|0:0,0:0:0:0:
288,364,69456,2,0,L|140:368,1,137.5,4|0,0:0|0:0,0:0:0:0:
94,281,70338,1,8,0:0:0:0:
22,316,70632,1,0,0:0:0:0:
22,316,70779,1,0,0:0:0:0:
22,316,70926,6,0,P|14:268|22:244,1,55,2|0,0:0|0:0,0:0:0:0:
68,200,71514,2,0,P|76:152|68:128,1,55
36,72,72103,2,0,L|92:48,1,55,2|0,0:0|0:0,0:0:0:0:
168,72,72691,2,0,L|232:48,1,55
256,128,73279,5,2,0:0:0:0:
256,192,73426,12,0,75632,0:0:0:0:
