osu file format v14

[General]
AudioFilename: audio.mp3
AudioLeadIn: 0
PreviewTime: -1
Countdown: 1
SampleSet: Soft
StackLeniency: 0.7
Mode: 3
LetterboxInBreaks: 0
SpecialStyle: 0
WidescreenStoryboard: 0

[Editor]
DistanceSpacing: 2.5
BeatDivisor: 8
GridSize: 16
TimelineZoom: 3

[Metadata]
Title:Snowdin Town
TitleUnicode:Snowdin Town
Artist:toby fox
ArtistUnicode:toby fox
Creator:Devilchilly
Version:Cheap Real Estate
Source:Undertale
Tags:snowdin papyrus shopkeeper snowy snowdin undertale devilchilly
BeatmapID:927983
BeatmapSetID:430162

[Difficulty]
HPDrainRate:7
CircleSize:4
OverallDifficulty:7
ApproachRate:5
SliderMultiplier:2
SliderTickRate:1

[Events]
//Background and Video events
0,0,"04_snowdin_v02b_by_bakenius-d9lg4d4.jpg",0,0
//Break Periods
//Storyboard Layer 0 (Background)
//Storyboard Layer 1 (Fail)
//Storyboard Layer 2 (Pass)
//Storyboard Layer 3 (Foreground)
//Storyboard Sound Samples

[TimingPoints]
-420.118811881188,588.235294117647,4,2,0,5,1,0
8050,588.235294117647,4,2,0,5,1,0

[HitObjects]
64,192,94,5,0,0:0:0:0:
448,192,94,1,0,0:0:0:0:
320,192,241,1,0,0:0:0:0:
192,192,388,1,0,0:0:0:0:
320,192,535,1,0,0:0:0:0:
192,192,682,1,0,0:0:0:0:
448,192,682,1,0,0:0:0:0:
64,192,829,1,0,0:0:0:0:
192,192,976,1,0,0:0:0:0:
320,192,1123,1,0,0:0:0:0:
64,192,1271,1,0,0:0:0:0:
448,192,1271,128,0,2153:0:0:0:0:
192,192,1271,128,0,2153:0:0:0:0:
320,192,2153,1,0,0:0:0:0:
192,192,2300,1,0,0:0:0:0:
64,192,2447,1,0,0:0:0:0:
448,192,2447,1,0,0:0:0:0:
320,192,2447,128,0,2741:0:0:0:0:
192,192,2594,1,0,0:0:0:0:
448,192,2741,128,0,3035:0:0:0:0:
64,192,2741,1,0,0:0:0:0:
64,192,3035,128,0,3403:0:0:0:0:
320,192,3035,1,0,0:0:0:0:
192,192,3403,128,0,3991:0:0:0:0:
448,192,3403,128,0,3991:0:0:0:0:
320,192,3991,128,0,4285:0:0:0:0:
64,192,3991,128,0,4285:0:0:0:0:
192,192,4285,128,0,4873:0:0:0:0:
320,192,4873,1,0,0:0:0:0:
448,192,4873,1,0,0:0:0:0:
64,192,5021,1,0,0:0:0:0:
192,192,5168,1,0,0:0:0:0:
448,192,5315,1,0,0:0:0:0:
320,192,5462,1,0,0:0:0:0:
192,192,5609,1,0,0:0:0:0:
64,192,5756,1,0,0:0:0:0:
320,192,5903,1,0,0:0:0:0:
192,192,6050,1,0,0:0:0:0:
64,192,6050,128,0,6932:0:0:0:0:
448,192,6050,1,0,0:0:0:0:
448,192,6932,1,0,0:0:0:0:
320,192,6932,1,0,0:0:0:0:
192,192,7079,1,0,0:0:0:0:
320,192,7226,1,0,0:0:0:0:
192,192,7373,1,0,0:0:0:0:
320,192,7521,1,0,0:0:0:0:
448,192,7521,1,0,0:0:0:0:
64,192,7668,1,0,0:0:0:0:
192,192,7815,1,0,0:0:0:0:
448,192,7962,1,0,0:0:0:0:
64,192,8123,128,0,8785:0:0:0:0:
320,192,8785,128,0,9079:0:0:0:0:
192,192,9079,128,0,9814:0:0:0:0:
448,192,9814,1,0,0:0:0:0:
64,192,9814,1,0,0:0:0:0:
320,192,9961,1,0,0:0:0:0:
192,192,10108,1,0,0:0:0:0:
64,192,10255,1,0,0:0:0:0:
320,192,10402,1,0,0:0:0:0:
448,192,10402,1,0,0:0:0:0:
192,192,10550,1,0,0:0:0:0:
320,192,10697,1,0,0:0:0:0:
192,192,10844,1,0,0:0:0:0:
64,192,10991,128,0,11873:0:0:0:0:
320,192,10991,128,0,11873:0:0:0:0:
448,192,11873,1,0,0:0:0:0:
192,192,12020,1,0,0:0:0:0:
448,192,12167,128,0,12461:0:0:0:0:
320,192,12167,1,0,0:0:0:0:
192,192,12314,1,0,0:0:0:0:
320,192,12461,128,0,12755:0:0:0:0:
64,192,12461,1,0,0:0:0:0:
448,192,12608,1,0,0:0:0:0:
192,192,12755,128,0,13638:0:0:0:0:
64,192,13050,128,0,13638:0:0:0:0:
448,192,13638,128,0,13932:0:0:0:0:
64,192,13932,128,0,14520:0:0:0:0:
320,192,13932,128,0,14520:0:0:0:0:
448,192,14520,1,0,0:0:0:0:
192,192,14667,1,0,0:0:0:0:
320,192,14814,1,0,0:0:0:0:
64,192,14961,1,0,0:0:0:0:
448,192,14961,1,0,0:0:0:0:
320,192,15108,1,0,0:0:0:0:
192,192,15255,1,0,0:0:0:0:
320,192,15402,1,0,0:0:0:0:
192,192,15550,1,0,0:0:0:0:
320,192,15697,128,0,16579:0:0:0:0:
448,192,15697,128,0,16579:0:0:0:0:
64,192,15697,1,0,0:0:0:0:
192,192,16579,1,0,0:0:0:0:
64,192,16726,1,0,0:0:0:0:
192,192,16873,1,0,0:0:0:0:
320,192,17020,1,0,0:0:0:0:
448,192,17167,1,0,0:0:0:0:
64,192,17167,1,0,0:0:0:0:
320,192,17314,1,0,0:0:0:0:
192,192,17461,1,0,0:0:0:0:
448,192,17461,1,0,0:0:0:0:
320,192,17608,1,0,0:0:0:0:
64,192,17755,128,0,19226:0:0:0:0:
192,192,17755,128,0,19226:0:0:0:0:
448,192,17755,128,0,19226:0:0:0:0:
320,192,19226,128,0,19520:0:0:0:0:
448,192,19520,128,0,19814:0:0:0:0:
192,192,19520,128,0,19814:0:0:0:0:
64,192,19814,128,0,20108:0:0:0:0:
192,192,20108,1,0,0:0:0:0:
320,192,20255,1,0,0:0:0:0:
192,192,20402,1,0,0:0:0:0:
448,192,20402,1,0,0:0:0:0:
64,192,20697,1,0,0:0:0:0:
320,192,20697,1,0,0:0:0:0:
448,192,20991,1,0,0:0:0:0:
320,192,21064,1,0,0:0:0:0:
192,192,21138,1,0,0:0:0:0:
64,192,21211,1,0,0:0:0:0:
448,192,21285,1,0,0:0:0:0:
320,192,21358,1,0,0:0:0:0:
320,192,21579,1,0,0:0:0:0:
448,192,21579,128,0,22461:0:0:0:0:
192,192,21726,1,0,0:0:0:0:
64,192,21873,1,0,0:0:0:0:
320,192,21873,1,0,0:0:0:0:
192,192,22020,1,0,0:0:0:0:
64,192,22167,1,0,0:0:0:0:
192,192,22167,1,0,0:0:0:0:
320,192,22314,1,0,0:0:0:0:
64,192,22461,1,0,0:0:0:0:
192,192,22461,1,0,0:0:0:0:
320,192,22608,1,0,0:0:0:0:
64,192,22755,1,0,0:0:0:0:
448,192,22755,128,0,23344:0:0:0:0:
64,192,23050,128,0,23344:0:0:0:0:
320,192,23344,1,0,0:0:0:0:
192,192,23417,1,0,0:0:0:0:
320,192,23491,1,0,0:0:0:0:
192,192,23564,1,0,0:0:0:0:
64,192,23638,1,0,0:0:0:0:
448,192,23638,1,0,0:0:0:0:
192,192,23785,1,0,0:0:0:0:
320,192,23932,128,0,24814:0:0:0:0:
448,192,24226,128,0,24814:0:0:0:0:
192,192,24520,128,0,24814:0:0:0:0:
64,192,24814,128,0,26285:0:0:0:0:
192,192,25108,128,0,26285:0:0:0:0:
448,192,25402,1,0,0:0:0:0:
320,192,25402,128,0,26285:0:0:0:0:
448,192,25697,1,0,0:0:0:0:
448,192,25991,1,0,0:0:0:0:
448,192,26285,128,0,26579:0:0:0:0:
64,192,26579,128,0,26873:0:0:0:0:
192,192,26579,1,0,0:0:0:0:
320,192,26579,1,0,0:0:0:0:
320,192,26873,128,0,27167:0:0:0:0:
192,192,27167,128,0,27755:0:0:0:0:
448,192,27167,128,0,27755:0:0:0:0:
64,192,27755,128,0,28049:0:0:0:0:
320,192,28049,1,0,0:0:0:0:
448,192,28049,1,0,0:0:0:0:
320,192,28344,1,0,0:0:0:0:
448,192,28344,1,0,0:0:0:0:
192,192,28638,1,0,0:0:0:0:
64,192,28638,1,0,0:0:0:0:
320,192,28785,1,0,0:0:0:0:
448,192,28932,1,0,0:0:0:0:
64,192,28932,1,0,0:0:0:0:
320,192,29079,1,0,0:0:0:0:
64,192,29226,1,0,0:0:0:0:
192,192,29226,1,0,0:0:0:0:
448,192,29373,1,0,0:0:0:0:
320,192,29520,1,0,0:0:0:0:
64,192,29520,1,0,0:0:0:0:
192,192,29520,1,0,0:0:0:0:
320,192,29667,1,0,0:0:0:0:
64,192,29814,1,0,0:0:0:0:
192,192,29814,1,0,0:0:0:0:
448,192,29814,1,0,0:0:0:0:
320,192,29961,1,0,0:0:0:0:
192,192,30108,1,0,0:0:0:0:
320,192,30255,1,0,0:0:0:0:
448,192,30255,1,0,0:0:0:0:
64,192,30402,1,0,0:0:0:0:
192,192,30402,1,0,0:0:0:0:
320,192,30476,1,0,0:0:0:0:
448,192,30476,1,0,0:0:0:0:
64,192,30549,1,0,0:0:0:0:
192,192,30549,1,0,0:0:0:0:
320,192,30623,1,0,0:0:0:0:
448,192,30623,1,0,0:0:0:0:
64,192,30697,1,0,0:0:0:0:
192,192,30697,1,0,0:0:0:0:
320,192,30844,1,0,0:0:0:0:
64,192,30991,1,0,0:0:0:0:
448,192,30991,1,0,0:0:0:0:
192,192,31138,1,0,0:0:0:0:
320,192,31285,1,0,0:0:0:0:
448,192,31285,1,0,0:0:0:0:
192,192,31432,1,0,0:0:0:0:
64,192,31579,1,0,0:0:0:0:
448,192,31579,1,0,0:0:0:0:
320,192,31726,1,0,0:0:0:0:
64,192,31873,1,0,0:0:0:0:
192,192,31873,1,0,0:0:0:0:
320,192,32020,1,0,0:0:0:0:
448,192,32167,1,0,0:0:0:0:
192,192,32167,1,0,0:0:0:0:
64,192,32167,1,0,0:0:0:0:
320,192,32314,1,0,0:0:0:0:
64,192,32461,1,0,0:0:0:0:
192,192,32461,1,0,0:0:0:0:
448,192,32461,1,0,0:0:0:0:
320,192,32608,1,0,0:0:0:0:
192,192,32755,1,0,0:0:0:0:
448,192,32755,1,0,0:0:0:0:
320,192,32829,1,0,0:0:0:0:
64,192,32829,1,0,0:0:0:0:
192,192,32902,1,0,0:0:0:0:
448,192,32902,1,0,0:0:0:0:
320,192,32976,1,0,0:0:0:0:
64,192,32976,1,0,0:0:0:0:
192,192,33050,1,0,0:0:0:0:
448,192,33050,128,0,33344:0:0:0:0:
64,192,33344,1,0,0:0:0:0:
320,192,33344,1,0,0:0:0:0:
192,192,33491,1,0,0:0:0:0:
320,192,33638,1,0,0:0:0:0:
192,192,33785,1,0,0:0:0:0:
320,192,33932,1,0,0:0:0:0:
448,192,33932,1,0,0:0:0:0:
192,192,34079,1,0,0:0:0:0:
64,192,34226,1,0,0:0:0:0:
448,192,34226,1,0,0:0:0:0:
320,192,34373,1,0,0:0:0:0:
64,192,34520,1,0,0:0:0:0:
192,192,34520,1,0,0:0:0:0:
320,192,34667,1,0,0:0:0:0:
448,192,34814,1,0,0:0:0:0:
192,192,34814,1,0,0:0:0:0:
320,192,34961,1,0,0:0:0:0:
64,192,35108,1,0,0:0:0:0:
448,192,35108,1,0,0:0:0:0:
320,192,35550,1,0,0:0:0:0:
64,192,35550,1,0,0:0:0:0:
448,192,35550,1,0,0:0:0:0:
320,192,35697,1,0,0:0:0:0:
64,192,35697,1,0,0:0:0:0:
448,192,35697,1,0,0:0:0:0:
192,192,35770,1,0,0:0:0:0:
448,192,36064,1,0,0:0:0:0:
64,192,36285,1,0,0:0:0:0:
320,192,36579,1,0,0:0:0:0:
192,192,37167,1,0,0:0:0:0:
448,192,37167,1,0,0:0:0:0:
192,192,37461,1,0,0:0:0:0:
320,192,37461,1,0,0:0:0:0:
64,192,37755,1,0,0:0:0:0:
320,192,37755,1,0,0:0:0:0:
64,192,38050,1,0,0:0:0:0:
192,192,38050,1,0,0:0:0:0:
448,192,38050,1,0,0:0:0:0:
320,192,38197,1,0,0:0:0:0:
64,192,38344,1,0,0:0:0:0:
448,192,38344,1,0,0:0:0:0:
320,192,38491,1,0,0:0:0:0:
192,192,38638,1,0,0:0:0:0:
448,192,38638,1,0,0:0:0:0:
320,192,38785,1,0,0:0:0:0:
192,192,38932,1,0,0:0:0:0:
64,192,39079,1,0,0:0:0:0:
320,192,39226,1,0,0:0:0:0:
192,192,39226,1,0,0:0:0:0:
448,192,39226,128,0,39520:0:0:0:0:
64,192,39520,1,0,0:0:0:0:
192,192,39520,1,0,0:0:0:0:
448,192,39814,1,0,0:0:0:0:
64,192,39814,1,0,0:0:0:0:
192,192,39888,1,0,0:0:0:0:
320,192,39888,1,0,0:0:0:0:
64,192,39961,1,0,0:0:0:0:
448,192,39961,1,0,0:0:0:0:
192,192,40035,1,0,0:0:0:0:
320,192,40035,1,0,0:0:0:0:
64,192,40108,1,0,0:0:0:0:
448,192,40108,1,0,0:0:0:0:
192,192,40402,1,0,0:0:0:0:
448,192,40402,1,0,0:0:0:0:
64,192,40402,1,0,0:0:0:0:
320,192,40549,1,0,0:0:0:0:
64,192,40697,1,0,0:0:0:0:
448,192,40697,1,0,0:0:0:0:
320,192,40844,1,0,0:0:0:0:
64,192,40991,1,0,0:0:0:0:
192,192,40991,1,0,0:0:0:0:
448,192,41138,1,0,0:0:0:0:
320,192,41138,1,0,0:0:0:0:
64,192,41285,1,0,0:0:0:0:
192,192,41432,1,0,0:0:0:0:
320,192,41579,1,0,0:0:0:0:
448,192,41579,1,0,0:0:0:0:
64,192,41873,1,0,0:0:0:0:
192,192,41873,1,0,0:0:0:0:
320,192,42167,1,0,0:0:0:0:
448,192,42167,1,0,0:0:0:0:
192,192,42241,1,0,0:0:0:0:
64,192,42314,1,0,0:0:0:0:
320,192,42388,1,0,0:0:0:0:
192,192,42461,1,0,0:0:0:0:
64,192,42755,1,0,0:0:0:0:
448,192,42755,128,0,43638:0:0:0:0:
192,192,42902,1,0,0:0:0:0:
320,192,43049,1,0,0:0:0:0:
64,192,43197,1,0,0:0:0:0:
192,192,43344,1,0,0:0:0:0:
320,192,43344,1,0,0:0:0:0:
64,192,43638,128,0,43785:0:0:0:0:
192,192,43638,128,0,43785:0:0:0:0:
320,192,43785,128,0,43932:0:0:0:0:
192,192,43932,128,0,44226:0:0:0:0:
448,192,43932,128,0,44226:0:0:0:0:
64,192,44226,1,0,0:0:0:0:
320,192,44226,1,0,0:0:0:0:
320,192,44373,1,0,0:0:0:0:
64,192,44520,1,0,0:0:0:0:
192,192,44520,1,0,0:0:0:0:
320,192,44667,1,0,0:0:0:0:
448,192,44814,1,0,0:0:0:0:
320,192,44961,1,0,0:0:0:0:
64,192,45108,1,0,0:0:0:0:
192,192,45108,128,0,45402:0:0:0:0:
320,192,45402,128,0,45697:0:0:0:0:
448,192,45402,1,0,0:0:0:0:
64,192,45402,1,0,0:0:0:0:
192,192,45697,128,0,45991:0:0:0:0:
448,192,45697,1,0,0:0:0:0:
64,192,45697,1,0,0:0:0:0:
448,192,45991,128,0,47461:0:0:0:0:
320,192,45991,1,0,0:0:0:0:
64,192,45991,1,0,0:0:0:0:
320,192,46579,128,0,47461:0:0:0:0:
192,192,46873,128,0,47461:0:0:0:0:
64,192,47167,1,0,0:0:0:0:
64,192,47461,1,0,0:0:0:0:
320,192,47755,1,0,0:0:0:0:
448,192,47755,1,0,0:0:0:0:
192,192,48049,1,0,0:0:0:0:
448,192,48049,1,0,0:0:0:0:
64,192,48344,1,0,0:0:0:0:
320,192,48344,1,0,0:0:0:0:
192,192,48491,1,0,0:0:0:0:
320,192,48638,1,0,0:0:0:0:
448,192,48638,1,0,0:0:0:0:
64,192,48932,1,0,0:0:0:0:
448,192,48932,1,0,0:0:0:0:
64,192,49226,1,0,0:0:0:0:
192,192,49299,1,0,0:0:0:0:
320,192,49373,1,0,0:0:0:0:
448,192,49447,1,0,0:0:0:0:
64,192,49520,1,0,0:0:0:0:
192,192,49594,1,0,0:0:0:0:
320,192,49814,1,0,0:0:0:0:
64,192,49814,1,0,0:0:0:0:
192,192,50108,1,0,0:0:0:0:
64,192,50402,1,0,0:0:0:0:
320,192,50402,1,0,0:0:0:0:
448,192,50697,1,0,0:0:0:0:
320,192,50844,1,0,0:0:0:0:
64,192,50991,1,0,0:0:0:0:
192,192,50991,1,0,0:0:0:0:
64,192,51285,1,0,0:0:0:0:
448,192,51285,1,0,0:0:0:0:
320,192,51579,1,0,0:0:0:0:
192,192,51652,1,0,0:0:0:0:
64,192,51726,1,0,0:0:0:0:
320,192,51799,1,0,0:0:0:0:
192,192,51873,1,0,0:0:0:0:
448,192,52167,128,0,53049:0:0:0:0:
320,192,52167,128,0,52461:0:0:0:0:
192,192,52461,128,0,52755:0:0:0:0:
64,192,52755,128,0,53049:0:0:0:0:
192,192,53049,1,0,0:0:0:0:
192,192,53344,1,0,0:0:0:0:
320,192,53344,1,0,0:0:0:0:
320,192,53638,1,0,0:0:0:0:
64,192,53932,1,0,0:0:0:0:
448,192,53932,1,0,0:0:0:0:
320,192,54373,1,0,0:0:0:0:
448,192,54373,1,0,0:0:0:0:
320,192,54520,1,0,0:0:0:0:
448,192,54520,1,0,0:0:0:0:
192,192,54814,1,0,0:0:0:0:
320,192,55108,1,0,0:0:0:0:
192,192,55402,1,0,0:0:0:0:
448,192,55991,1,0,0:0:0:0:
320,192,55991,1,0,0:0:0:0:
192,192,56285,1,0,0:0:0:0:
64,192,56579,1,0,0:0:0:0:
192,192,56873,128,0,57167:0:0:0:0:
448,192,57167,128,0,57461:0:0:0:0:
64,192,57314,1,0,0:0:0:0:
320,192,57461,128,0,57755:0:0:0:0:
192,192,57461,1,0,0:0:0:0:
448,192,57608,1,0,0:0:0:0:
192,192,57755,128,0,58049:0:0:0:0:
64,192,57755,1,0,0:0:0:0:
320,192,57902,1,0,0:0:0:0:
448,192,58049,1,0,0:0:0:0:
64,192,58049,128,0,58344:0:0:0:0:
320,192,58197,1,0,0:0:0:0:
320,192,58344,128,0,58638:0:0:0:0:
192,192,58344,1,0,0:0:0:0:
448,192,58491,1,0,0:0:0:0:
192,192,58638,128,0,58932:0:0:0:0:
64,192,58638,1,0,0:0:0:0:
448,192,58785,1,0,0:0:0:0:
320,192,58932,1,0,0:0:0:0:
64,192,58932,128,0,59226:0:0:0:0:
192,192,59079,1,0,0:0:0:0:
448,192,59226,128,0,60402:0:0:0:0:
320,192,59226,1,0,0:0:0:0:
192,192,59373,1,0,0:0:0:0:
64,192,59520,1,0,0:0:0:0:
192,192,59667,1,0,0:0:0:0:
320,192,59814,128,0,60402:0:0:0:0:
64,192,59814,1,0,0:0:0:0:
192,192,59961,1,0,0:0:0:0:
64,192,60108,1,0,0:0:0:0:
192,192,60108,1,0,0:0:0:0:
192,192,60255,1,0,0:0:0:0:
64,192,60402,128,0,61873:0:0:0:0:
192,192,60402,1,0,0:0:0:0:
192,192,60549,1,0,0:0:0:0:
448,192,60697,1,0,0:0:0:0:
320,192,60697,1,0,0:0:0:0:
192,192,60844,1,0,0:0:0:0:
320,192,60991,1,0,0:0:0:0:
448,192,60991,1,0,0:0:0:0:
192,192,61579,1,0,0:0:0:0:
448,192,61579,1,0,0:0:0:0:
320,192,61873,1,0,0:0:0:0:
448,192,61873,128,0,62167:0:0:0:0:
192,192,62020,1,0,0:0:0:0:
320,192,62167,128,0,62461:0:0:0:0:
64,192,62167,1,0,0:0:0:0:
448,192,62314,1,0,0:0:0:0:
192,192,62461,128,0,62755:0:0:0:0:
64,192,62461,1,0,0:0:0:0:
320,192,62608,1,0,0:0:0:0:
64,192,62755,128,0,63049:0:0:0:0:
448,192,62755,1,0,0:0:0:0:
320,192,62902,1,0,0:0:0:0:
448,192,63049,128,0,63344:0:0:0:0:
192,192,63049,1,0,0:0:0:0:
320,192,63197,1,0,0:0:0:0:
192,192,63344,128,0,63638:0:0:0:0:
64,192,63344,1,0,0:0:0:0:
448,192,63491,1,0,0:0:0:0:
320,192,63638,128,0,63932:0:0:0:0:
64,192,63638,1,0,0:0:0:0:
192,192,63785,1,0,0:0:0:0:
64,192,63932,128,0,64226:0:0:0:0:
448,192,63932,1,0,0:0:0:0:
192,192,64079,1,0,0:0:0:0:
320,192,64226,128,0,64520:0:0:0:0:
448,192,64226,1,0,0:0:0:0:
64,192,64373,1,0,0:0:0:0:
192,192,64520,128,0,64814:0:0:0:0:
448,192,64520,1,0,0:0:0:0:
320,192,64667,1,0,0:0:0:0:
64,192,64814,128,0,66579:0:0:0:0:
448,192,64814,1,0,0:0:0:0:
192,192,65402,1,0,0:0:0:0:
320,192,65697,1,0,0:0:0:0:
192,192,66285,1,0,0:0:0:0:
448,192,66285,1,0,0:0:0:0:
448,192,66579,1,0,0:0:0:0:
192,192,66579,1,0,0:0:0:0:
320,192,66726,1,0,0:0:0:0:
192,192,66873,1,0,0:0:0:0:
64,192,66873,1,0,0:0:0:0:
320,192,67020,1,0,0:0:0:0:
64,192,67167,1,0,0:0:0:0:
448,192,67167,1,0,0:0:0:0:
192,192,67314,1,0,0:0:0:0:
320,192,67461,1,0,0:0:0:0:
448,192,67461,1,0,0:0:0:0:
192,192,67608,1,0,0:0:0:0:
64,192,67755,1,0,0:0:0:0:
320,192,67755,1,0,0:0:0:0:
192,192,67902,1,0,0:0:0:0:
64,192,68050,1,0,0:0:0:0:
448,192,68050,1,0,0:0:0:0:
320,192,68197,1,0,0:0:0:0:
192,192,68344,1,0,0:0:0:0:
448,192,68344,1,0,0:0:0:0:
320,192,68491,1,0,0:0:0:0:
448,192,68638,128,0,69226:0:0:0:0:
64,192,68638,128,0,69226:0:0:0:0:
192,192,69226,128,0,69814:0:0:0:0:
320,192,69226,1,0,0:0:0:0:
448,192,69814,128,0,70991:0:0:0:0:
320,192,70697,1,0,0:0:0:0:
192,192,70844,1,0,0:0:0:0:
64,192,70991,1,0,0:0:0:0:
320,192,70991,1,0,0:0:0:0:
192,192,71285,1,0,0:0:0:0:
320,192,71579,1,0,0:0:0:0:
192,192,71873,1,0,0:0:0:0:
320,192,72167,1,0,0:0:0:0:
192,192,72461,1,0,0:0:0:0:
320,192,72755,1,0,0:0:0:0:
192,192,73049,1,0,0:0:0:0:
64,192,73344,1,0,0:0:0:0:
448,192,73344,1,0,0:0:0:0:
