osu file format v14

[General]
AudioFilename: audio.mp3
AudioLeadIn: 0
PreviewTime: 19047
Countdown: 0
SampleSet: Soft
StackLeniency: 0.7
Mode: 0
LetterboxInBreaks: 0
WidescreenStoryboard: 0

[Editor]
DistanceSpacing: 0.8
BeatDivisor: 4
GridSize: 4
TimelineZoom: 1

[Metadata]
Title:Snowdin Town
TitleUnicode:Snowdin Town
Artist:toby fox
ArtistUnicode:toby fox
Creator:Chompy
Version:White Christmas
Source:UNDERTALE
Tags:merry christmas xmas x-mas snow chiptune soundtrack papyrus sans -Keitaro
BeatmapID:2221226
BeatmapSetID:1060928

[Difficulty]
HPDrainRate:6
CircleSize:5
OverallDifficulty:7
ApproachRate:8
SliderMultiplier:1.4
SliderTickRate:1

[Events]
//Background and Video events
0,0,"snowdin.jpg",0,0
//Break Periods
//Storyboard Layer 0 (Background)
//Storyboard Layer 1 (Fail)
//Storyboard Layer 2 (Pass)
//Storyboard Layer 3 (Foreground)
//Storyboard Layer 4 (Overlay)
//Storyboard Sound Samples

[TimingPoints]
61,594.059405940594,4,2,1,50,1,0
1249,-80,4,2,1,50,0,0
2140,-100,4,2,1,50,0,0
3328,-80,4,2,1,50,0,0
4219,-100,4,2,1,50,0,0
6001,-80,4,2,1,50,0,0
6892,-100,4,2,1,50,0,0
8080,638.297872340426,4,2,1,50,1,0
8080,-80,4,2,1,50,0,0
8718,594.059405940594,4,2,1,50,1,0
9050,594.059405940594,4,2,1,50,1,0
9734,594.059405940594,4,2,1,50,1,0
10922,-80,4,2,1,50,0,0
11813,-100,4,2,1,50,0,0
13001,-80,4,2,1,50,0,0
13575,594.059405940594,4,2,1,50,1,0
14444,594.059405940594,4,2,1,50,1,0
15632,-80,4,2,1,50,0,0
16523,-100,4,2,1,50,0,0
17711,-66.6666666666667,4,2,1,50,0,0
18602,-100,4,2,1,5,0,0
19162,588.235294117647,4,2,1,60,1,0
19162,-66.6666666666667,4,2,1,60,0,0
20338,-50,4,2,1,60,0,0
20926,-66.6666666666667,4,2,1,60,0,0
22691,-50,4,2,1,60,0,0
23279,-66.6666666666667,4,2,1,60,0,0
25044,-50,4,2,1,60,0,0
28573,-66.6666666666667,4,2,1,60,0,0
29750,-50,4,2,1,60,0,0
30338,-66.6666666666667,4,2,1,60,0,0
32103,-50,4,2,1,60,0,0
32691,-66.6666666666667,4,2,1,60,0,0
37103,-50,4,2,1,60,0,0
56809,-66.6666666666667,4,3,1,60,0,0
57985,-66.6666666666667,4,3,1,60,0,0
70632,-66.6666666666667,4,2,1,60,0,0
73426,-66.6666666666667,4,2,1,25,0,0
75632,-66.6666666666667,4,2,1,5,0,0

[Colours]
Combo1 : 73,132,228
Combo2 : 255,255,255
Combo3 : 191,242,251
Combo4 : 190,215,252

[HitObjects]
51,50,61,6,0,P|40:98|62:142,1,70,2|0,0:0|0:0,0:0:0:0:
127,210,655,2,0,P|138:162|116:118,1,70,2|0,0:0|0:0,0:0:0:0:
174,56,1249,2,0,B|251:56|251:56|274:74|274:74|363:74,1,175,2|0,0:0|0:0,0:0:0:0:
477,33,2140,1,0,0:0:0:0:
477,33,2288,1,0,0:0:0:0:
477,33,2437,5,2,0:0:0:0:
433,137,2734,1,0,0:0:0:0:
477,241,3031,1,2,0:0:0:0:
391,296,3328,2,0,P|410:358|486:312,1,175,2|0,0:0|0:0,0:0:0:0:
382,286,4219,1,2,0:0:0:0:
382,286,4813,6,0,P|393:238|371:194,1,70,2|0,0:0|0:0,0:0:0:0:
306,126,5407,2,0,P|295:174|317:218,1,70,2|0,0:0|0:0,0:0:0:0:
259,280,6001,2,0,B|174:251|174:251|84:293,1,175,2|0,0:0|0:0,0:0:0:0:
0,382,6892,1,0,0:0:0:0:
0,382,7041,1,0,0:0:0:0:
0,382,7189,5,2,0:0:0:0:
44,278,7486,1,0,0:0:0:0:
0,174,7783,1,2,0:0:0:0:
125,178,8080,2,0,P|193:132|135:94,1,175,2|0,0:0|0:0,0:0:0:0:
235,24,9050,1,2,0:0:0:0:
347,121,9734,6,0,L|419:121,1,70,2|0,0:0|0:0,0:0:0:0:
510,39,10328,2,0,L|438:39,1,70,2|0,0:0|0:0,0:0:0:0:
347,65,10922,2,0,P|389:138|379:229,1,175,2|0,0:0|0:0,0:0:0:0:
321,351,11813,1,0,0:0:0:0:
321,351,11961,1,0,0:0:0:0:
321,351,12110,5,2,0:0:0:0:
397,268,12407,1,0,0:0:0:0:
473,351,12704,1,2,0:0:0:0:
503,252,13001,2,0,B|450:180|450:180|366:158,1,169.5,2|0,0:0|0:0,0:0:0:0:
495,263,13872,1,2,0:0:0:0:
495,263,14444,6,0,L|423:263,1,70,2|0,0:0|0:0,0:0:0:0:
332,345,15038,2,0,L|404:345,1,70,2|0,0:0|0:0,0:0:0:0:
492,316,15632,2,0,B|430:315|451:203|366:199,1,175,2|0,0:0|0:0,0:0:0:0:
242,161,16523,1,0,0:0:0:0:
242,161,16671,1,0,0:0:0:0:
242,161,16820,5,2,0:0:0:0:
166,244,17117,1,0,0:0:0:0:
82,168,17414,1,2,0:0:0:0:
158,84,17711,2,0,B|168:41|218:19|263:48|269:86|269:86|324:52|363:136|428:95,1,315.000012016297,2|0,0:0|0:0,0:0:0:0:
509,2,19162,5,2,0:0:0:0:
441,149,19456,1,0,0:0:0:0:
308,113,19750,1,8,0:0:0:0:
441,149,20044,1,2,0:0:0:0:
360,158,20191,1,2,0:0:0:0:
409,224,20338,6,0,P|481:237|522:191,1,140,2|0,0:0|0:0,0:0:0:0:
393,228,20926,1,8,0:0:0:0:
393,228,21000,1,0,0:0:0:0:
393,228,21073,2,0,P|367:266|331:279,1,52.5000020027161,0|0,0:0|0:0,0:0:0:0:
193,351,21515,5,2,0:0:0:0:
130,202,21809,1,0,0:0:0:0:
12,281,22103,1,8,0:0:0:0:
130,202,22397,1,2,0:0:0:0:
84,272,22544,1,2,0:0:0:0:
45,197,22691,6,0,B|69:116|159:119,1,140,2|0,0:0|0:0,0:0:0:0:
32,207,23279,1,8,0:0:0:0:
32,207,23353,1,0,0:0:0:0:
32,207,23426,2,0,B|36:175|26:144,1,52.5000020027161,0|0,0:0|0:0,0:0:0:0:
0,8,23867,5,2,0:0:0:0:
111,79,24162,1,2,0:0:0:0:
203,17,24456,1,8,0:0:0:0:
111,79,24750,1,2,0:0:0:0:
256,113,25044,6,0,P|330:125|380:166,1,140,2|2,0:0|0:0,0:0:0:0:
264,127,25632,1,8,0:0:0:0:
441,229,25926,1,2,0:0:0:0:
174,205,26220,5,2,0:0:0:0:
145,347,26514,1,2,0:0:0:0:
287,376,26809,1,8,0:0:0:0:
314,228,27103,1,2,0:0:0:0:
222,75,27691,5,2,0:0:0:0:
231,79,27985,1,8,0:0:0:0:
240,83,28279,1,0,0:0:0:0:
323,1,28573,5,2,0:0:0:0:
471,87,28867,1,2,0:0:0:0:
413,212,29162,1,8,0:0:0:0:
471,87,29456,1,2,0:0:0:0:
464,171,29603,1,2,0:0:0:0:
394,122,29750,6,0,B|310:149|310:149|283:209,1,140,2|0,0:0|0:0,0:0:0:0:
387,148,30338,1,8,2:0:0:0:
387,148,30412,1,0,2:0:0:0:
387,148,30485,2,0,B|393:179|393:179|380:216,1,52.5000020027161,0|0,2:0|2:0,2:0:0:0:
325,384,30926,5,2,0:0:0:0:
166,353,31220,1,0,0:0:0:0:
110,228,31514,1,8,0:0:0:0:
166,353,31809,1,2,0:0:0:0:
100,301,31956,1,2,0:0:0:0:
178,269,32103,6,0,B|184:196|184:196|146:140,1,140,2|0,0:0|0:0,0:0:0:0:
202,259,32691,1,8,0:0:0:0:
202,259,32764,1,0,0:0:0:0:
202,259,32838,2,0,B|226:244|226:244|267:241,1,52.5000020027161
427,251,33279,5,2,0:0:0:0:
470,83,33573,1,2,0:0:0:0:
277,25,33867,1,8,0:0:0:0:
387,85,34162,1,2,0:0:0:0:
278,77,34456,5,2,0:0:0:0:
223,215,34750,1,0,0:0:0:0:
168,353,35044,1,0,0:0:0:0:
286,194,35485,1,0,0:0:0:0:
286,194,35632,6,0,B|341:215|341:215|376:266,1,105.000004005432,2|0,0:0|0:0,0:0:0:0:
183,179,36220,1,8,0:0:0:0:
2,104,36514,1,8,0:0:0:0:
77,289,37103,5,0,0:0:0:0:
172,312,37397,1,8,0:0:0:0:
104,382,37691,1,0,0:0:0:0:
9,358,37985,5,2,0:0:0:0:
79,136,38279,1,0,0:0:0:0:
217,195,38573,1,8,0:0:0:0:
79,136,38867,1,2,0:0:0:0:
176,143,39014,1,2,0:0:0:0:
134,56,39162,6,0,P|57:36|9:67,1,140,2|0,0:0|0:0,0:0:0:0:
176,60,39750,1,8,0:0:0:0:
176,60,39823,1,0,0:0:0:0:
176,60,39897,2,0,P|140:93|130:124,1,70,0|0,0:0|0:0,0:0:0:0:
48,281,40338,5,2,0:0:0:0:
191,146,40632,1,0,0:0:0:0:
332,185,40926,1,8,0:0:0:0:
191,146,41220,1,2,0:0:0:0:
289,139,41367,1,2,0:0:0:0:
246,227,41514,6,0,P|294:304|346:319,1,140,2|0,0:0|0:0,0:0:0:0:
287,233,42103,1,8,0:0:0:0:
287,233,42176,1,0,0:0:0:0:
287,233,42250,2,0,P|326:243|368:225,1,70
512,155,42691,5,2,0:0:0:0:
455,247,42985,1,2,0:0:0:0:
363,190,43279,1,8,0:0:0:0:
420,98,43573,1,2,0:0:0:0:
363,6,43867,5,2,0:0:0:0:
198,70,44162,1,2,0:0:0:0:
262,235,44456,1,8,0:0:0:0:
427,171,44750,1,2,0:0:0:0:
512,302,45044,5,2,0:0:0:0:
348,256,45338,1,2,0:0:0:0:
184,210,45632,1,8,0:0:0:0:
20,164,45926,1,2,0:0:0:0:
115,32,46514,5,2,0:0:0:0:
223,118,46809,1,2,0:0:0:0:
92,168,47103,1,2,0:0:0:0:
57,366,47397,5,2,0:0:0:0:
273,356,47691,1,0,0:0:0:0:
214,213,47985,1,8,0:0:0:0:
273,356,48279,1,2,0:0:0:0:
274,241,48426,1,2,0:0:0:0:
373,299,48573,6,0,B|365:224|365:224|319:178,1,140,2|0,0:0|0:0,0:0:0:0:
334,315,49162,1,8,0:0:0:0:
334,315,49235,1,0,0:0:0:0:
334,315,49309,2,0,B|347:353|347:353|379:364,1,70
512,384,49750,5,2,0:0:0:0:
415,200,50044,1,0,0:0:0:0:
262,155,50338,1,8,0:0:0:0:
415,200,50632,1,2,0:0:0:0:
311,216,50779,1,2,0:0:0:0:
349,117,50926,6,0,B|265:81|265:81|196:102,1,140,2|0,0:0|0:0,0:0:0:0:
353,153,51514,1,8,0:0:0:0:
353,153,51588,1,0,0:0:0:0:
353,153,51661,2,0,B|386:169|386:169|413:147,1,70
470,22,52103,5,2,0:0:0:0:
511,165,52397,1,2,0:0:0:0:
368,207,52691,1,8,0:0:0:0:
326,63,52985,1,2,0:0:0:0:
164,17,53279,5,2,0:0:0:0:
114,103,53573,1,0,0:0:0:0:
164,189,53867,1,0,0:0:0:0:
74,307,54309,1,0,0:0:0:0:
74,307,54456,6,0,B|136:348|136:348|216:338,1,140,2|0,0:0|0:0,0:0:0:0:
62,284,55044,1,8,0:0:0:0:
123,162,55338,2,0,P|150:82|225:187,1,280,2|0,0:0|0:0,0:0:0:0:
108,178,56220,1,8,0:0:0:0:
236,204,56514,1,0,0:0:0:0:
149,301,56809,1,4,0:0:0:0:
194,114,57103,5,0,0:0:0:0:
290,74,57397,1,0,0:0:0:0:
386,34,57691,1,4,0:0:0:0:
370,137,57985,2,0,P|342:190|386:234,1,105.000004005432,0|0,0:0|0:0,0:0:0:0:
465,277,58573,2,0,P|485:231|457:189,1,105.000004005432,8|8,0:0|0:0,0:0:0:0:
368,306,59161,6,0,B|302:355|234:263|157:317,1,210.000008010865,4|0,0:0|0:0,0:0:0:0:
9,371,60044,2,0,B|75:322|143:414|220:360,1,210.000008010865,4|0,0:0|0:0,0:0:0:0:
323,292,60926,1,8,0:0:0:0:
259,193,61220,1,8,0:0:0:0:
195,94,61514,1,4,0:0:0:0:
137,255,61809,5,0,0:0:0:0:
33,225,62103,1,8,0:0:0:0:
110,149,62397,1,4,0:0:0:0:
6,121,62691,2,0,P|-18:75|6:26,1,105.000004005432,8|8,0:0|0:0,0:0:0:0:
81,75,63279,2,0,B|114:103|150:51|198:85,1,105.000004005432,4|8,0:0|0:0,0:0:0:0:
262,31,63867,6,0,P|281:77|257:122,1,105.000004005432,4|0,0:0|0:0,0:0:0:0:
197,174,64456,1,8,0:0:0:0:
352,29,64750,2,0,P|347:144|256:213,1,210.000008010865,4|0,0:0|0:0,0:0:0:0:
367,35,65632,1,8,0:0:0:0:
468,308,66220,1,4,0:0:0:0:
355,125,66514,5,0,0:0:0:0:
259,165,66808,1,0,0:0:0:0:
163,205,67102,1,4,0:0:0:0:
259,280,67397,2,0,B|209:308|209:308|143:291,1,105.000004005432
61,243,67985,2,0,B|110:214|110:214|176:231,1,105.000004005432
281,363,68573,6,0,B|310:299|310:299|299:214|299:214|336:151,1,210.000008010865,4|0,0:0|0:0,0:0:0:0:
415,24,69456,2,0,B|386:88|386:88|397:173|397:173|360:236,1,210.000008010865,4|0,0:0|0:0,0:0:0:0:
302,316,70338,1,4,0:0:0:0:
275,154,70632,1,2,0:0:0:0:
275,154,70779,1,0,0:0:0:0:
275,154,70926,5,2,0:0:0:0:
191,184,71220,1,0,0:0:0:0:
107,214,71514,1,0,0:0:0:0:
23,244,71809,1,0,0:0:0:0:
91,302,72103,6,0,B|121:332|156:269|210:312,1,105.000004005432,2|0,0:0|0:0,0:0:0:0:
275,356,72691,2,0,B|320:328|320:328|303:265,1,105.000004005432,0|0,0:0|0:0,0:0:0:0:
278,182,73279,1,2,0:0:0:0:
256,192,73426,12,0,75632,0:0:0:0:
