osu file format v14

[General]
AudioFilename: audio.mp3
AudioLeadIn: 0
PreviewTime: 19047
Countdown: 0
SampleSet: Soft
StackLeniency: 0.7
Mode: 0
LetterboxInBreaks: 0
WidescreenStoryboard: 1

[Editor]
DistanceSpacing: 1.3
BeatDivisor: 2
GridSize: 4
TimelineZoom: 1

[Metadata]
Title:Snowdin Town
TitleUnicode:Snowdin Town
Artist:toby fox
ArtistUnicode:toby fox
Creator:Chompy
Version:Normal
Source:UNDERTALE
Tags:merry christmas xmas x-mas snow chiptune soundtrack papyrus sans -Keitaro
BeatmapID:2221381
BeatmapSetID:1060928

[Difficulty]
HPDrainRate:3
CircleSize:3.5
OverallDifficulty:4
ApproachRate:5
SliderMultiplier:0.9
SliderTickRate:1

[Events]
//Background and Video events
0,0,"snowdin.jpg",0,0
//Break Periods
//Storyboard Layer 0 (Background)
//Storyboard Layer 1 (Fail)
//Storyboard Layer 2 (Pass)
//Storyboard Layer 3 (Foreground)
//Storyboard Layer 4 (Overlay)
//Storyboard Sound Samples

[TimingPoints]
61,594.059405940594,4,2,1,50,1,0
8080,638.297872340426,4,2,1,50,1,0
8718,594.059405940594,4,2,1,50,1,0
8718,-99.02,4,2,1,50,0,0
9050,594.059405940594,4,2,1,50,1,0
9050,-99.02,4,2,1,50,0,0
9734,594.059405940594,4,2,1,50,1,0
13575,594.059405940594,4,2,1,50,1,0
13575,-99.02,4,2,1,50,0,0
14444,594.059405940594,4,2,1,50,1,0
18305,-100,4,2,1,50,0,0
19162,588.235294117647,4,2,1,60,1,0
19162,-100,4,2,1,60,0,0
56809,-100,4,3,1,60,0,0
70632,-100,4,2,1,60,0,0
73426,-100,4,2,1,25,0,0
75632,-100,4,2,1,5,0,0

[Colours]
Combo1 : 73,132,228
Combo2 : 255,255,255
Combo3 : 191,242,251
Combo4 : 190,215,252

[HitObjects]
34,53,61,6,0,L|80:101,1,45,2|0,0:0|0:0,0:0:0:0:
122,74,655,2,0,L|168:122,1,45,0|0,0:0|0:0,0:0:0:0:
209,121,1249,1,2,0:0:0:0:
435,64,2437,6,0,P|459:111|450:150,1,90,2|0,0:0|0:0,0:0:0:0:
405,181,3328,2,0,L|415:283,1,90,2|0,0:0|0:0,0:0:0:0:
460,305,4219,1,2,0:0:0:0:
349,342,4813,6,0,L|290:344,1,45,2|0,0:0|0:0,0:0:0:0:
257,307,5407,2,0,L|198:309,1,45,0|0,0:0|0:0,0:0:0:0:
166,344,6001,1,2,0:0:0:0:
24,157,7189,6,0,P|73:121|118:125,1,90,2|0,0:0|0:0,0:0:0:0:
137,160,8080,2,0,B|181:180|181:180|235:177,1,90,2|0,0:0|0:0,0:0:0:0:
289,177,9050,1,2,0:0:0:0:
409,116,9734,6,0,L|384:158,1,45,2|0,0:0|0:0,0:0:0:0:
415,205,10328,2,0,L|391:243,1,45,0|0,0:0|0:0,0:0:0:0:
417,294,10922,1,2,0:0:0:0:
217,172,12110,6,0,P|182:204|131:209,1,90,2|0,0:0|0:0,0:0:0:0:
84,224,13001,2,0,L|56:325,1,87,2|0,0:0|0:0,0:0:0:0:
13,341,13872,1,2,0:0:0:0:
118,380,14444,6,0,L|177:382,1,45,2|0,0:0|0:0,0:0:0:0:
208,344,15038,2,0,L|267:346,1,45
301,382,15632,1,2,0:0:0:0:
511,289,16820,6,0,L|490:185,1,90,2|0,0:0|0:0,0:0:0:0:
448,163,17711,1,2,0:0:0:0:
163,213,19162,6,0,P|123:232|61:232,2,90,2|8|2,0:0|0:0|0:0,0:0:0:0:
226,114,20926,2,0,L|288:125,1,45,8|0,0:0|0:0,0:0:0:0:
317,156,21514,2,0,B|356:165|356:165|418:136,2,90,2|8|2,0:0|0:0|0:0,0:0:0:0:
323,39,23279,2,0,P|301:27|266:17,1,45,8|0,0:0|0:0,0:0:0:0:
240,61,23867,6,0,L|141:88,1,90,2|8,0:0|0:0,0:0:0:0:
100,56,24750,1,2,0:0:0:0:
100,56,25044,2,0,P|82:98|78:157,1,90,2|8,0:0|0:0,0:0:0:0:
41,253,26220,2,0,B|87:233|87:233|134:239,1,90,2|8,0:0|0:0,0:0:0:0:
161,285,27103,2,0,B|207:304|207:304|254:297,1,90,2|8,0:0|0:0,0:0:0:0:
289,258,27985,1,2,0:0:0:0:
394,308,28573,6,0,P|402:252|429:205,2,90,2|8|2,0:0|0:0|0:0,0:0:0:0:
288,358,30338,2,0,L|227:347,1,45,8|0,0:0|0:0,0:0:0:0:
185,347,30926,2,0,P|206:306|207:238,2,90,2|8|2,0:0|0:0|0:0,0:0:0:0:
177,230,32691,2,0,P|202:210|230:196,1,45,8|0,0:0|0:0,0:0:0:0:
271,204,33279,6,0,P|306:153|315:88,1,90,2|8,0:0|0:0,0:0:0:0:
293,71,34162,1,2,0:0:0:0:
293,71,34456,2,0,P|348:58|394:55,1,90,2|8,0:0|0:0,0:0:0:0:
494,25,35632,2,0,L|485:146,1,90,2|8,0:0|0:0,0:0:0:0:
435,141,36514,2,0,L|444:262,1,90,2|8,0:0|0:0,0:0:0:0:
485,270,37397,1,2,0:0:0:0:
511,383,37985,6,0,P|455:377|401:346,2,90,2|8|2,0:0|0:0|0:0,0:0:0:0:
415,314,39750,2,0,L|354:328,1,45,8|0,0:0|0:0,0:0:0:0:
317,347,40338,2,0,P|286:303|277:250,2,90,2|8|2,0:0|0:0|0:0,0:0:0:0:
249,251,42103,2,0,L|182:232,1,45,8|0,0:0|0:0,0:0:0:0:
147,237,42691,6,0,P|168:181|167:124,1,90,2|8,0:0|0:0,0:0:0:0:
145,98,43573,1,2,0:0:0:0:
145,98,43867,2,0,P|199:103|248:84,1,90,2|8,0:0|0:0,0:0:0:0:
334,34,45044,6,0,B|374:65|374:65|404:129,1,90,2|8,0:0|0:0,0:0:0:0:
355,147,45926,2,0,B|357:197|357:197|392:258,1,90,2|8,0:0|0:0,0:0:0:0:
362,288,46809,1,2,0:0:0:0:
256,237,47397,6,0,P|208:224|146:227,2,90,2|8|2,0:0|0:0|0:0,0:0:0:0:
139,229,49162,2,0,L|124:279,1,45,8|0,0:0|0:0,0:0:0:0:
137,329,49750,2,0,P|82:333|35:309,2,90,2|8|2,0:0|0:0|0:0,0:0:0:0:
29,283,51514,2,0,L|37:236,1,45,8|0,0:0|0:0,0:0:0:0:
6,188,52103,6,0,P|59:178|111:133,1,90,2|8,0:0|0:0,0:0:0:0:
105,102,52985,1,2,0:0:0:0:
105,102,53279,2,0,B|153:90|153:90|214:105,1,90,2|8,0:0|0:0,0:0:0:0:
295,154,54456,2,0,P|348:137|394:93,1,90,2|8,0:0|0:0,0:0:0:0:
431,130,55338,2,0,P|425:85|434:41,1,90,2|8,0:0|0:0,0:0:0:0:
392,0,56220,1,2,0:0:0:0:
289,57,56809,6,0,P|213:54|131:105,2,135,4|4|8,0:0|0:0|0:0,0:0:0:0:
279,114,58867,1,8,0:0:0:0:
279,114,59161,2,0,B|257:182|257:182|259:266,2,135,4|4|8,0:0|0:0|0:0,0:0:0:0:
197,37,61514,6,0,L|82:28,1,90,4|0,0:0|0:0,0:0:0:0:
53,52,62397,2,0,P|58:104|38:163,1,90,4|0,0:0|0:0,0:0:0:0:
29,195,63279,2,0,L|108:177,1,45,8|8,0:0|0:0,0:0:0:0:
130,196,63867,2,0,B|118:263|118:263|135:333,2,135,4|4|8,0:0|0:0|0:0,0:0:0:0:
210,111,66220,6,0,P|283:97|363:121,2,135,4|4|8,0:0|0:0|0:0,0:0:0:0:
240,162,68279,1,8,0:0:0:0:
240,162,68573,2,0,B|277:218|277:218|285:290,2,135,4|4|8,0:0|0:0|0:0,0:0:0:0:
181,158,70632,1,0,0:0:0:0:
181,158,70926,6,0,L|179:88,1,45,2|0,0:0|0:0,0:0:0:0:
229,82,71514,2,0,L|227:12,1,45,0|0,0:0|0:0,0:0:0:0:
277,6,72103,2,0,P|323:28|360:70,1,90,2|0,0:0|0:0,0:0:0:0:
336,111,72985,1,0,0:0:0:0:
336,111,73279,5,2,0:0:0:0:
256,192,73573,12,0,75632,0:0:0:0:
