osu file format v14

[General]
AudioFilename: toby fox - UNDERTALE Soundtrack - 22 Snowdin Town.mp3
AudioLeadIn: 0
PreviewTime: 19162
Countdown: 0
SampleSet: None
StackLeniency: 0.6
Mode: 0
LetterboxInBreaks: 0
WidescreenStoryboard: 0

[Editor]
DistanceSpacing: 1.8
BeatDivisor: 4
GridSize: 4
TimelineZoom: 3.399999

[Metadata]
Title:Snowdin Town
TitleUnicode:Snowdin Town
Artist:toby fox
ArtistUnicode:toby fox
Creator:ByBy
Version:Snowy
Source:UNDERTALE
Tags:Chiptune Radiation Soundtrack Indie
BeatmapID:1163952
BeatmapSetID:549670

[Difficulty]
HPDrainRate:6
CircleSize:4
OverallDifficulty:6.5
ApproachRate:7.5
SliderMultiplier:1.6
SliderTickRate:1

[Events]
//Background and Video events
0,0,"da0.png",0,0
//Break Periods
//Storyboard Layer 0 (Background)
//Storyboard Layer 1 (Fail)
//Storyboard Layer 2 (Pass)
//Storyboard Layer 3 (Foreground)
//Storyboard Sound Samples

[TimingPoints]
61,594.059405940594,4,2,1,50,1,0
1843,-100,4,2,1,5,0,0
2140,-100,4,2,1,50,0,0
6595,-100,4,2,1,5,0,0
6892,-100,4,2,1,50,0,0
8080,638.297872340426,4,2,1,50,1,0
8717,594.059405940594,4,2,1,50,1,0
9050,594.059405940594,4,2,1,50,1,0
9734,594.059405940594,4,2,1,50,1,0
11516,-100,4,2,1,5,0,0
11813,-100,4,2,1,50,0,0
13575,594.059405940594,4,2,1,50,1,0
14444,594.059405940594,4,2,1,50,1,0
16226,-100,4,2,1,5,0,0
16523,-100,4,2,1,50,0,0
18305,-100,4,2,1,5,0,0
19162,588.235294117647,4,2,1,60,1,0
56809,-100,4,3,1,60,0,0
70926,-100,4,2,1,50,0,0
75632,-100,4,2,1,5,0,0

[Colours]
Combo1 : 255,145,91
Combo2 : 62,62,255
Combo3 : 131,65,65

[HitObjects]
113,139,61,6,0,P|117:92|144:64,1,80,2|0,0:0|0:0,0:0:0:0:
136,224,655,2,0,P|85:223|55:208,1,80,2|0,0:0|0:0,0:0:0:0:
204,177,1249,2,0,P|217:215|154:309,1,160,2|0,0:0|0:0,0:0:0:0:
286,368,2140,1,2,0:0:0:0:
286,368,2288,1,0,0:0:0:0:
286,368,2437,6,0,L|372:364,1,80,2|0,0:0|0:0,0:0:0:0:
442,271,3031,1,2,0:0:0:0:
442,271,3328,2,0,B|418:226|442:184|442:184|466:137|437:106,1,160,2|0,0:0|0:0,0:0:0:0:
340,29,4219,1,2,0:0:0:0:
340,29,4813,6,0,L|254:20,1,80,2|0,0:0|0:0,0:0:0:0:
195,132,5407,2,0,L|279:118,1,80,2|0,0:0|0:0,0:0:0:0:
147,198,6001,2,0,P|114:153|151:63,1,160,2|0,0:0|0:0,0:0:0:0:
292,81,6892,1,2,0:0:0:0:
292,81,7041,1,0,0:0:0:0:
292,81,7189,6,0,B|330:93|330:93|381:78,1,80,2|0,0:0|0:0,0:0:0:0:
488,1,7783,1,2,0:0:0:0:
488,1,8080,2,0,B|480:69|480:69|492:99|492:99|481:160,1,160,2|0,0:0|0:0,0:0:0:0:
428,309,9050,1,2,0:0:0:0:
428,309,9734,6,0,P|385:304|356:281,1,80,2|0,0:0|0:0,0:0:0:0:
299,154,10328,2,0,P|343:176|360:213,1,80,2|0,0:0|0:0,0:0:0:0:
219,190,10922,2,0,P|225:117|303:72,1,160,2|0,0:0|0:0,0:0:0:0:
273,250,11813,1,2,0:0:0:0:
273,250,11961,1,0,0:0:0:0:
273,250,12110,6,0,P|227:267|173:257,1,80,2|0,0:0|0:0,0:0:0:0:
83,206,12704,1,2,0:0:0:0:
73,60,13001,1,2,0:0:0:0:
73,60,13575,2,0,B|113:71|113:71|159:55,1,80,2|2,0:0|0:0,0:0:0:0:
149,58,14444,6,0,P|195:62|230:50,1,80,2|0,0:0|0:0,0:0:0:0:
343,137,15038,2,0,P|297:136|267:149,1,80,2|0,0:0|0:0,0:0:0:0:
155,232,15632,2,0,P|210:229|266:144,1,160,2|0,0:0|0:0,0:0:0:0:
172,38,16523,1,2,0:0:0:0:
172,38,16671,1,2,0:0:0:0:
172,38,16820,6,0,L|84:29,1,80,2|0,0:0|0:0,0:0:0:0:
18,153,17414,1,2,0:0:0:0:
18,153,17711,2,0,L|184:139,1,160,2|0,0:0|0:0,0:0:0:0:
177,139,19162,5,2,0:0:0:0:
310,234,19456,1,0,0:0:0:0:
366,73,19750,1,8,0:0:0:0:
310,234,20044,1,2,0:0:0:0:
321,313,20191,1,0,0:0:0:0:
390,351,20338,6,0,P|431:350|467:331,1,80,2|0,0:0|0:0,0:0:0:0:
481,173,20926,1,8,0:0:0:0:
481,173,21000,1,0,0:0:0:0:
481,173,21073,2,0,L|481:125,1,40
380,8,21514,5,2,0:0:0:0:
308,137,21809,1,0,0:0:0:0:
380,8,22103,1,8,0:0:0:0:
308,137,22397,1,0,0:0:0:0:
239,102,22544,1,0,0:0:0:0:
172,140,22691,6,0,B|157:180|157:180|169:220,1,80,2|0,0:0|0:0,0:0:0:0:
282,326,23279,1,8,0:0:0:0:
282,326,23353,1,0,0:0:0:0:
282,326,23426,2,0,L|327:326,1,40
442,220,23867,5,2,0:0:0:0:
315,141,24162,1,0,0:0:0:0:
459,59,24456,1,8,0:0:0:0:
442,220,24750,1,0,0:0:0:0:
226,154,25044,2,0,P|232:102|251:77,1,80,2|0,0:0|0:0,0:0:0:0:
203,238,25632,2,0,P|164:217|145:186,1,80,8|0,0:0|0:0,0:0:0:0:
259,317,26220,6,0,P|211:333|176:329,1,80,2|0,0:0|0:0,0:0:0:0:
112,218,26809,1,0,0:0:0:0:
112,218,27103,2,0,P|112:291|190:329,1,160,2|2,0:0|0:0,0:0:0:0:
299,253,27985,2,0,L|344:261,1,40,8|0,0:0|0:0,0:0:0:0:
402,337,28279,2,0,L|355:345,1,40
220,239,28573,6,0,P|250:190|273:180,1,80,2|0,0:0|0:0,0:0:0:0:
405,227,29162,1,8,0:0:0:0:
471,99,29456,1,2,0:0:0:0:
492,22,29603,1,0,0:0:0:0:
414,40,29750,6,0,L|330:30,1,80,2|0,0:0|0:0,0:0:0:0:
220,142,30338,1,8,0:0:0:0:
220,142,30412,1,0,0:0:0:0:
220,142,30485,2,0,L|264:136,1,40
136,34,30926,5,2,0:0:0:0:
303,23,31220,1,0,0:0:0:0:
121,37,31514,1,8,0:0:0:0:
303,23,31809,1,2,0:0:0:0:
382,13,31956,1,0,0:0:0:0:
461,21,32103,6,0,L|444:102,1,80,2|0,0:0|0:0,0:0:0:0:
482,254,32691,1,8,0:0:0:0:
482,254,32764,1,0,0:0:0:0:
482,254,32838,2,0,L|456:301,1,40
319,360,33279,5,2,0:0:0:0:
190,295,33573,1,0,0:0:0:0:
331,370,33867,1,8,0:0:0:0:
334,210,34162,1,0,0:0:0:0:
251,353,34456,5,2,0:0:0:0:
412,272,34750,1,0,0:0:0:0:
266,149,35044,1,8,0:0:0:0:
266,149,35485,1,0,0:0:0:0:
202,205,35632,6,0,P|149:209|114:194,1,80,2|0,0:0|0:0,0:0:0:0:
214,62,36220,1,0,0:0:0:0:
370,67,36514,2,0,B|321:73|321:73|277:57|277:57|214:62,1,160,2|2,0:0|0:0,0:0:0:0:
319,182,37397,2,0,L|398:174,1,80,8|0,0:0|0:0,0:0:0:0:
282,60,37985,5,2,0:0:0:0:
398,173,38279,1,0,0:0:0:0:
243,214,38573,1,8,0:0:0:0:
282,60,38867,1,2,0:0:0:0:
359,39,39014,1,0,0:0:0:0:
428,79,39162,6,0,L|507:67,1,80,2|0,0:0|0:0,0:0:0:0:
458,219,39750,1,8,0:0:0:0:
458,219,39823,1,0,0:0:0:0:
458,219,39897,2,0,L|406:213,1,40
295,112,40338,5,2,0:0:0:0:
438,126,40632,1,0,0:0:0:0:
365,268,40926,1,8,0:0:0:0:
295,112,41220,1,2,0:0:0:0:
333,41,41367,1,0,0:0:0:0:
410,22,41514,6,0,P|460:27|492:19,1,80,2|0,0:0|0:0,0:0:0:0:
377,136,42103,1,8,0:0:0:0:
377,136,42176,1,0,0:0:0:0:
377,136,42250,2,0,L|376:186,1,40
366,335,42691,5,2,0:0:0:0:
247,208,42985,1,0,0:0:0:0:
396,127,43279,1,8,0:0:0:0:
247,208,43573,1,0,0:0:0:0:
396,127,43867,2,0,L|412:44,1,80,2|0,0:0|0:0,0:0:0:0:
317,158,44456,2,0,L|346:239,1,80,8|0,0:0|0:0,0:0:0:0:
230,144,45044,6,0,L|257:51,1,80,2|0,0:0|0:0,0:0:0:0:
153,178,45632,1,0,0:0:0:0:
153,178,45926,2,0,P|196:217|296:203,1,160,2|2,0:0|0:0,0:0:0:0:
348,72,46809,2,0,L|401:59,1,40,8|0,0:0|0:0,0:0:0:0:
492,116,47103,2,0,L|441:103,1,40
353,160,47397,6,0,L|450:182,1,80,2|0,0:0|0:0,0:0:0:0:
501,319,47985,1,8,0:0:0:0:
501,319,48279,1,2,0:0:0:0:
426,347,48426,1,0,0:0:0:0:
350,373,48573,6,0,P|310:368|272:381,1,80,2|0,0:0|0:0,0:0:0:0:
383,264,49162,1,8,0:0:0:0:
383,264,49235,1,0,0:0:0:0:
383,264,49309,2,0,L|385:210,1,40
361,65,49750,5,2,0:0:0:0:
311,200,50044,1,0,0:0:0:0:
191,93,50338,1,8,0:0:0:0:
361,65,50632,1,0,0:0:0:0:
371,144,50779,1,0,0:0:0:0:
311,200,50926,6,0,P|281:225|241:230,1,80,2|0,0:0|0:0,0:0:0:0:
141,105,51514,1,8,0:0:0:0:
141,105,51588,1,0,0:0:0:0:
141,105,51661,2,0,L|151:164,1,40
253,265,52103,5,2,0:0:0:0:
120,321,52397,1,0,0:0:0:0:
268,262,52691,1,8,0:0:0:0:
177,159,52985,1,0,0:0:0:0:
144,315,53279,5,2,0:0:0:0:
266,180,53573,1,0,0:0:0:0:
86,141,53867,1,2,0:0:0:0:
86,141,54309,1,0,0:0:0:0:
123,73,54456,6,0,B|83:61|83:61|40:75,1,80,2|0,0:0|0:0,0:0:0:0:
47,214,55044,1,0,0:0:0:0:
170,154,55338,2,0,P|125:216|48:215,1,160,2|2,0:0|0:0,0:0:0:0:
191,284,56220,2,0,P|138:294|117:315,1,80,8|0,0:0|0:0,0:0:0:0:
252,220,56809,6,0,L|244:135,2,80,4|0|8,0:0|0:0|0:2,0:0:0:0:
347,348,57691,2,0,L|330:180,1,160,4|0,0:0|0:0,0:0:0:0:
410,50,58573,1,8,0:2:0:0:
410,50,58867,1,0,0:0:0:0:
489,188,59161,6,0,L|506:93,1,80,4|0,0:0|0:0,0:0:0:0:
418,245,59750,2,0,L|395:160,1,80,8|0,0:2|0:0,0:0:0:0:
306,331,60338,2,0,B|354:313|354:313|462:340,1,160,4|8,0:0|0:2,0:0:0:0:
459,339,61220,1,0,0:0:0:0:
412,185,61514,5,4,0:0:0:0:
253,210,61809,2,0,P|258:166|232:112,2,80,0|8|4,0:2|0:2|0:0,0:0:0:0:
149,328,62691,2,0,B|219:321|219:321|251:335|251:335|313:330,1,160,4|8,0:0|0:2,0:0:0:0:
305,330,63573,1,0,0:0:0:0:
421,219,63867,6,0,L|339:208,2,80,4|0|0,0:0|0:0|0:0,0:0:0:0:
432,76,64750,2,0,P|398:131|429:227,1,160,8|0,0:2|0:0,0:0:0:0:
505,354,65632,1,0,0:0:0:0:
505,354,66220,5,4,0:0:0:0:
355,297,66514,2,0,P|373:338|376:385,2,80,4|8|0,0:0|0:2|0:0,0:0:0:0:
216,240,67397,2,0,P|277:240|361:309,1,160,4|8,0:0|0:2,0:0:0:0:
335,154,68279,1,0,0:0:0:0:
211,80,68573,6,0,P|194:34|201:-2,1,80,4|0,0:0|0:0,0:0:0:0:
162,144,69162,2,0,P|123:137|89:109,1,80,8|0,0:2|0:0,0:0:0:0:
153,242,69750,2,0,P|201:227|299:279,1,160,4|0,0:0|0:0,0:0:0:0:
406,182,70632,1,2,0:2:0:0:
406,182,70779,1,2,0:2:0:0:
406,182,70926,6,0,B|384:238|384:238|409:361,1,160,2|0,0:0|0:0,0:0:0:0:
491,221,71809,6,0,B|488:153|488:153|506:121|506:121|501:49,1,160,2|0,0:0|0:0,0:0:0:0:
367,14,72691,1,2,0:0:0:0:
367,14,72985,1,0,0:0:0:0:
255,105,73279,5,2,0:0:0:0:
256,192,73426,12,0,75632,0:0:0:0:
