osu file format v14

[General]
AudioFilename: toby fox - UNDERTALE Soundtrack - 22 Snowdin Town.mp3
AudioLeadIn: 0
PreviewTime: 19162
Countdown: 0
SampleSet: Soft
StackLeniency: 0.5
Mode: 0
LetterboxInBreaks: 0
WidescreenStoryboard: 0

[Editor]
DistanceSpacing: 1.5
BeatDivisor: 4
GridSize: 4
TimelineZoom: 1.7

[Metadata]
Title:Snowdin Town
TitleUnicode:Snowdin Town
Artist:toby fox
ArtistUnicode:toby fox
Creator:ByBy
Version:Hard
Source:UNDERTALE
Tags:Chiptune Radiation Soundtrack Indie
BeatmapID:1163950
BeatmapSetID:549670

[Difficulty]
HPDrainRate:5
CircleSize:4.2
OverallDifficulty:5.4
ApproachRate:6.5
SliderMultiplier:1.4
SliderTickRate:1

[Events]
//Background and Video events
0,0,"da0.png",0,0
//Break Periods
//Storyboard Layer 0 (Background)
//Storyboard Layer 1 (Fail)
//Storyboard Layer 2 (Pass)
//Storyboard Layer 3 (Foreground)
//Storyboard Sound Samples

[TimingPoints]
61,594.059405940594,4,2,1,50,1,0
1843,-100,4,2,1,5,0,0
2140,-100,4,2,1,50,0,0
6595,-100,4,2,1,5,0,0
6892,-100,4,2,1,50,0,0
8080,638.297872340426,4,2,1,50,1,0
8717,594.059405940594,4,2,1,50,1,0
9050,594.059405940594,4,2,1,50,1,0
9734,594.059405940594,4,2,1,50,1,0
11516,-100,4,2,1,5,0,0
11813,-100,4,2,1,50,0,0
13575,594.059405940594,4,2,1,50,1,0
14444,594.059405940594,4,2,1,50,1,0
16226,-100,4,2,1,5,0,0
16523,-100,4,2,1,50,0,0
18305,-100,4,2,1,5,0,0
19162,588.235294117647,4,2,1,60,1,0
56809,-100,4,3,1,60,0,0
70926,-100,4,2,1,50,0,0
75632,-100,4,2,1,5,0,0

[Colours]
Combo1 : 255,145,91
Combo2 : 62,62,255
Combo3 : 131,65,65

[HitObjects]
76,289,61,6,0,L|56:213,1,70,2|0,0:0|0:0,0:0:0:0:
160,160,655,2,0,L|146:245,1,70,2|0,0:0|0:0,0:0:0:0:
87,122,1249,2,0,P|148:79|217:101,1,140,2|0,0:0|0:0,0:0:0:0:
274,190,2140,1,2,0:0:0:0:
274,190,2288,1,0,0:0:0:0:
274,190,2437,6,0,L|259:269,1,70,2|0,0:0|0:0,0:0:0:0:
332,354,3031,1,2,0:0:0:0:
332,354,3328,2,0,L|355:207,1,140,2|0,0:0|0:0,0:0:0:0:
373,98,4219,1,2,0:0:0:0:
373,98,4813,6,0,P|336:111|288:102,1,70,2|0,0:0|0:0,0:0:0:0:
198,46,5407,2,0,P|232:37|273:44,1,70,2|0,0:0|0:0,0:0:0:0:
165,115,6001,2,0,P|127:80|139:-3,1,140,2|0,0:0|0:0,0:0:0:0:
249,119,6892,1,2,0:0:0:0:
249,119,7041,1,0,0:0:0:0:
249,119,7189,6,0,P|258:165|246:205,1,70,2|0,0:0|0:0,0:0:0:0:
173,284,7783,1,2,0:0:0:0:
173,284,8080,2,0,B|232:281|232:281|257:294|257:294|312:293,1,140,2|0,0:0|0:0,0:0:0:0:
420,206,9050,1,0,0:0:0:0:
169,97,9734,6,0,L|185:29,1,70,2|0,0:0|0:0,0:0:0:0:
275,105,10328,2,0,L|296:186,1,70,2|0,0:0|0:0,0:0:0:0:
280,291,10922,2,0,P|236:269|145:305,1,140,2|0,0:0|0:0,0:0:0:0:
70,380,11813,1,2,0:0:0:0:
70,380,11961,1,0,0:0:0:0:
70,380,12110,6,0,L|-25:360,1,70,2|0,0:0|0:0,0:0:0:0:
88,274,12704,1,2,0:0:0:0:
23,165,13001,1,2,0:0:0:0:
23,165,13575,2,0,L|25:86,1,70,2|2,0:0|0:0,0:0:0:0:
24,95,14444,6,0,P|64:102|104:85,1,70,2|0,0:0|0:0,0:0:0:0:
213,60,15038,2,0,P|178:43|136:45,1,70,2|0,0:0|0:0,0:0:0:0:
208,152,15632,2,0,B|189:194|220:219|220:219|189:254|210:288,1,140,2|0,0:0|0:0,0:0:0:0:
254,368,16523,1,2,0:0:0:0:
254,368,16671,1,2,0:0:0:0:
254,368,16820,6,0,L|347:351,1,70,2|0,0:0|0:0,0:0:0:0:
413,284,17414,1,2,0:0:0:0:
413,284,17711,2,0,L|261:269,1,140,2|0,0:0|0:0,0:0:0:0:
273,270,19162,6,0,P|276:223|248:183,1,70,2|0,0:0|0:0,0:0:0:0:
197,144,19750,1,8,0:0:0:0:
262,61,20044,1,2,0:0:0:0:
262,61,20191,1,0,0:0:0:0:
262,61,20338,6,0,L|339:52,1,70,2|0,0:0|0:0,0:0:0:0:
411,121,20926,2,0,L|359:115,2,35,8|0|0,0:0|0:0|0:0,0:0:0:0:
447,219,21514,6,0,L|438:294,1,70,2|0,0:0|0:0,0:0:0:0:
462,376,22103,1,8,0:0:0:0:
366,332,22397,1,0,0:0:0:0:
366,332,22544,1,0,0:0:0:0:
366,332,22691,2,0,L|337:249,1,70,2|0,0:0|0:0,0:0:0:0:
264,195,23279,1,8,0:0:0:0:
264,195,23426,1,0,0:0:0:0:
264,195,23573,1,0,0:0:0:0:
342,125,23867,6,0,P|350:88|325:42,1,70,2|0,0:0|0:0,0:0:0:0:
376,204,24456,2,0,P|411:183|429:147,1,70,8|0,0:0|0:0,0:0:0:0:
302,223,25044,2,0,P|286:261|291:301,1,70,2|0,0:0|0:0,0:0:0:0:
273,152,25632,2,0,P|238:144|194:156,1,70,8|0,0:0|0:0,0:0:0:0:
139,232,26220,5,2,0:0:0:0:
99,329,26514,1,0,0:0:0:0:
99,329,26809,1,0,0:0:0:0:
139,232,27103,2,0,B|159:172|159:172|142:83,1,140,2|2,0:0|0:0,0:0:0:0:
50,143,27985,2,0,L|51:177,1,35,8|0,0:0|0:0,0:0:0:0:
20,220,28279,2,0,L|22:257,1,35
29,306,28573,6,0,P|63:306|111:324,1,70,2|0,0:0|0:0,0:0:0:0:
180,361,29162,1,8,0:0:0:0:
267,303,29456,1,2,0:0:0:0:
267,303,29603,1,0,0:0:0:0:
267,303,29750,2,0,P|307:319|356:315,1,70,2|0,0:0|0:0,0:0:0:0:
433,287,30338,1,8,0:0:0:0:
433,287,30485,1,0,0:0:0:0:
433,287,30632,1,0,0:0:0:0:
487,197,30926,6,0,B|495:162|495:162|469:100,1,70,2|0,0:0|0:0,0:0:0:0:
431,54,31514,1,8,0:0:0:0:
347,118,31809,1,2,0:0:0:0:
347,118,31956,1,0,0:0:0:0:
347,118,32103,6,0,L|271:103,1,70,2|0,0:0|0:0,0:0:0:0:
206,180,32691,2,0,L|251:173,2,35,8|0|0,0:0|0:0|0:0,0:0:0:0:
119,120,33279,6,0,L|213:101,1,70,2|0,0:0|0:0,0:0:0:0:
270,41,33867,2,0,L|184:24,1,70,8|0,0:0|0:0,0:0:0:0:
249,123,34456,2,0,L|343:104,1,70,2|0,0:0|0:0,0:0:0:0:
392,35,35044,1,8,0:0:0:0:
436,185,35485,1,0,0:0:0:0:
436,185,35632,6,0,B|471:179|471:179|524:191,1,70,2|0,0:0|0:0,0:0:0:0:
366,151,36220,1,0,0:0:0:0:
366,151,36514,2,0,P|360:209|427:260,1,140,2|2,0:0|0:0,0:0:0:0:
331,320,37397,2,0,P|289:328|265:345,1,70,8|0,0:0|0:0,0:0:0:0:
144,343,37985,6,0,P|174:354|201:382,1,70,2|0,0:0|0:0,0:0:0:0:
216,284,38573,1,8,0:0:0:0:
170,189,38867,1,2,0:0:0:0:
170,189,39014,1,0,0:0:0:0:
170,189,39162,6,0,B|162:111,1,70,2|0,0:0|0:0,0:0:0:0:
132,18,39750,1,8,0:0:0:0:
132,18,39897,1,0,0:0:0:0:
132,18,40044,1,0,0:0:0:0:
221,72,40338,6,0,L|308:57,1,70,2|0,0:0|0:0,0:0:0:0:
360,3,40926,1,8,0:0:0:0:
385,117,41220,1,2,0:0:0:0:
385,117,41367,1,0,0:0:0:0:
385,117,41514,6,0,L|308:132,1,70,2|0,0:0|0:0,0:0:0:0:
358,227,42103,2,0,L|412:235,2,35,8|0|0,0:0|0:0|0:0,0:0:0:0:
250,159,42691,6,0,P|246:114|275:71,1,70,2|0,0:0|0:0,0:0:0:0:
222,239,43279,2,0,P|185:217|169:166,1,70,8|0,0:0|0:0,0:0:0:0:
108,75,43867,2,0,P|143:97|159:141,1,70,2|0,0:0|0:0,0:0:0:0:
33,63,44456,2,0,P|54:20|79:7,1,70,8|0,0:0|0:0,0:0:0:0:
175,23,45044,5,2,0:0:0:0:
310,28,45338,1,0,0:0:0:0:
245,111,45632,1,0,0:0:0:0:
310,28,45926,2,0,B|355:20|355:20|403:39|403:39|466:27,1,140,2|2,0:0|0:0,0:0:0:0:
498,121,46809,2,0,L|490:177,1,35,8|0,0:0|0:0,0:0:0:0:
461,197,47103,2,0,L|468:238,1,35
469,283,47397,6,0,P|420:288|383:280,1,70,2|0,0:0|0:0,0:0:0:0:
319,241,47985,1,8,0:0:0:0:
238,308,48279,1,2,0:0:0:0:
238,308,48426,1,0,0:0:0:0:
238,308,48573,6,0,L|163:294,1,70,2|0,0:0|0:0,0:0:0:0:
118,202,49162,2,0,L|171:215,2,35,8|0|0,0:0|0:0|0:0,0:0:0:0:
209,149,49750,6,0,L|118:127,1,70,2|0,0:0|0:0,0:0:0:0:
83,62,50338,1,8,0:0:0:0:
180,22,50632,1,0,0:0:0:0:
180,21,50779,1,0,0:0:0:0:
180,21,50926,6,0,P|216:13|269:36,1,70,2|0,0:0|0:0,0:0:0:0:
333,81,51514,1,8,0:0:0:0:
333,81,51661,1,0,0:0:0:0:
333,81,51809,1,0,0:0:0:0:
303,181,52103,6,0,L|284:255,1,70,2|0,0:0|0:0,0:0:0:0:
380,308,52691,2,0,L|368:236,1,70,8|0,0:0|0:0,0:0:0:0:
466,295,53279,2,0,L|447:369,2,70,2|0|0,0:0|0:0|0:0,0:0:0:0:
351,186,54309,1,0,0:0:0:0:
351,186,54456,6,0,P|397:170|443:182,1,70
493,236,55044,1,0,0:0:0:0:
493,236,55338,2,0,P|454:204|499:131,1,140,2|2,0:0|0:0,0:0:0:0:
376,38,56220,2,0,P|400:68|404:110,1,70,8|0,0:0|0:0,0:0:0:0:
323,164,56809,6,0,P|250:186|176:167,1,140,4|8,0:0|0:2,0:0:0:0:
84,170,57691,2,0,P|127:220|136:303,1,140,4|0,0:0|0:0,0:0:0:0:
193,380,58573,2,0,P|202:336|239:306,1,70,8|0,0:2|0:0,0:0:0:0:
313,275,59161,6,0,B|354:301|354:301|448:287,2,140,4|8|4,0:0|0:2|0:0,0:0:0:0:
265,70,60926,1,8,0:2:0:0:
265,70,61514,6,0,P|269:151|272:218,1,140,4|8,0:0|0:2,0:0:0:0:
143,242,62397,2,0,P|192:210|286:215,1,140,4|0,0:0|0:0,0:0:0:0:
363,260,63279,2,0,L|350:184,1,70,8|0,0:2|0:0,0:0:0:0:
303,312,63867,6,0,B|250:292|250:292|159:309,1,140,4|0,0:0|0:0,0:0:0:0:
72,351,64750,1,8,0:2:0:0:
72,351,65338,2,0,L|66:275,2,70,4|8|0,0:0|0:2|0:0,0:0:0:0:
144,274,66220,6,0,P|147:238|91:145,1,140,4|8,0:0|0:2,0:0:0:0:
117,46,67103,2,0,B|165:73|165:73|267:59,1,140,4|8,0:0|0:2,0:0:0:0:
344,105,67985,2,0,P|363:68|393:46,1,70,4|8,0:0|0:2,0:0:0:0:
452,130,68573,6,0,P|428:90|433:-7,2,140,4|8|4,0:0|0:2|0:0,0:0:0:0:
323,296,70338,1,8,0:2:0:0:
228,249,70632,1,2,0:2:0:0:
228,249,70779,1,2,0:2:0:0:
228,249,70926,6,0,P|212:205|241:107,1,140,2|0,0:0|0:0,0:0:0:0:
358,138,71809,2,0,P|352:200|285:168,1,140,2|0,0:0|0:0,0:0:0:0:
293,292,72691,2,0,P|331:311|356:343,1,70,2|0,0:0|0:0,0:0:0:0:
440,280,73279,5,2,0:0:0:0:
256,192,73426,12,0,75632,0:0:0:0:
