osu file format v14

[General]
AudioFilename: toby fox - UNDERTALE Soundtrack - 22 Snowdin Town.mp3
AudioLeadIn: 0
PreviewTime: 19162
Countdown: 0
SampleSet: Soft
StackLeniency: 0.7
Mode: 0
LetterboxInBreaks: 0
WidescreenStoryboard: 0

[Editor]
DistanceSpacing: 1
BeatDivisor: 2
GridSize: 4
TimelineZoom: 1.7

[Metadata]
Title:Snowdin Town
TitleUnicode:Snowdin Town
Artist:toby fox
ArtistUnicode:toby fox
Creator:ByBy
Version:Easy
Source:UNDERTALE
Tags:Chiptune Radiation Soundtrack Indie
BeatmapID:1163949
BeatmapSetID:549670

[Difficulty]
HPDrainRate:2
CircleSize:3
OverallDifficulty:2
ApproachRate:3
SliderMultiplier:0.9
SliderTickRate:1

[Events]
//Background and Video events
0,0,"da0.png",0,0
//Break Periods
//Storyboard Layer 0 (Background)
//Storyboard Layer 1 (Fail)
//Storyboard Layer 2 (Pass)
//Storyboard Layer 3 (Foreground)
//Storyboard Sound Samples

[TimingPoints]
61,594.059405940594,4,2,1,50,1,0
8080,638.297872340426,4,2,1,50,1,0
8717,594.059405940594,4,2,1,50,1,0
9050,594.059405940594,4,2,1,50,1,0
9734,594.059405940594,4,2,1,50,1,0
13575,594.059405940594,4,2,1,50,1,0
14444,594.059405940594,4,2,1,50,1,0
19162,588.235294117647,4,2,1,60,1,0
56809,-100,4,3,1,60,0,0
70926,-100,4,2,1,50,0,0
75632,-100,4,2,1,5,0,0

[Colours]
Combo1 : 255,145,91
Combo2 : 62,62,255
Combo3 : 131,65,65

[HitObjects]
352,332,61,6,0,P|392:334|441:295,2,90,2|2|2,0:0|0:0|0:0,0:0:0:0:
231,198,2437,2,0,B|188:187|188:187|138:192|138:192|92:183,2,135,2|2|2,0:0|0:0|0:0,0:0:0:0:
309,153,4813,6,0,B|319:110|319:110|305:55,2,90,2|2|2,0:0|0:0|0:0,0:0:0:0:
350,328,7189,2,0,P|407:329|441:309,1,90,2|2,0:0|0:0,0:0:0:0:
460,277,8080,2,0,L|461:186,1,90,2|2,0:0|0:0,0:0:0:0:
383,57,9734,6,0,B|336:69|336:69|288:55,2,90,2|2|2,0:0|0:0|0:0,0:0:0:0:
411,234,12110,2,0,P|346:218|282:237,1,135,2|2,0:0|0:0,0:0:0:0:
240,316,13575,2,0,L|248:371,1,45,2|2,0:0|0:0,0:0:0:0:
162,363,14444,6,0,P|146:321|161:269,2,90,2|2|2,0:0|0:0|0:0,0:0:0:0:
255,209,16820,2,0,P|276:152|237:70,1,135,2|2,0:0|0:0,0:0:0:0:
420,228,19162,6,0,B|404:277|404:277|405:329,2,90,2|8|2,0:0|0:0|0:0,0:0:0:0:
455,145,20926,1,8,0:0:0:0:
396,76,21514,2,0,P|351:69|301:94,1,90,2|8,0:0|0:0,0:0:0:0:
251,155,22691,2,0,P|206:162|156:137,1,90,2|8,0:0|0:0,0:0:0:0:
84,185,23867,6,0,B|103:240|103:240|85:327,1,135,2|2,0:0|0:0,0:0:0:0:
116,350,25044,2,0,P|160:356|216:342,1,90,2|8,0:0|0:0,0:0:0:0:
225,259,26220,2,0,P|251:195|314:167,1,135,2|2,0:0|0:0,0:0:0:0:
322,256,27691,2,0,P|353:255|384:258,1,45,2|8,0:0|0:0,0:0:0:0:
450,288,28573,6,0,P|436:343|443:377,2,90,2|8|2,0:0|0:0|0:0,0:0:0:0:
500,210,30338,1,8,0:0:0:0:
461,128,30926,2,0,P|456:73|474:39,2,90,2|8|2,0:0|0:0|0:0,0:0:0:0:
500,210,32691,1,8,0:0:0:0:
423,257,33279,6,0,B|376:268|376:268|329:257|329:257|279:265,1,135,2|2,0:0|0:0,0:0:0:0:
247,274,34456,2,0,P|246:207|234:188,1,90,2|8,0:0|0:0,0:0:0:0:
166,245,35632,2,0,P|136:271|44:273,1,135,2|2,0:0|0:0,0:0:0:0:
19,186,37103,2,0,L|76:183,1,45,2|8,0:0|0:0,0:0:0:0:
122,114,37985,6,0,P|119:58|141:27,1,90,2|8,0:0|0:0,0:0:0:0:
226,33,39162,2,0,P|246:72|240:115,1,90,2|8,0:0|0:0,0:0:0:0:
158,151,40338,2,0,B|113:155|113:155|56:132,2,90,2|8|2,0:0|0:0|0:0,0:0:0:0:
240,115,42103,1,8,0:0:0:0:
311,60,42691,6,0,B|360:60|360:60|399:80|399:80|456:82,1,135,2|2,0:0|0:0,0:0:0:0:
462,121,43867,2,0,P|432:168|393:188,1,90,2|8,0:0|0:0,0:0:0:0:
313,174,45044,2,0,L|316:317,1,135,2|2,0:0|0:0,0:0:0:0:
389,360,46514,2,0,L|438:361,1,45,2|8,0:0|0:0,0:0:0:0:
421,271,47397,6,0,P|460:258|511:270,1,90,2|8,0:0|0:0,0:0:0:0:
467,341,48573,2,0,P|424:353|380:343,1,90,2|8,0:0|0:0,0:0:0:0:
339,262,49750,2,0,B|347:216|347:216|331:166,2,90,2|8|2,0:0|0:0|0:0,0:0:0:0:
257,224,51514,1,8,0:0:0:0:
196,291,52103,6,0,P|135:307|69:275,1,135,2|2,0:0|0:0,0:0:0:0:
66,233,53279,2,0,P|98:202|146:190,1,90,2|8,0:0|0:0,0:0:0:0:
230,181,54456,2,0,B|248:137|248:137|220:48,1,135,2|2,0:0|0:0,0:0:0:0:
134,32,55926,2,0,P|102:31|78:32,1,45,2|8,0:0|0:0,0:0:0:0:
68,118,56809,6,0,P|86:153|154:113,2,135,4|4|8,0:0|0:0|2:0,0:0:0:0:
3,181,59161,2,0,P|18:222|8:265,1,90,4|2,0:0|2:0,0:0:0:0:
52,344,60338,2,0,L|159:341,1,90,4|8,3:0|2:0,0:0:0:0:
195,270,61514,6,0,B|206:193|206:193|178:143,2,135,4|4|8,0:0|0:0|2:0,0:0:0:0:
282,244,63867,2,0,L|262:390,1,135,4|0,0:0|0:0,0:0:0:0:
352,362,65338,2,0,L|359:306,1,45,4|8,3:0|2:0,0:0:0:0:
362,227,66220,6,0,B|352:182|369:155|369:155|385:126|367:86,2,135,4|4|8,0:0|0:0|2:0,0:0:0:0:
279,263,68573,2,0,P|234:254|182:270,1,90,4|2,3:0|2:0,0:0:0:0:
120,319,69750,2,0,P|65:328|20:318,1,90,4|8,3:0|2:0,0:0:0:0:
28,232,70926,6,0,P|72:242|116:232,2,90,2|0|2,0:0|2:0|0:0,0:0:0:0:
0,145,72691,1,2,0:0:0:0:
256,192,73279,12,0,75632,0:0:0:0:
