osu file format v14

[General]
AudioFilename: toby fox - UNDERTALE Soundtrack - 22 Snowdin Town.mp3
AudioLeadIn: 0
PreviewTime: 19162
Countdown: 0
SampleSet: None
StackLeniency: 0.7
Mode: 0
LetterboxInBreaks: 0
WidescreenStoryboard: 0

[Editor]
DistanceSpacing: 1.1
BeatDivisor: 4
GridSize: 4
TimelineZoom: 3.399999

[Metadata]
Title:Snowdin Town
TitleUnicode:Snowdin Town
Artist:toby fox
ArtistUnicode:toby fox
Creator:ByBy
Version:Normal
Source:UNDERTALE
Tags:Chiptune Radiation Soundtrack Indie
BeatmapID:1163951
BeatmapSetID:549670

[Difficulty]
HPDrainRate:4
CircleSize:3.5
OverallDifficulty:3.5
ApproachRate:4.5
SliderMultiplier:1.1
SliderTickRate:1

[Events]
//Background and Video events
0,0,"da0.png",0,0
//Break Periods
//Storyboard Layer 0 (Background)
//Storyboard Layer 1 (Fail)
//Storyboard Layer 2 (Pass)
//Storyboard Layer 3 (Foreground)
//Storyboard Sound Samples

[TimingPoints]
61,594.059405940594,4,2,1,50,1,0
8080,638.297872340426,4,2,1,50,1,0
8717,594.059405940594,4,2,1,50,1,0
9050,594.059405940594,4,2,1,50,1,0
9734,594.059405940594,4,2,1,50,1,0
13575,594.059405940594,4,2,1,50,1,0
14444,594.059405940594,4,2,1,50,1,0
19162,588.235294117647,4,2,1,60,1,0
56809,-100,4,3,1,60,0,0
70926,-100,4,2,1,50,0,0
75632,-100,4,2,1,5,0,0

[Colours]
Combo1 : 255,145,91
Combo2 : 62,62,255
Combo3 : 131,65,65

[HitObjects]
101,329,61,6,0,P|134:333|177:317,1,55,2|0,0:0|0:0,0:0:0:0:
206,297,655,2,0,P|246:291|279:301,1,55,2|0,0:0|0:0,0:0:0:0:
315,317,1249,1,2,0:0:0:0:
413,96,2140,1,2,0:0:0:0:
413,96,2437,6,0,P|363:101|286:18,1,165,2|2,0:0|0:0,0:0:0:0:
203,112,3922,2,0,P|239:129|257:148,1,55,2|2,0:0|0:0,0:0:0:0:
366,170,4813,6,0,P|359:211|364:236,2,55,2|0|2,0:0|0:0|0:0,0:0:0:0:
379,111,5704,1,0,0:0:0:0:
435,131,6001,1,2,0:0:0:0:
279,316,6892,1,2,0:0:0:0:
279,316,7189,6,0,B|228:301|228:301|168:309|168:309|113:294,1,165,2|2,0:0|0:0,0:0:0:0:
23,205,8717,2,0,L|20:138,1,61.875,2|0,0:0|0:0,0:0:0:0:
126,53,9734,6,0,P|181:55|200:44,1,55,2|0,0:0|0:0,0:0:0:0:
227,92,10328,2,0,P|221:128|231:156,1,55,2|0,0:0|0:0,0:0:0:0:
252,198,10922,1,2,0:0:0:0:
450,336,11813,1,2,0:0:0:0:
450,336,12110,6,0,P|423:283|485:203,1,165,2|2,0:0|0:0,0:0:0:0:
408,110,13575,2,0,P|379:115|343:104,1,55,2|2,0:0|0:0,0:0:0:0:
256,45,14444,6,0,P|213:41|185:49,2,55,2|0|2,0:0|0:0|0:0,0:0:0:0:
310,71,15335,1,0,0:0:0:0:
282,124,15632,1,2,0:0:0:0:
141,321,16523,1,2,0:0:0:0:
141,321,16820,6,0,P|85:302|25:328,1,110,2|2,0:0|0:0,0:0:0:0:
2,365,17711,1,2,0:0:0:0:
176,123,19162,6,0,L|245:128,1,55,2|0,0:0|0:0,0:0:0:0:
285,101,19750,2,0,L|353:96,1,55,8|0,0:0|0:0,0:0:0:0:
393,124,20338,2,0,P|373:173|391:234,1,110,2|8,0:0|0:0,0:0:0:0:
331,334,21514,2,0,L|270:329,1,55,2|0,0:0|0:0,0:0:0:0:
239,280,22103,2,0,L|180:274,1,55,8|0,0:0|0:0,0:0:0:0:
135,238,22691,2,0,P|123:182|156:132,1,110,2|8,0:0|0:0,0:0:0:0:
261,98,23867,6,0,B|316:115|316:115|374:97,1,110,2|8,0:0|0:0,0:0:0:0:
416,66,24750,1,0,0:0:0:0:
447,117,25044,2,0,P|454:149|443:183,1,55,2|0,0:0|0:0,0:0:0:0:
404,211,25632,2,0,P|395:242|405:277,1,55,8|0,0:0|0:0,0:0:0:0:
387,323,26220,6,0,L|268:318,1,110,2|2,0:0|0:0,0:0:0:0:
230,279,27103,2,0,P|170:267|121:291,1,110,2|2,0:0|0:0,0:0:0:0:
85,330,27985,1,8,0:0:0:0:
38,218,28573,6,0,B|48:173|48:173|28:104,1,110,2|8,0:0|0:0,0:0:0:0:
10,54,29456,1,2,0:0:0:0:
66,33,29750,2,0,L|196:27,1,110,2|8,0:0|0:0,0:0:0:0:
282,86,30926,6,0,P|311:65|382:53,1,110,2|8,0:0|0:0,0:0:0:0:
441,69,31809,1,2,0:0:0:0:
476,117,32103,2,0,L|461:239,1,110,2|8,0:0|0:0,0:0:0:0:
442,316,33279,6,0,P|403:296|323:315,1,110,2|8,0:0|0:0,0:0:0:0:
284,331,34162,1,2,0:0:0:0:
238,371,34456,2,0,P|175:369|127:338,1,110,2|8,0:0|0:0,0:0:0:0:
178,233,35632,6,0,B|132:247|100:233|100:233|63:222|10:238,1,165,2|2,0:0|0:0,0:0:0:0:
66,126,37103,2,0,P|67:88|53:54,2,55,2|8|0,0:0|0:0|0:0,0:0:0:0:
122,147,37985,6,0,L|199:154,1,55,2|0,0:0|0:0,0:0:0:0:
224,182,38573,2,0,L|304:177,1,55,8|0,0:0|0:0,0:0:0:0:
334,154,39162,2,0,B|342:111|342:111|333:78|333:78|338:24,1,110,2|8,0:0|0:0,0:0:0:0:
223,90,40338,2,0,B|197:96|197:96|149:88,1,55,2|0,0:0|0:0,0:0:0:0:
124,50,40926,2,0,B|96:45|96:45|69:50,1,55,8|0,0:0|0:0,0:0:0:0:
39,101,41514,2,0,L|46:220,1,110,2|8,0:0|0:0,0:0:0:0:
137,289,42691,6,0,P|188:289|232:334,1,110,2|8,0:0|0:0,0:0:0:0:
281,358,43573,1,2,0:0:0:0:
341,361,43867,2,0,L|410:350,1,55,2|0,0:0|0:0,0:0:0:0:
442,313,44456,2,0,L|383:291,1,55,8|0,0:0|0:0,0:0:0:0:
360,241,45044,6,0,B|318:228|318:228|285:236|285:236|236:218,1,110,2|2,0:0|0:0,0:0:0:0:
209,184,45926,2,0,P|149:184|109:141,1,110,2|2,0:0|0:0,0:0:0:0:
91,95,46809,1,8,0:0:0:0:
27,198,47397,6,0,B|38:236|18:255|18:255|40:288|22:319,1,110,2|8,0:0|0:0,0:0:0:0:
32,361,48279,1,0,0:0:0:0:
91,373,48573,2,0,P|128:370|184:325,1,110,2|8,0:0|0:0,0:0:0:0:
267,238,49750,6,0,L|387:232,1,110,2|8,0:0|0:0,0:0:0:0:
428,264,50632,1,0,0:0:0:0:
473,224,50926,2,0,B|481:182|481:182|461:109,1,110,2|8,0:0|0:0,0:0:0:0:
365,46,52103,6,0,P|312:67|243:49,1,110,2|8,0:0|0:0,0:0:0:0:
214,20,52985,1,2,0:0:0:0:
170,62,53279,2,0,L|46:59,1,110,2|8,0:0|0:0,0:0:0:0:
17,172,54456,6,0,B|3:226|3:226|17:277|17:277|5:338,1,165,2|2,0:0|0:0,0:0:0:0:
119,290,55926,2,0,L|124:235,2,55,2|8|0,0:0|0:0|0:0,0:0:0:0:
169,323,56809,6,0,P|222:334|284:298,1,110,4|8,0:0|2:0,0:0:0:0:
282,252,57691,2,0,P|336:254|390:200,1,110,4|0,0:0|0:0,0:0:0:0:
419,176,58573,2,0,P|412:215|422:242,1,55,8|0,2:0|0:0,0:0:0:0:
463,265,59161,2,0,P|450:307|466:380,2,110,4|8|4,0:0|2:0|0:0,0:0:0:0:
509,152,60926,1,8,2:0:0:0:
395,109,61514,6,0,B|381:76|402:44|402:44|362:16,1,110,4|8,0:0|2:0,0:0:0:0:
310,39,62397,2,0,P|249:29|196:53,1,110,4|0,0:0|0:0,0:0:0:0:
210,106,63279,2,0,L|138:100,1,55,8|0,2:0|0:0,0:0:0:0:
96,87,63867,2,0,P|146:132|78:189,2,165,4|8|0,0:0|2:0|0:0,0:0:0:0:
10,170,66220,6,0,B|-1:213|-1:213|11:299,1,110,4|8,0:0|2:0,0:0:0:0:
41,328,67103,2,0,B|83:335|83:335|113:329|113:329|169:337,1,110,4|0,0:0|0:0,0:0:0:0:
204,309,67985,2,0,L|282:307,1,55,8|0,2:0|0:0,0:0:0:0:
312,332,68573,2,0,P|300:290|355:235,2,110,4|8|4,0:0|2:0|0:0,0:0:0:0:
424,376,70338,1,8,2:0:0:0:
477,267,70926,6,0,P|467:225|506:168,1,110,2|0,0:0|0:0,0:0:0:0:
456,129,71809,2,0,P|445:68|476:20,1,110,2|0,0:0|0:0,0:0:0:0:
406,29,72691,2,0,P|372:35|332:20,1,55,2|0,0:0|0:0,0:0:0:0:
294,14,73279,5,2,0:0:0:0:
256,192,73426,12,0,75632,0:0:0:0:
