osu file format v14

[General]
AudioFilename: audio.mp3
AudioLeadIn: 0
PreviewTime: 37985
Countdown: 0
SampleSet: Normal
StackLeniency: 0.7
Mode: 1
LetterboxInBreaks: 0
WidescreenStoryboard: 0

[Editor]
DistanceSpacing: 1.8
BeatDivisor: 4
GridSize: 4
TimelineZoom: 1.4

[Metadata]
Title:Snowdin Town
TitleUnicode:Snowdin Town
Artist:toby fox
ArtistUnicode:toby fox
Creator:-Tenshi-
Version:Oni
Source:UNDERTALE
Tags:rpg indie christmas xmas x-mas game ost original soundtrack winter pc
BeatmapID:1467705
BeatmapSetID:693679

[Difficulty]
HPDrainRate:5
CircleSize:2
OverallDifficulty:5.5
ApproachRate:5
SliderMultiplier:1.4
SliderTickRate:1

[Events]
//Background and Video events
0,0,"bg.png",0,0
//Break Periods
//Storyboard Layer 0 (Background)
//Storyboard Layer 1 (Fail)
//Storyboard Layer 2 (Pass)
//Storyboard Layer 3 (Foreground)
//Storyboard Sound Samples

[TimingPoints]
61,594.059405940594,4,1,0,60,1,0
8080,638.297872340426,4,1,0,60,1,8
8080,-93.4579439252336,4,1,0,60,0,0
8717,594.059405940594,4,1,0,60,1,8
9050,594.059405940594,4,1,0,60,1,8
9734,594.059405940594,4,1,0,60,1,0
13575,594.059405940594,4,1,0,60,1,8
14444,594.059405940594,4,1,0,60,1,0
19162,588.235294117647,4,1,0,60,1,0
56809,-100,4,1,0,60,0,1
70632,-100,4,1,0,60,0,0

[HitObjects]
388,152,61,5,8,0:0:0:0:
132,144,358,1,0,0:0:0:0:
184,136,655,1,8,0:0:0:0:
196,112,952,1,0,0:0:0:0:
196,112,1249,1,8,0:0:0:0:
164,112,2140,1,0,0:0:0:0:
164,112,2288,1,0,0:0:0:0:
164,112,2437,1,8,0:0:0:0:
152,148,2734,1,0,0:0:0:0:
184,84,3031,1,8,0:0:0:0:
88,80,3328,1,0,0:0:0:0:
132,72,3922,1,0,0:0:0:0:
136,140,4219,1,8,0:0:0:0:
108,76,4813,1,0,0:0:0:0:
116,112,5110,1,8,0:0:0:0:
176,84,5407,1,0,0:0:0:0:
116,112,5704,1,8,0:0:0:0:
116,112,6001,1,0,0:0:0:0:
212,116,6892,1,8,0:0:0:0:
212,116,7041,1,8,0:0:0:0:
212,116,7189,1,0,0:0:0:0:
160,80,7486,1,8,0:0:0:0:
160,80,7783,1,0,0:0:0:0:
40,120,8080,1,8,0:0:0:0:
184,128,8717,1,8,0:0:0:0:
184,128,9050,1,0,0:0:0:0:
164,128,9734,1,8,0:0:0:0:
220,96,10031,1,8,0:0:0:0:
220,96,10328,1,0,0:0:0:0:
220,96,10625,1,0,0:0:0:0:
116,80,10922,1,8,0:0:0:0:
172,88,11813,1,0,0:0:0:0:
172,88,11961,1,8,0:0:0:0:
172,88,12110,1,0,0:0:0:0:
180,64,12407,1,8,0:0:0:0:
164,72,12704,1,0,0:0:0:0:
164,72,13001,1,8,0:0:0:0:
248,148,13575,1,0,0:0:0:0:
248,148,13872,1,8,0:0:0:0:
240,116,14444,1,0,0:0:0:0:
240,116,14741,1,0,0:0:0:0:
240,116,15038,1,8,0:0:0:0:
240,116,15335,1,8,0:0:0:0:
240,116,15632,1,0,0:0:0:0:
236,100,16523,1,8,0:0:0:0:
236,100,16671,1,0,0:0:0:0:
236,100,16820,1,8,0:0:0:0:
236,100,17117,1,0,0:0:0:0:
236,100,17414,1,8,0:0:0:0:
236,100,17711,1,0,0:0:0:0:
280,176,19162,1,8,0:0:0:0:
192,112,19456,1,0,0:0:0:0:
192,112,19750,1,0,0:0:0:0:
160,80,20044,1,0,0:0:0:0:
160,80,20191,1,0,0:0:0:0:
160,80,20338,1,8,0:0:0:0:
248,128,20632,1,8,0:0:0:0:
196,68,20926,1,0,0:0:0:0:
100,104,21000,1,0,0:0:0:0:
100,104,21073,1,0,0:0:0:0:
140,96,21220,1,0,0:0:0:0:
168,80,21514,1,8,0:0:0:0:
212,152,21809,1,0,0:0:0:0:
144,156,22103,1,0,0:0:0:0:
172,88,22397,1,8,0:0:0:0:
172,88,22544,1,8,0:0:0:0:
112,84,22691,1,0,0:0:0:0:
156,168,22985,1,0,0:0:0:0:
152,144,23279,1,8,0:0:0:0:
208,72,23353,1,8,0:0:0:0:
208,72,23426,1,8,0:0:0:0:
208,72,23573,1,8,0:0:0:0:
116,96,23867,1,8,0:0:0:0:
176,152,24162,1,0,0:0:0:0:
120,140,24456,1,0,0:0:0:0:
164,100,24750,1,8,0:0:0:0:
164,100,25044,1,8,0:0:0:0:
132,64,25338,1,0,0:0:0:0:
132,64,25632,1,8,0:0:0:0:
160,128,25926,1,8,0:0:0:0:
104,96,26220,1,8,0:0:0:0:
204,92,26514,1,0,0:0:0:0:
204,92,26809,1,0,0:0:0:0:
204,92,27103,1,8,0:0:0:0:
160,80,27691,1,8,0:0:0:0:
160,80,27985,1,0,0:0:0:0:
160,80,28279,1,0,0:0:0:0:
160,48,28573,1,8,0:0:0:0:
184,172,28867,1,0,0:0:0:0:
180,152,29162,1,0,0:0:0:0:
160,156,29456,1,0,0:0:0:0:
160,156,29603,1,8,0:0:0:0:
164,92,29750,1,0,0:0:0:0:
156,120,30044,1,0,0:0:0:0:
116,140,30338,1,0,0:0:0:0:
116,140,30412,1,0,0:0:0:0:
116,140,30485,1,0,0:0:0:0:
116,140,30632,1,0,0:0:0:0:
180,120,30926,1,8,0:0:0:0:
208,92,31220,1,0,0:0:0:0:
208,92,31514,1,0,0:0:0:0:
212,72,31809,1,8,0:0:0:0:
212,72,31956,1,0,0:0:0:0:
212,72,32103,1,8,0:0:0:0:
108,172,32397,1,8,0:0:0:0:
148,136,32691,1,8,0:0:0:0:
148,136,32764,1,8,0:0:0:0:
148,136,32838,1,8,0:0:0:0:
148,136,32985,1,8,0:0:0:0:
100,104,33279,1,8,0:0:0:0:
176,80,33573,1,0,0:0:0:0:
176,80,33867,1,0,0:0:0:0:
144,132,34162,1,8,0:0:0:0:
144,132,34456,1,8,0:0:0:0:
184,72,34750,1,0,0:0:0:0:
184,76,35044,1,8,0:0:0:0:
80,144,35485,1,8,0:0:0:0:
80,144,35632,1,8,0:0:0:0:
164,104,35926,1,0,0:0:0:0:
176,124,36220,1,0,0:0:0:0:
172,80,36514,1,8,0:0:0:0:
116,136,37103,1,8,0:0:0:0:
116,136,37397,1,0,0:0:0:0:
172,136,37691,1,0,0:0:0:0:
172,136,37985,1,8,0:0:0:0:
160,96,38279,1,0,0:0:0:0:
160,96,38573,1,8,0:0:0:0:
176,48,38867,1,8,0:0:0:0:
104,76,39014,1,8,0:0:0:0:
104,76,39162,1,0,0:0:0:0:
116,168,39456,1,0,0:0:0:0:
216,108,39750,1,0,0:0:0:0:
216,80,39823,1,0,0:0:0:0:
216,80,39897,1,0,0:0:0:0:
216,80,40044,1,8,0:0:0:0:
176,108,40338,1,8,0:0:0:0:
140,108,40632,1,0,0:0:0:0:
140,108,40926,1,8,0:0:0:0:
216,164,41220,1,0,0:0:0:0:
216,164,41367,1,0,0:0:0:0:
216,164,41514,1,8,0:0:0:0:
168,88,41809,1,8,0:0:0:0:
100,88,42103,1,8,0:0:0:0:
100,88,42176,1,8,0:0:0:0:
104,120,42250,1,8,0:0:0:0:
104,120,42397,1,0,0:0:0:0:
168,88,42691,1,8,0:0:0:0:
208,92,42985,1,0,0:0:0:0:
208,92,43279,1,0,0:0:0:0:
152,76,43573,1,8,0:0:0:0:
184,100,43867,1,8,0:0:0:0:
76,88,44162,1,0,0:0:0:0:
120,104,44456,1,8,0:0:0:0:
172,68,44750,1,8,0:0:0:0:
172,68,45044,1,8,0:0:0:0:
124,100,45338,1,0,0:0:0:0:
124,100,45632,1,0,0:0:0:0:
124,100,45926,1,8,0:0:0:0:
144,68,46514,1,8,0:0:0:0:
200,88,46809,1,0,0:0:0:0:
200,88,47103,1,0,0:0:0:0:
200,88,47397,1,8,0:0:0:0:
376,112,47691,1,0,0:0:0:0:
148,248,47985,1,8,0:0:0:0:
132,80,48279,1,8,0:0:0:0:
132,80,48426,1,0,0:0:0:0:
132,80,48573,1,8,0:0:0:0:
180,88,48867,1,8,0:0:0:0:
100,128,49161,1,0,0:0:0:0:
100,128,49235,1,0,0:0:0:0:
100,128,49309,1,0,0:0:0:0:
100,128,49456,1,8,0:0:0:0:
140,116,49750,1,8,0:0:0:0:
204,104,50044,1,0,0:0:0:0:
204,104,50338,1,8,0:0:0:0:
124,92,50632,1,0,0:0:0:0:
124,92,50779,1,8,0:0:0:0:
124,92,50926,1,0,0:0:0:0:
136,228,51220,1,0,0:0:0:0:
196,112,51514,1,8,0:0:0:0:
116,96,51588,1,8,0:0:0:0:
116,96,51661,1,8,0:0:0:0:
116,96,51809,1,0,0:0:0:0:
192,112,52103,1,8,0:0:0:0:
164,100,52397,1,0,0:0:0:0:
164,100,52691,1,0,0:0:0:0:
164,100,52985,1,8,0:0:0:0:
164,100,53279,1,8,0:0:0:0:
44,96,53573,1,0,0:0:0:0:
44,96,53867,1,8,0:0:0:0:
192,112,54309,1,8,0:0:0:0:
192,112,54456,1,8,0:0:0:0:
208,148,54750,1,0,0:0:0:0:
208,148,55044,1,0,0:0:0:0:
208,148,55338,1,8,0:0:0:0:
208,112,55926,1,8,0:0:0:0:
208,112,56220,1,0,0:0:0:0:
208,112,56514,1,0,0:0:0:0:
136,140,56809,1,0,0:0:0:0:
152,60,57103,1,8,0:0:0:0:
152,100,57397,1,8,0:0:0:0:
100,92,57691,1,0,0:0:0:0:
136,96,57985,1,8,0:0:0:0:
188,100,58279,1,8,0:0:0:0:
136,136,58573,1,0,0:0:0:0:
192,104,58867,1,8,0:0:0:0:
192,104,59161,1,0,0:0:0:0:
212,56,59750,1,8,0:0:0:0:
212,56,60338,1,0,0:0:0:0:
212,56,61514,1,0,0:0:0:0:
212,56,61809,1,8,0:0:0:0:
212,56,62103,1,8,0:0:0:0:
212,56,62397,1,0,0:0:0:0:
212,56,62691,1,8,0:0:0:0:
212,56,62985,1,8,0:0:0:0:
212,56,63279,1,0,0:0:0:0:
212,56,63573,1,8,0:0:0:0:
212,56,63867,1,0,0:0:0:0:
212,56,64161,1,8,0:0:0:0:
212,56,64456,1,8,0:0:0:0:
212,56,64750,1,0,0:0:0:0:
212,56,65338,1,0,0:0:0:0:
212,56,65632,1,0,0:0:0:0:
212,56,66220,1,0,0:0:0:0:
200,68,66514,1,8,0:0:0:0:
200,68,66809,1,8,0:0:0:0:
200,68,67103,1,0,0:0:0:0:
200,68,67397,1,8,0:0:0:0:
224,76,67691,1,8,0:0:0:0:
224,76,67985,1,0,0:0:0:0:
224,76,68279,1,8,0:0:0:0:
224,76,68573,1,0,0:0:0:0:
224,76,69162,1,8,0:0:0:0:
224,76,69750,1,0,0:0:0:0:
172,48,70632,1,0,0:0:0:0:
172,48,70779,1,0,0:0:0:0:
196,84,70926,1,8,0:0:0:0:
136,120,71220,1,8,0:0:0:0:
136,120,71514,1,8,0:0:0:0:
172,48,71809,1,8,0:0:0:0:
172,48,72103,1,8,0:0:0:0:
172,48,72397,1,0,0:0:0:0:
172,48,72691,1,8,0:0:0:0:
96,100,72985,1,0,0:0:0:0:
168,104,73279,1,8,0:0:0:0:
