osu file format v14

[General]
AudioFilename: audio.mp3
AudioLeadIn: 0
PreviewTime: 37985
Countdown: 0
SampleSet: Normal
StackLeniency: 0.7
Mode: 1
LetterboxInBreaks: 0
WidescreenStoryboard: 0

[Editor]
DistanceSpacing: 1.8
BeatDivisor: 4
GridSize: 4
TimelineZoom: 1

[Metadata]
Title:Snowdin Town
TitleUnicode:Snowdin Town
Artist:toby fox
ArtistUnicode:toby fox
Creator:-Tenshi-
Version:Muzukashii
Source:UNDERTALE
Tags:rpg indie christmas xmas x-mas game ost original soundtrack winter pc
BeatmapID:1467704
BeatmapSetID:693679

[Difficulty]
HPDrainRate:6
CircleSize:5
OverallDifficulty:5
ApproachRate:5
SliderMultiplier:1.4
SliderTickRate:1

[Events]
//Background and Video events
0,0,"bg.png",0,0
//Break Periods
//Storyboard Layer 0 (Background)
//Storyboard Layer 1 (Fail)
//Storyboard Layer 2 (Pass)
//Storyboard Layer 3 (Foreground)
//Storyboard Sound Samples

[TimingPoints]
61,594.059405940594,4,1,0,60,1,0
8080,638.297872340426,4,1,0,60,1,8
8080,-93.4579439252336,4,1,0,60,0,0
8717,594.059405940594,4,1,0,60,1,8
9050,594.059405940594,4,1,0,60,1,8
9734,594.059405940594,4,1,0,60,1,0
13575,594.059405940594,4,1,0,60,1,8
14444,594.059405940594,4,1,0,60,1,0
19162,588.235294117647,4,1,0,60,1,0
56809,-100,4,1,0,60,0,1
70632,-100,4,1,0,60,0,0

[HitObjects]
116,152,61,5,8,0:0:0:0:
124,148,358,1,0,0:0:0:0:
124,148,655,1,8,0:0:0:0:
208,108,1249,1,8,0:0:0:0:
216,132,2140,1,8,0:0:0:0:
256,140,2437,1,0,0:0:0:0:
184,80,2734,1,0,0:0:0:0:
220,84,3031,1,8,0:0:0:0:
220,84,3328,1,0,0:0:0:0:
220,84,3922,1,0,0:0:0:0:
220,84,4219,1,8,0:0:0:0:
172,88,4813,1,0,0:0:0:0:
112,100,5110,1,8,0:0:0:0:
112,100,5407,1,0,0:0:0:0:
112,100,6001,1,0,0:0:0:0:
176,64,6892,1,0,0:0:0:0:
176,64,7189,1,8,0:0:0:0:
216,68,7486,1,8,0:0:0:0:
216,68,7783,1,0,0:0:0:0:
216,68,8080,1,8,0:0:0:0:
216,68,8717,1,8,0:0:0:0:
216,68,9050,1,0,0:0:0:0:
208,128,9734,1,8,0:0:0:0:
208,128,10031,1,0,0:0:0:0:
208,128,10328,1,8,0:0:0:0:
208,128,10922,1,8,0:0:0:0:
168,112,11813,1,0,0:0:0:0:
168,112,12110,1,0,0:0:0:0:
200,76,12407,1,8,0:0:0:0:
200,76,12704,1,0,0:0:0:0:
200,76,13001,1,8,0:0:0:0:
112,144,13575,1,0,0:0:0:0:
112,144,13872,1,8,0:0:0:0:
136,100,14444,1,0,0:0:0:0:
200,120,14741,1,8,0:0:0:0:
200,120,15038,1,0,0:0:0:0:
200,120,15632,1,0,0:0:0:0:
224,112,16523,1,8,0:0:0:0:
224,112,16820,1,8,0:0:0:0:
216,104,17117,1,0,0:0:0:0:
216,104,17414,1,8,0:0:0:0:
216,104,17711,1,0,0:0:0:0:
196,104,19162,1,8,0:0:0:0:
196,104,19750,1,0,0:0:0:0:
152,140,20044,1,8,0:0:0:0:
152,140,20191,1,8,0:0:0:0:
152,140,20338,1,8,0:0:0:0:
184,144,20632,1,8,0:0:0:0:
192,120,20926,1,0,0:0:0:0:
72,140,21220,1,0,0:0:0:0:
140,120,21514,1,8,0:0:0:0:
224,96,22103,1,8,0:0:0:0:
224,96,22397,1,0,0:0:0:0:
224,96,22544,1,0,0:0:0:0:
224,96,22691,1,0,0:0:0:0:
136,92,22985,1,0,0:0:0:0:
72,108,23279,1,8,0:0:0:0:
156,112,23573,1,8,0:0:0:0:
152,176,23867,1,0,0:0:0:0:
72,84,24456,1,0,0:0:0:0:
180,116,24750,1,8,0:0:0:0:
180,116,25044,1,0,0:0:0:0:
108,116,25632,1,0,0:0:0:0:
168,144,25926,1,8,0:0:0:0:
208,104,26220,1,8,0:0:0:0:
168,88,26809,1,8,0:0:0:0:
168,88,27103,1,0,0:0:0:0:
168,88,27691,1,8,0:0:0:0:
96,108,27985,1,0,0:0:0:0:
96,108,28279,1,0,0:0:0:0:
96,108,28573,1,8,0:0:0:0:
168,168,29162,1,0,0:0:0:0:
76,152,29456,1,8,0:0:0:0:
76,152,29603,1,8,0:0:0:0:
112,112,29750,1,8,0:0:0:0:
216,148,30044,1,8,0:0:0:0:
216,148,30338,1,0,0:0:0:0:
168,104,30632,1,0,0:0:0:0:
168,104,30926,1,8,0:0:0:0:
176,152,31514,1,8,0:0:0:0:
120,112,31809,1,0,0:0:0:0:
120,112,31956,1,0,0:0:0:0:
120,112,32103,1,0,0:0:0:0:
148,168,32397,1,0,0:0:0:0:
204,84,32691,1,8,0:0:0:0:
204,84,32985,1,8,0:0:0:0:
204,84,33279,1,0,0:0:0:0:
144,160,33867,1,0,0:0:0:0:
144,160,34162,1,8,0:0:0:0:
144,160,34456,1,8,0:0:0:0:
104,164,34750,1,0,0:0:0:0:
72,108,35044,1,8,0:0:0:0:
120,148,35485,1,8,0:0:0:0:
120,148,35632,1,8,0:0:0:0:
144,80,36220,1,0,0:0:0:0:
144,80,36514,1,8,0:0:0:0:
232,88,37103,1,8,0:0:0:0:
232,88,37397,1,0,0:0:0:0:
232,88,37691,1,0,0:0:0:0:
196,104,37985,1,8,0:0:0:0:
196,104,38573,1,0,0:0:0:0:
152,140,38867,1,8,0:0:0:0:
152,140,39014,1,8,0:0:0:0:
152,140,39161,1,8,0:0:0:0:
184,144,39456,1,0,0:0:0:0:
192,120,39750,1,8,0:0:0:0:
72,140,40043,1,0,0:0:0:0:
140,120,40337,1,8,0:0:0:0:
224,96,40926,1,8,0:0:0:0:
224,96,41220,1,0,0:0:0:0:
224,96,41367,1,0,0:0:0:0:
224,96,41514,1,0,0:0:0:0:
136,92,41808,1,8,0:0:0:0:
72,108,42102,1,0,0:0:0:0:
156,112,42396,1,8,0:0:0:0:
152,176,42690,1,0,0:0:0:0:
72,84,43279,1,8,0:0:0:0:
180,116,43573,1,8,0:0:0:0:
180,116,43867,1,0,0:0:0:0:
108,116,44455,1,0,0:0:0:0:
168,144,44749,1,8,0:0:0:0:
208,104,45043,1,0,0:0:0:0:
168,88,45632,1,8,0:0:0:0:
168,88,45926,1,0,0:0:0:0:
168,88,46514,1,8,0:0:0:0:
96,108,46808,1,0,0:0:0:0:
96,108,47102,1,0,0:0:0:0:
96,108,47396,1,8,0:0:0:0:
168,168,47985,1,0,0:0:0:0:
76,152,48279,1,8,0:0:0:0:
76,152,48426,1,8,0:0:0:0:
112,112,48573,1,8,0:0:0:0:
216,148,48867,1,0,0:0:0:0:
216,148,49161,1,8,0:0:0:0:
168,104,49455,1,0,0:0:0:0:
168,104,49749,1,8,0:0:0:0:
176,152,50337,1,8,0:0:0:0:
120,112,50632,1,0,0:0:0:0:
120,112,50779,1,0,0:0:0:0:
120,112,50926,1,0,0:0:0:0:
148,168,51220,1,8,0:0:0:0:
204,84,51514,1,0,0:0:0:0:
204,84,51808,1,8,0:0:0:0:
204,84,52102,1,0,0:0:0:0:
144,160,52690,1,0,0:0:0:0:
144,160,52985,1,8,0:0:0:0:
144,160,53279,1,8,0:0:0:0:
104,164,53573,1,0,0:0:0:0:
72,108,53867,1,8,0:0:0:0:
120,148,54308,1,8,0:0:0:0:
120,148,54455,1,8,0:0:0:0:
144,80,55043,1,0,0:0:0:0:
144,80,55337,1,8,0:0:0:0:
232,88,55926,1,8,0:0:0:0:
232,88,56220,1,0,0:0:0:0:
232,88,56514,1,0,0:0:0:0:
120,96,56809,1,0,0:0:0:0:
148,80,57103,1,8,0:0:0:0:
148,116,57397,1,8,0:0:0:0:
148,116,57691,1,0,0:0:0:0:
148,116,57985,1,8,0:0:0:0:
148,80,58573,1,0,0:0:0:0:
152,220,58867,1,8,0:0:0:0:
140,124,59161,1,0,0:0:0:0:
216,88,59750,1,8,0:0:0:0:
216,88,60338,1,0,0:0:0:0:
216,88,61514,1,0,0:0:0:0:
216,88,61809,1,8,0:0:0:0:
216,88,62103,1,8,0:0:0:0:
216,88,62397,1,0,0:0:0:0:
216,88,62691,1,8,0:0:0:0:
216,88,63279,1,0,0:0:0:0:
256,140,63573,1,8,0:0:0:0:
176,64,63867,1,0,0:0:0:0:
204,92,64456,1,0,0:0:0:0:
216,80,64750,1,8,0:0:0:0:
216,80,65338,1,8,0:0:0:0:
216,80,65632,1,8,0:0:0:0:
224,80,66220,1,0,0:0:0:0:
268,84,66514,1,8,0:0:0:0:
268,84,66809,1,8,0:0:0:0:
268,84,67103,1,0,0:0:0:0:
268,84,67397,1,8,0:0:0:0:
208,128,67985,1,0,0:0:0:0:
248,92,68279,1,8,0:0:0:0:
136,100,68573,1,0,0:0:0:0:
232,124,69162,1,8,0:0:0:0:
232,124,69750,1,0,0:0:0:0:
136,88,70632,1,8,0:0:0:0:
136,88,70779,1,8,0:0:0:0:
136,88,70926,1,8,0:0:0:0:
184,180,71220,1,8,0:0:0:0:
88,160,71514,1,8,0:0:0:0:
248,92,71809,1,8,0:0:0:0:
208,84,72397,1,0,0:0:0:0:
208,84,72691,1,8,0:0:0:0:
208,84,72985,1,0,0:0:0:0:
208,84,73279,1,8,0:0:0:0:
