osu file format v14

[General]
AudioFilename: audio.mp3
AudioLeadIn: 0
PreviewTime: 37985
Countdown: 0
SampleSet: Normal
StackLeniency: 0.7
Mode: 1
LetterboxInBreaks: 0
WidescreenStoryboard: 0

[Editor]
DistanceSpacing: 1.8
BeatDivisor: 4
GridSize: 4
TimelineZoom: 1

[Metadata]
Title:Snowdin Town
TitleUnicode:Snowdin Town
Artist:toby fox
ArtistUnicode:toby fox
Creator:-Tenshi-
Version:Futsuu
Source:UNDERTALE
Tags:rpg indie christmas xmas x-mas game ost original soundtrack winter pc
BeatmapID:1467702
BeatmapSetID:693679

[Difficulty]
HPDrainRate:7
CircleSize:5
OverallDifficulty:4
ApproachRate:5
SliderMultiplier:1.4
SliderTickRate:1

[Events]
//Background and Video events
0,0,"bg.png",0,0
//Break Periods
//Storyboard Layer 0 (Background)
//Storyboard Layer 1 (Fail)
//Storyboard Layer 2 (Pass)
//Storyboard Layer 3 (Foreground)
//Storyboard Sound Samples

[TimingPoints]
61,594.059405940594,4,1,0,60,1,0
8080,638.297872340426,4,1,0,60,1,8
8080,-93.4579439252336,4,1,0,60,0,0
8717,594.059405940594,4,1,0,60,1,8
9050,594.059405940594,4,1,0,60,1,8
9734,594.059405940594,4,1,0,60,1,0
13575,594.059405940594,4,1,0,60,1,8
14444,594.059405940594,4,1,0,60,1,0
19162,588.235294117647,4,1,0,60,1,0
56809,-100,4,1,0,60,0,1
70632,-100,4,1,0,60,0,0

[HitObjects]
196,184,61,5,0,0:0:0:0:
196,188,655,1,8,0:0:0:0:
196,188,1249,1,0,0:0:0:0:
196,188,2437,1,0,0:0:0:0:
120,100,3031,1,0,0:0:0:0:
196,188,3328,1,8,0:0:0:0:
80,96,3922,1,8,0:0:0:0:
196,196,4219,1,0,0:0:0:0:
196,136,4813,1,8,0:0:0:0:
140,112,5407,1,0,0:0:0:0:
168,108,6001,1,8,0:0:0:0:
168,104,7189,1,0,0:0:0:0:
176,76,7783,1,8,0:0:0:0:
176,76,8080,1,0,0:0:0:0:
192,48,8717,1,0,0:0:0:0:
192,120,9050,1,8,0:0:0:0:
192,120,9734,1,0,0:0:0:0:
144,116,10328,1,0,0:0:0:0:
144,116,10922,1,8,0:0:0:0:
156,92,12110,1,8,0:0:0:0:
156,92,12704,1,0,0:0:0:0:
156,92,13001,1,8,0:0:0:0:
192,48,13575,1,8,0:0:0:0:
180,120,13872,1,0,0:0:0:0:
180,88,14444,1,8,0:0:0:0:
180,88,15038,1,8,0:0:0:0:
180,88,15632,1,0,0:0:0:0:
196,144,16820,1,8,0:0:0:0:
160,72,17414,1,8,0:0:0:0:
196,144,17711,1,0,0:0:0:0:
236,156,19162,1,8,0:0:0:0:
224,136,19750,1,0,0:0:0:0:
160,116,20338,1,8,0:0:0:0:
100,84,20632,1,8,0:0:0:0:
100,84,20926,1,0,0:0:0:0:
140,132,21514,1,8,0:0:0:0:
184,84,22103,1,0,0:0:0:0:
184,84,22691,1,0,0:0:0:0:
184,112,22985,1,0,0:0:0:0:
184,112,23279,1,8,0:0:0:0:
184,112,23867,1,8,0:0:0:0:
144,104,25044,1,0,0:0:0:0:
216,128,25338,1,0,0:0:0:0:
216,128,25632,1,8,0:0:0:0:
216,128,26220,1,8,0:0:0:0:
76,100,26809,1,8,0:0:0:0:
216,128,27103,1,0,0:0:0:0:
160,84,27691,1,8,0:0:0:0:
80,88,27985,1,0,0:0:0:0:
188,148,28279,1,0,0:0:0:0:
156,104,28573,1,8,0:0:0:0:
200,152,29162,1,0,0:0:0:0:
164,96,29750,1,8,0:0:0:0:
164,96,30044,1,0,0:0:0:0:
164,96,30338,1,8,0:0:0:0:
180,84,30926,1,8,0:0:0:0:
180,88,31514,1,0,0:0:0:0:
180,88,32103,1,0,0:0:0:0:
196,48,32397,1,8,0:0:0:0:
196,48,32691,1,8,0:0:0:0:
208,100,33279,1,8,0:0:0:0:
152,84,34456,1,8,0:0:0:0:
160,88,34750,1,0,0:0:0:0:
160,88,35044,1,8,0:0:0:0:
172,80,35632,1,8,0:0:0:0:
128,128,36220,1,0,0:0:0:0:
128,128,36514,1,8,0:0:0:0:
224,108,37103,1,8,0:0:0:0:
224,108,37397,1,0,0:0:0:0:
208,100,37691,1,0,0:0:0:0:
236,156,37985,1,8,0:0:0:0:
224,136,38573,1,0,0:0:0:0:
160,116,39161,1,0,0:0:0:0:
100,84,39455,1,8,0:0:0:0:
100,84,39749,1,8,0:0:0:0:
140,132,40337,1,8,0:0:0:0:
184,84,40926,1,0,0:0:0:0:
184,84,41514,1,8,0:0:0:0:
184,112,41808,1,0,0:0:0:0:
184,112,42102,1,8,0:0:0:0:
184,112,42690,1,8,0:0:0:0:
144,104,43867,1,8,0:0:0:0:
216,128,44161,1,0,0:0:0:0:
216,128,44455,1,8,0:0:0:0:
216,128,45043,1,8,0:0:0:0:
76,100,45632,1,8,0:0:0:0:
216,128,45926,1,0,0:0:0:0:
160,84,46514,1,8,0:0:0:0:
80,88,46808,1,0,0:0:0:0:
208,100,47103,1,0,0:0:0:0:
156,104,47396,1,8,0:0:0:0:
200,152,47985,1,0,0:0:0:0:
164,96,48573,1,8,0:0:0:0:
164,96,48867,1,0,0:0:0:0:
164,96,49161,1,0,0:0:0:0:
180,84,49749,1,8,0:0:0:0:
180,88,50337,1,0,0:0:0:0:
180,88,50926,1,0,0:0:0:0:
196,48,51220,1,8,0:0:0:0:
196,48,51514,1,8,0:0:0:0:
208,100,52102,1,8,0:0:0:0:
152,84,53279,1,8,0:0:0:0:
160,88,53573,1,0,0:0:0:0:
160,88,53867,1,8,0:0:0:0:
172,80,54455,1,8,0:0:0:0:
128,128,55043,1,0,0:0:0:0:
128,128,55337,1,8,0:0:0:0:
224,108,55926,1,8,0:0:0:0:
224,108,56220,1,0,0:0:0:0:
208,100,56514,1,0,0:0:0:0:
248,128,56809,1,0,0:0:0:0:
128,116,57397,1,8,0:0:0:0:
140,116,57691,1,8,0:0:0:0:
140,116,57985,1,8,0:0:0:0:
168,108,58573,1,0,0:0:0:0:
204,100,59161,1,8,0:0:0:0:
192,52,59750,1,0,0:0:0:0:
204,100,60338,1,8,0:0:0:0:
148,124,61514,1,0,0:0:0:0:
232,120,62103,1,8,0:0:0:0:
232,120,62397,1,8,0:0:0:0:
232,120,62691,1,8,0:0:0:0:
232,120,63279,1,0,0:0:0:0:
232,120,63867,1,8,0:0:0:0:
156,76,64456,1,0,0:0:0:0:
156,76,64750,1,8,0:0:0:0:
56,104,66220,1,0,0:0:0:0:
196,80,66809,1,8,0:0:0:0:
196,80,67103,1,8,0:0:0:0:
196,80,67397,1,8,0:0:0:0:
180,120,67985,1,0,0:0:0:0:
180,120,68573,1,8,0:0:0:0:
180,120,69162,1,0,0:0:0:0:
180,120,69750,1,8,0:0:0:0:
180,120,70926,1,8,0:0:0:0:
128,84,71809,1,8,0:0:0:0:
232,88,72397,1,0,0:0:0:0:
144,124,72691,1,8,0:0:0:0:
232,88,72985,1,0,0:0:0:0:
232,88,73279,1,8,0:0:0:0:
