osu file format v14

[General]
AudioFilename: audio.mp3
AudioLeadIn: 0
PreviewTime: 37985
Countdown: 0
SampleSet: Normal
StackLeniency: 0.7
Mode: 1
LetterboxInBreaks: 0
WidescreenStoryboard: 0

[Editor]
DistanceSpacing: 1.8
BeatDivisor: 4
GridSize: 4
TimelineZoom: 1

[Metadata]
Title:Snowdin Town
TitleUnicode:Snowdin Town
Artist:toby fox
ArtistUnicode:toby fox
Creator:-Tenshi-
Version:Kantan
Source:UNDERTALE
Tags:rpg indie christmas xmas x-mas game ost original soundtrack winter pc
BeatmapID:1467703
BeatmapSetID:693679

[Difficulty]
HPDrainRate:8
CircleSize:5
OverallDifficulty:3
ApproachRate:5
SliderMultiplier:1.4
SliderTickRate:1

[Events]
//Background and Video events
0,0,"bg.png",0,0
//Break Periods
//Storyboard Layer 0 (Background)
//Storyboard Layer 1 (Fail)
//Storyboard Layer 2 (Pass)
//Storyboard Layer 3 (Foreground)
//Storyboard Sound Samples

[TimingPoints]
61,594.059405940594,4,1,0,60,1,0
8080,638.297872340426,4,1,0,60,1,8
8080,-93.4579439252336,4,1,0,60,0,0
8717,594.059405940594,4,1,0,60,1,8
9050,594.059405940594,4,1,0,60,1,8
9734,594.059405940594,4,1,0,60,1,0
13575,594.059405940594,4,1,0,60,1,8
14444,594.059405940594,4,1,0,60,1,0
19162,588.235294117647,4,1,0,60,1,0
56809,-100,4,1,0,60,0,1
70632,-100,4,1,0,60,0,0

[HitObjects]
244,192,61,5,0,0:0:0:0:
220,144,1249,1,8,0:0:0:0:
136,120,2437,1,8,0:0:0:0:
120,92,3328,1,0,0:0:0:0:
196,120,4813,1,8,0:0:0:0:
128,104,6001,1,0,0:0:0:0:
160,80,7189,1,0,0:0:0:0:
112,132,8080,1,8,0:0:0:0:
188,92,9734,1,8,0:0:0:0:
68,144,10922,1,0,0:0:0:0:
136,120,12110,1,8,0:0:0:0:
176,104,13001,1,8,0:0:0:0:
176,104,14444,1,0,0:0:0:0:
176,104,15632,1,8,0:0:0:0:
232,96,16820,1,0,0:0:0:0:
232,96,17711,1,0,0:0:0:0:
232,96,19162,1,8,0:0:0:0:
184,96,20338,1,0,0:0:0:0:
184,96,20926,1,0,0:0:0:0:
184,96,21514,1,8,0:0:0:0:
208,76,22691,1,8,0:0:0:0:
208,76,23279,1,8,0:0:0:0:
208,76,23867,1,0,0:0:0:0:
152,88,25044,1,8,0:0:0:0:
60,164,25632,1,0,0:0:0:0:
152,88,26220,1,8,0:0:0:0:
232,104,27103,1,0,0:0:0:0:
140,128,28573,1,8,0:0:0:0:
180,72,29750,1,0,0:0:0:0:
180,72,30338,1,0,0:0:0:0:
180,72,30926,1,8,0:0:0:0:
124,112,32103,1,8,0:0:0:0:
216,108,32691,1,8,0:0:0:0:
216,108,33279,1,0,0:0:0:0:
180,72,34456,1,8,0:0:0:0:
180,72,35044,1,0,0:0:0:0:
180,72,35632,1,8,0:0:0:0:
180,72,36514,1,0,0:0:0:0:
232,96,37985,1,8,0:0:0:0:
184,96,39162,1,8,0:0:0:0:
184,96,39749,1,0,0:0:0:0:
184,96,40337,1,8,0:0:0:0:
208,76,41514,1,8,0:0:0:0:
208,76,42102,1,8,0:0:0:0:
208,76,42690,1,0,0:0:0:0:
152,88,43867,1,8,0:0:0:0:
60,164,44455,1,0,0:0:0:0:
152,88,45043,1,8,0:0:0:0:
232,104,45926,1,0,0:0:0:0:
140,128,47396,1,8,0:0:0:0:
216,108,48573,1,8,0:0:0:0:
216,108,49161,1,0,0:0:0:0:
124,112,49749,1,8,0:0:0:0:
180,72,50926,1,8,0:0:0:0:
180,72,51514,1,8,0:0:0:0:
180,72,52102,1,0,0:0:0:0:
180,72,53279,1,8,0:0:0:0:
180,72,53867,1,0,0:0:0:0:
180,72,54455,1,8,0:0:0:0:
180,72,55337,1,0,0:0:0:0:
64,116,56809,1,0,0:0:0:0:
152,88,57691,1,0,0:0:0:0:
160,92,58573,1,8,0:0:0:0:
160,92,59161,1,0,0:0:0:0:
160,92,60044,1,0,0:0:0:0:
160,92,60926,1,8,0:0:0:0:
160,92,61514,1,0,0:0:0:0:
160,92,62397,1,0,0:0:0:0:
160,92,63279,1,8,0:0:0:0:
160,92,63867,1,8,0:0:0:0:
160,92,64750,1,0,0:0:0:0:
120,128,66220,1,0,0:0:0:0:
120,128,67103,1,0,0:0:0:0:
120,128,67985,1,8,0:0:0:0:
120,128,68573,1,0,0:0:0:0:
124,120,69456,1,0,0:0:0:0:
152,108,70338,1,0,0:0:0:0:
152,108,70926,1,8,0:0:0:0:
152,108,71809,1,8,0:0:0:0:
152,108,72691,1,0,0:0:0:0:
152,108,73279,1,8,0:0:0:0:
