osu file format v14

[General]
AudioFilename: audio.mp3
AudioLeadIn: 0
PreviewTime:20144
Countdown: 0
SampleSet: Soft
StackLeniency: 0.7
Mode: 0
LetterboxInBreaks: 0
WidescreenStoryboard: 1

[Editor]
Bookmarks: 12546,24933,37320
DistanceSpacing: 0.9
BeatDivisor: 4
GridSize: 8
TimelineZoom: 1.7

[Metadata]
Title:Shop
TitleUnicode:Shop
Artist:toby fox
ArtistUnicode:toby fox
Creator:Kingling
Version:Collab Normal
Source:UNDERTALE
Tags:video game chiptune instrumental "radiation" videogame soundtrack ost bluirre zcortezz mahisuru emilly akayume electronic music vgm original
BeatmapID:3623697
BeatmapSetID:1766012

[Difficulty]
HPDrainRate:3
CircleSize:4
OverallDifficulty:4
ApproachRate:5
SliderMultiplier:1
SliderTickRate:1

[Events]
//Background and Video events
0,0,"bg.png",0,0
//Break Periods
//Storyboard Layer 0 (Background)
//Storyboard Layer 1 (Fail)
//Storyboard Layer 2 (Pass)
//Storyboard Layer 3 (Foreground)
//Storyboard Layer 4 (Overlay)
//Storyboard Sound Samples

[TimingPoints]
32,387.096774193548,4,2,0,30,1,0
24806,-100,4,2,0,50,0,0
43386,-100,4,2,0,60,0,0
46483,-100,4,2,0,50,0,0

[Colours]
Combo1 : 100,50,0
Combo2 : 145,72,0
Combo3 : 255,92,15
Combo4 : 185,185,0

[HitObjects]
7,64,32,6,0,B|60:42|123:61|89:79|161:97|199:73,1,200,6|0,0:2|0:0,0:0:0:0:
269,17,1193,2,0,L|324:19,1,50,2|2,0:2|0:2,0:0:0:0:
358,23,1580,2,0,P|406:31|448:58,1,100,2|0,3:2|3:2,0:0:0:0:
478,143,2354,1,2,0:2:0:0:
453,229,2741,1,2,3:2:0:0:
472,316,3128,6,0,P|416:327|363:314,1,100,2|0,3:2|3:2,0:0:0:0:
289,348,3902,1,2,0:2:0:0:
206,311,4290,1,2,3:2:0:0:
124,348,4677,2,0,P|79:323|116:194,1,200,2|0,3:2|3:2,0:0:0:0:
191,177,5838,1,0,3:2:0:0:
259,235,6225,6,0,B|310:210|377:235|350:249|411:266|453:239,1,200,6|0,0:2|0:0,0:0:0:0:
509,171,7386,2,0,L|507:118,1,50,2|2,0:2|0:2,0:0:0:0:
504,76,7773,2,0,P|487:37|435:9,1,100,2|0,3:2|3:2,0:0:0:0:
355,45,8548,1,2,0:2:0:0:
270,15,8935,1,2,3:2:0:0:
199,71,9322,6,0,P|194:117|198:172,1,100,2|0,3:2|3:2,0:0:0:0:
272,220,10096,1,2,0:2:0:0:
357,192,10483,1,2,3:2:0:0:
440,224,10870,2,0,P|465:296|300:340,1,300,2|2,3:2|0:2,0:0:0:0:
230,282,12419,6,0,B|186:259|111:274|149:303|86:285|56:296|32:258,1,200,6|0,0:2|0:0,0:0:0:0:
11,181,13580,2,0,L|18:112,1,50,2|2,3:2|0:2,0:0:0:0:
21,81,13967,2,0,P|40:36|86:18,1,100,2|2,3:2|3:2,0:0:0:0:
161,68,14741,1,2,0:2:0:0:
243,32,15128,1,2,3:2:0:0:
331,48,15515,6,0,P|381:39|430:63,1,100,2|0,3:2|3:2,0:0:0:0:
476,132,16290,2,0,L|468:247,1,100,2|2,0:2|3:2,0:0:0:0:
458,321,17064,2,0,P|386:354|291:268,1,200,2|0,3:2|3:2,0:0:0:0:
292,199,18225,1,0,3:2:0:0:
224,139,18612,6,0,B|167:141|116:91|146:89|97:49|48:57,1,200,6|0,0:2|0:0,0:0:0:0:
2,133,19773,2,0,L|1:202,1,50,2|2,0:2|0:2,0:0:0:0:
4,228,20161,2,0,P|16:275|58:300,1,100,2|2,3:2|3:2,0:0:0:0:
147,285,20935,1,2,0:2:0:0:
222,333,21322,1,2,3:2:0:0:
288,273,21709,6,0,L|283:173,1,100,2|0,3:2|3:2,0:0:0:0:
224,105,22483,1,2,0:2:0:0:
270,27,22870,1,2,3:2:0:0:
359,19,23257,2,0,P|491:71|496:212,1,300,2|2,0:2|0:2,0:0:0:0:
482,301,24806,5,4,3:2:0:0:
409,354,25193,1,2,3:2:0:0:
333,305,25580,2,0,P|287:286|237:292,1,100,2|2,0:2|3:2,0:0:0:0:
171,352,26354,1,6,3:2:0:0:
81,361,26741,1,2,3:2:0:0:
11,305,27128,2,0,P|-2:257|8:209,1,100,2|2,0:2|3:2,0:0:0:0:
79,153,27902,6,0,B|107:133|165:152|136:173|185:181|220:161,1,150,6|0,3:2|0:0,0:0:0:0:
250,128,28677,2,0,P|278:62|349:47,1,150,6|0,0:2|0:0,0:0:0:0:
393,56,29451,2,0,L|401:155,1,100,6|0,3:2|3:2,0:0:0:0:
463,324,30612,5,0,3:2:0:0:
389,375,30999,1,4,3:2:0:0:
299,366,31386,1,2,3:2:0:0:
225,313,31773,2,0,P|205:266|204:217,1,100,2|2,0:2|3:2,0:0:0:0:
271,157,32548,2,0,P|270:106|250:61,1,100,6|2,3:2|3:2,0:0:0:0:
175,12,33322,1,2,0:2:0:0:
85,19,33709,1,2,3:2:0:0:
8,66,34096,6,0,B|-9:113|8:168|22:148|43:211|14:258,1,200,6|0,3:2|0:0,0:0:0:0:
30,348,35257,1,0,3:2:0:0:
115,376,35644,1,0,3:2:0:0:
198,342,36031,2,0,P|216:296|189:201,1,150,0|0,3:2|0:0,0:0:0:0:
151,179,36806,2,0,L|155:129,1,50,2|2,0:2|0:2,0:0:0:0:
160,72,37193,5,6,3:2:0:0:
264,48,37580,1,2,3:2:0:0:
349,117,37967,1,2,0:2:0:0:
327,224,38354,1,2,3:2:0:0:
367,326,38741,2,0,P|401:347|456:334,1,100,2|2,3:2|3:2,0:0:0:0:
505,235,39515,1,2,0:2:0:0:
499,125,39902,2,0,P|495:86|414:20,1,150,2|0,3:2|0:0,0:0:0:0:
358,24,40677,5,2,3:2:0:0:
293,113,41064,1,2,0:2:0:0:
293,222,41451,1,2,3:2:0:0:
215,300,41838,1,2,3:2:0:0:
105,290,42225,2,0,P|73:253|65:195,1,100,2|6,3:2|0:2,0:0:0:0:
115,106,42999,1,2,3:2:0:0:
65,8,43386,1,6,3:2:0:0:
258,248,45709,5,2,0:2:0:0:
304,170,46096,1,2,2:2:0:0:
381,218,46483,1,6,3:2:0:0:
256,192,46677,12,0,48806,3:2:0:0:
