osu file format v14

[General]
AudioFilename: audio.mp3
AudioLeadIn: 0
PreviewTime: 30
Countdown: 0
SampleSet: Soft
StackLeniency: 0.7
Mode: 3
LetterboxInBreaks: 0
SpecialStyle: 0
WidescreenStoryboard: 0

[Editor]
DistanceSpacing: 1.2
BeatDivisor: 8
GridSize: 16
TimelineZoom: 2.5

[Metadata]
Title:Shop
TitleUnicode:Shop
Artist:toby fox
ArtistUnicode:toby fox
Creator:Froskya
Version:Care to chat?
Source:UNDERTALE
Tags:snowdin shopkeeper chiptune ost videogame "radiation" soundtrack video game electronic music instrumental vgm original sound track revialink casperisapotato
BeatmapID:3693268
BeatmapSetID:1801306

[Difficulty]
HPDrainRate:7.7
CircleSize:4
OverallDifficulty:7.5
ApproachRate:5
SliderMultiplier:1.4
SliderTickRate:1

[Events]
//Background and Video events
0,0,"bun.png",0,0
//Break Periods
//Storyboard Layer 0 (Background)
//Storyboard Layer 1 (Fail)
//Storyboard Layer 2 (Pass)
//Storyboard Layer 3 (Foreground)
//Storyboard Layer 4 (Overlay)
//Storyboard Sound Samples

[TimingPoints]
30,774.193548387097,4,2,1,40,1,0
24804,-100,4,2,1,50,0,0
36804,-100,4,2,1,60,0,0
45707,-100,4,2,1,50,0,0
46481,-100,4,2,1,40,0,0
48031,-100,4,2,1,35,0,0

[HitObjects]
64,192,30,128,2,804:0:0:0:0:
448,192,30,128,0,126:0:0:0:0:
192,192,417,128,0,513:0:0:0:0:
448,192,1191,128,2,1384:0:0:0:0:
320,192,1191,128,0,1288:0:0:0:0:
64,192,1384,128,2,1578:0:0:0:0:
320,192,1578,128,2,1675:0:0:0:0:
448,192,1578,128,0,1675:0:0:0:0:
192,192,1965,128,2,2062:0:0:0:0:
64,192,1965,128,0,2062:0:0:0:0:
320,192,2352,1,2,0:0:0:0:
448,192,2449,1,2,0:0:0:0:
64,192,2546,128,2,2739:0:0:0:0:
320,192,2739,128,2,2836:0:0:0:0:
448,192,2739,128,0,2836:0:0:0:0:
448,192,3126,128,2,3900:0:0:0:0:
192,192,3126,128,0,3223:0:0:0:0:
64,192,3513,128,0,3610:0:0:0:0:
192,192,3900,128,2,4094:0:0:0:0:
320,192,4288,128,2,4481:0:0:0:0:
64,192,4288,128,0,4384:0:0:0:0:
64,192,4675,128,2,5836:0:0:0:0:
448,192,4675,128,0,4771:0:0:0:0:
320,192,5062,128,0,5159:0:0:0:0:
192,192,5449,128,0,5546:0:0:0:0:
320,192,5836,128,0,5933:0:0:0:0:
64,192,6223,128,0,6320:0:0:0:0:
448,192,6223,128,2,6997:0:0:0:0:
320,192,6610,128,0,6707:0:0:0:0:
64,192,7384,128,2,7578:0:0:0:0:
320,192,7384,128,0,7481:0:0:0:0:
448,192,7578,128,2,7771:0:0:0:0:
192,192,7771,128,2,7868:0:0:0:0:
64,192,7771,128,0,7868:0:0:0:0:
320,192,8159,128,2,8255:0:0:0:0:
448,192,8159,128,0,8255:0:0:0:0:
64,192,8546,1,2,0:0:0:0:
448,192,8642,1,2,0:0:0:0:
192,192,8739,128,2,8933:0:0:0:0:
320,192,8933,128,2,9030:0:0:0:0:
64,192,8933,128,0,9030:0:0:0:0:
448,192,9320,128,0,9417:0:0:0:0:
192,192,9320,128,2,10094:0:0:0:0:
320,192,9707,128,0,9804:0:0:0:0:
64,192,10094,128,2,10288:0:0:0:0:
448,192,10481,128,0,10578:0:0:0:0:
320,192,10481,128,2,10675:0:0:0:0:
192,192,10868,128,2,12030:0:0:0:0:
64,192,10868,128,0,10965:0:0:0:0:
320,192,11255,128,0,11352:0:0:0:0:
448,192,11642,128,0,11739:0:0:0:0:
64,192,12030,128,0,12126:0:0:0:0:
320,192,12417,128,2,13191:0:0:0:0:
448,192,12417,128,0,12513:0:0:0:0:
64,192,12804,128,0,12900:0:0:0:0:
192,192,13578,128,2,13771:0:0:0:0:
320,192,13578,128,0,13675:0:0:0:0:
64,192,13771,128,2,13965:0:0:0:0:
448,192,13965,128,2,14062:0:0:0:0:
320,192,13965,128,0,14062:0:0:0:0:
192,192,14352,128,2,14449:0:0:0:0:
64,192,14352,128,0,14449:0:0:0:0:
320,192,14739,1,2,0:0:0:0:
64,192,14836,1,2,0:0:0:0:
448,192,14933,128,2,15126:0:0:0:0:
192,192,15126,128,2,15223:0:0:0:0:
320,192,15126,128,0,15223:0:0:0:0:
320,192,15513,128,2,16288:0:0:0:0:
64,192,15513,128,0,15610:0:0:0:0:
192,192,15900,128,0,15997:0:0:0:0:
64,192,16288,128,2,16481:0:0:0:0:
320,192,16675,128,2,16868:0:0:0:0:
192,192,16675,128,0,16771:0:0:0:0:
448,192,17062,128,2,18223:0:0:0:0:
64,192,17062,128,0,17159:0:0:0:0:
320,192,17449,128,0,17546:0:0:0:0:
192,192,17836,128,0,17933:0:0:0:0:
64,192,18223,128,0,18320:0:0:0:0:
320,192,18610,128,0,18707:0:0:0:0:
192,192,18610,128,2,19384:0:0:0:0:
64,192,18997,128,0,19094:0:0:0:0:
320,192,19771,128,2,19965:0:0:0:0:
448,192,19771,128,0,19868:0:0:0:0:
64,192,19965,128,2,20159:0:0:0:0:
448,192,20159,128,2,20255:0:0:0:0:
192,192,20159,128,0,20255:0:0:0:0:
64,192,20546,128,2,20642:0:0:0:0:
320,192,20546,128,0,20642:0:0:0:0:
320,192,20933,1,2,0:0:0:0:
64,192,21030,1,2,0:0:0:0:
448,192,21126,128,2,21320:0:0:0:0:
192,192,21320,128,2,21417:0:0:0:0:
320,192,21320,128,0,21417:0:0:0:0:
320,192,21707,128,2,22481:0:0:0:0:
64,192,21707,128,0,21804:0:0:0:0:
448,192,22094,128,0,22191:0:0:0:0:
192,192,22481,128,2,22675:0:0:0:0:
320,192,22868,128,2,23062:0:0:0:0:
448,192,22868,128,0,22965:0:0:0:0:
64,192,23255,128,2,24417:0:0:0:0:
448,192,23255,128,0,23352:0:0:0:0:
192,192,23642,128,0,23739:0:0:0:0:
320,192,24030,128,0,24126:0:0:0:0:
448,192,24417,128,0,24513:0:0:0:0:
192,192,24804,128,0,24900:0:0:0:70:soft-hitfinish7.wav
320,192,24804,128,0,24900:0:0:0:0:
64,192,25191,128,0,25481:0:0:0:70:soft-hitwhistle2.wav
448,192,25191,128,2,25288:0:0:0:0:
320,192,25481,1,0,0:0:0:0:
448,192,25578,1,2,0:0:0:0:
192,192,25578,128,0,25868:0:0:0:70:soft-hitwhistle2.wav
64,192,25868,1,0,0:0:0:0:
448,192,25965,128,0,26255:0:0:0:70:soft-hitwhistle2.wav
320,192,25965,128,2,26062:0:0:0:0:
64,192,26255,1,0,0:0:0:0:
320,192,26352,128,0,26642:0:0:0:70:soft-hitwhistle2.wav
192,192,26352,128,2,26449:0:0:0:0:
64,192,26642,1,0,0:0:0:0:
192,192,26739,128,0,27030:0:0:0:70:soft-hitwhistle6.wav
448,192,26739,128,2,26836:0:0:0:0:
320,192,27030,1,0,0:0:0:0:
448,192,27126,1,2,0:0:0:0:
64,192,27126,128,0,27417:0:0:0:70:soft-hitwhistle7.wav
320,192,27417,1,0,0:0:0:0:
448,192,27513,128,0,27804:0:0:0:70:soft-hitwhistle6.wav
192,192,27513,128,2,27610:0:0:0:0:
64,192,27804,1,0,0:0:0:0:
192,192,27900,128,0,28191:0:0:0:70:soft-hitwhistle2.wav
320,192,27900,128,2,28191:0:0:0:0:
448,192,28288,128,0,28384:0:0:0:0:
448,192,28675,128,2,28965:0:0:0:0:
64,192,28675,128,0,28965:0:0:0:70:soft-hitwhistle8.wav
192,192,29062,128,0,29159:0:0:0:0:
320,192,29449,128,2,29739:0:0:0:0:
192,192,29449,128,0,29739:0:0:0:70:soft-hitwhistle2.wav
448,192,29836,128,0,29933:0:0:0:0:
448,192,30610,128,0,30707:0:0:0:0:
320,192,30997,128,0,31094:0:0:0:0:
192,192,30997,128,0,31094:0:0:0:70:soft-hitfinish7.wav
64,192,31384,128,0,31675:0:0:0:70:soft-hitwhistle2.wav
448,192,31384,128,2,31481:0:0:0:0:
192,192,31675,1,0,0:0:0:0:
320,192,31771,1,2,0:0:0:0:
448,192,31771,128,0,32062:0:0:0:70:soft-hitwhistle2.wav
64,192,32062,1,0,0:0:0:0:
192,192,32159,128,0,32449:0:0:0:70:soft-hitwhistle2.wav
320,192,32159,128,2,32255:0:0:0:0:
448,192,32449,1,0,0:0:0:0:
320,192,32546,128,0,32836:0:0:0:70:soft-hitwhistle2.wav
64,192,32546,128,2,32642:0:0:0:0:
192,192,32836,1,0,0:0:0:0:
64,192,32933,128,0,33223:0:0:0:70:soft-hitwhistle6.wav
448,192,32933,128,2,33030:0:0:0:0:
320,192,33223,1,0,0:0:0:0:
448,192,33320,128,0,33610:0:0:0:70:soft-hitwhistle7.wav
192,192,33320,1,2,0:0:0:0:
320,192,33610,1,0,0:0:0:0:
64,192,33707,128,0,33997:0:0:0:70:soft-hitwhistle6.wav
192,192,33707,128,2,33804:0:0:0:0:
448,192,33997,1,0,0:0:0:0:
192,192,34094,128,0,36804:0:0:0:70:soft-hitwhistle2.wav
320,192,34094,128,2,36804:0:0:0:0:
64,192,34481,128,0,34578:0:0:0:0:
64,192,35255,128,0,35352:0:0:0:0:
448,192,35642,128,0,35739:0:0:0:0:
64,192,36030,128,0,36126:0:0:0:0:
64,192,36804,128,0,36900:0:0:0:70:soft-hitwhistle9.wav
448,192,36804,1,2,0:0:0:0:
320,192,36997,1,2,0:0:0:0:
448,192,36997,1,0,0:0:0:70:soft-hitwhistle3.wav
320,192,37191,128,2,37288:0:0:0:0:
192,192,37191,128,0,37481:0:0:0:70:soft-hitwhistle7.wav
64,192,37191,1,0,0:0:0:70:soft-hitfinish7.wav
320,192,37578,1,0,0:0:0:0:
448,192,37578,128,0,37868:0:0:0:70:soft-hitwhistle7.wav
64,192,37578,128,2,37675:0:0:0:0:
64,192,37965,128,0,38255:0:0:0:70:soft-hitwhistle7.wav
320,192,37965,1,2,0:0:0:0:
192,192,37965,1,0,0:0:0:0:
192,192,38352,1,0,0:0:0:0:
320,192,38352,128,0,38642:0:0:0:70:soft-hitwhistle7.wav
448,192,38352,128,2,38449:0:0:0:0:
448,192,38739,1,0,0:0:0:0:
192,192,38739,128,0,39030:0:0:0:70:soft-hitwhistle7.wav
64,192,38739,128,2,38836:0:0:0:0:
448,192,39126,128,0,39417:0:0:0:70:soft-hitwhistle3.wav
320,192,39126,1,0,0:0:0:0:
64,192,39126,128,2,39223:0:0:0:0:
64,192,39513,1,2,0:0:0:0:
320,192,39513,128,0,39804:0:0:0:70:soft-hitwhistle10.wav
192,192,39513,1,0,0:0:0:0:
448,192,39900,1,0,0:0:0:0:
192,192,39900,128,2,39997:0:0:0:0:
64,192,39900,128,0,40288:0:0:0:70:soft-hitwhistle9.wav
320,192,40288,128,0,40384:0:0:0:0:
192,192,40675,128,2,40771:0:0:0:0:
448,192,40675,1,0,0:0:0:0:
320,192,40675,128,0,40965:0:0:0:70:soft-hitwhistle7.wav
448,192,41062,1,0,0:0:0:0:
64,192,41062,128,0,41352:0:0:0:70:soft-hitwhistle7.wav
192,192,41062,1,2,0:0:0:0:
192,192,41449,1,0,0:0:0:0:
448,192,41449,128,0,41739:0:0:0:70:soft-hitwhistle7.wav
320,192,41449,128,2,41546:0:0:0:0:
320,192,41836,1,0,0:0:0:0:
192,192,41836,128,0,42126:0:0:0:70:soft-hitwhistle7.wav
64,192,41836,128,2,41933:0:0:0:0:
448,192,42223,128,2,42320:0:0:0:0:
64,192,42223,1,0,0:0:0:0:
320,192,42223,128,0,42513:0:0:0:70:soft-hitwhistle3.wav
448,192,42610,1,0,0:0:0:0:
64,192,42610,128,0,42900:0:0:0:70:soft-hitwhistle7.wav
192,192,42610,1,2,0:0:0:0:
192,192,42997,1,0,0:0:0:0:
448,192,42997,128,2,43094:0:0:0:0:
320,192,42997,128,0,43288:0:0:0:70:soft-hitwhistle2.wav
64,192,43384,128,2,44933:0:0:0:0:
448,192,43384,128,0,44933:0:0:0:70:soft-hitwhistle11.wav
192,192,43384,128,0,43481:0:0:0:0:
320,192,43771,128,0,43868:0:0:0:0:
320,192,44546,128,0,44642:0:0:0:0:
192,192,44933,128,0,45030:0:0:0:0:
64,192,45707,128,0,46094:0:0:0:70:soft-hitwhistle7.wav
192,192,45707,1,2,0:0:0:0:
448,192,46094,128,0,46481:0:0:0:70:soft-hitwhistle10.wav
320,192,46094,1,2,0:0:0:0:
64,192,46481,128,0,49191:0:0:0:70:soft-hitwhistle3.wav
192,192,46481,128,2,46578:0:0:0:0:
320,192,46868,128,0,46965:0:0:0:0:
448,192,47255,128,0,47352:0:0:0:0:
192,192,47642,128,0,47739:0:0:0:0:
448,192,48030,128,0,48417:0:0:0:0:
320,192,48804,128,0,49191:0:0:0:0:
