osu file format v14

[General]
AudioFilename: audio.mp3
AudioLeadIn: 0
PreviewTime: 30
Countdown: 0
SampleSet: Soft
StackLeniency: 0.7
Mode: 0
LetterboxInBreaks: 0
WidescreenStoryboard: 1

[Editor]
Bookmarks: 30,4675,6223,10868,12417,17062,18610,23255,24804,36804,43384,44981,45030,45078,45126,45175,45223,45271,45320,45368,45417,45465,45513,45562,45610,45659,46481
DistanceSpacing: 1.2
BeatDivisor: 4
GridSize: 16
TimelineZoom: 1.7

[Metadata]
Title:Shop
TitleUnicode:Shop
Artist:toby fox
ArtistUnicode:toby fox
Creator:AnnouncerF
Version:hard
Source:UNDERTALE
Tags:casper casperisapotato bluirre AnimeStyle chiptune ost videogame "radiation" soundtrack video game electronic music instrumental vgm original sound track
BeatmapID:3619117
BeatmapSetID:1757662

[Difficulty]
HPDrainRate:4
CircleSize:4.3
OverallDifficulty:6
ApproachRate:7
SliderMultiplier:2
SliderTickRate:2

[Events]
//Background and Video events
0,0,"70313329_p1.jpg",0,0
//Break Periods
//Storyboard Layer 0 (Background)
//Storyboard Layer 1 (Fail)
//Storyboard Layer 2 (Pass)
//Storyboard Layer 3 (Foreground)
//Storyboard Layer 4 (Overlay)
//Storyboard Sound Samples

[TimingPoints]
30,774.193548387097,4,2,1,40,1,0
30,-100,4,2,1,40,0,0
24804,-90.9090909090909,4,2,1,50,0,0
29836,-100,4,2,1,40,0,0
31384,-90.9090909090909,4,2,1,50,0,0
35255,-100,4,2,1,50,0,0
36804,-90.9090909090909,4,2,1,60,0,0
43384,-86.9565217391304,4,2,1,60,0,0
44546,-111.111111111111,4,2,1,60,0,0
45707,-111.111111111111,4,2,1,50,0,0
46481,-100,4,2,1,40,0,0
48030,-111.111111111111,4,2,1,35,0,0

[Colours]
Combo1 : 203,175,228
Combo2 : 236,191,136
Combo3 : 224,86,39
Combo4 : 255,139,62
Combo5 : 118,56,124
Combo6 : 189,123,215

[HitObjects]
424,117,30,6,0,P|374:103|325:96,1,100,6|0,3:2|3:2,0:0:0:0:
126,62,1191,5,2,3:2:0:0:
111,136,1384,1,2,0:2:0:0:
94,216,1578,2,0,L|117:325,1,100,2|2,3:2|3:2,0:0:0:0:
265,346,2352,1,2,0:2:0:0:
265,346,2449,1,2,0:2:0:0:
265,346,2546,1,2,0:2:0:0:
197,384,2739,1,2,3:2:0:0:
205,234,3126,6,0,B|254:213|289:246|294:251|294:251|300:256|337:296|392:265,1,200,2|2,3:2|0:2,0:0:0:0:
502,204,4288,1,2,3:2:0:0:
465,296,4675,5,2,3:2:0:0:
404,190,5062,1,0,3:2:0:0:
267,131,5449,1,0,3:2:0:0:
170,184,5836,1,0,3:2:0:0:
242,57,6223,6,0,P|299:55|332:90,1,100,6|0,3:2|3:2,0:0:0:0:
512,179,7384,5,2,3:2:0:0:
441,153,7578,1,2,0:2:0:0:
383,210,7771,2,0,P|337:248|281:239,1,100,2|2,3:2|3:2,0:0:0:0:
185,147,8546,1,2,0:2:0:0:
185,147,8642,1,2,0:2:0:0:
185,147,8739,1,2,0:2:0:0:
224,210,8933,1,2,3:2:0:0:
222,60,9320,6,0,P|188:45|84:144,1,200,2|2,3:2|0:2,0:0:0:0:
134,257,10481,1,2,3:2:0:0:
20,193,10868,5,2,3:2:0:0:
153,152,11255,1,0,3:2:0:0:
236,286,11642,1,0,3:2:0:0:
375,244,12030,1,0,3:2:0:0:
233,195,12417,6,0,L|204:66,1,100,6|0,3:2|3:2,0:0:0:0:
418,39,13578,5,2,3:2:0:0:
433,113,13771,1,2,0:2:0:0:
450,193,13965,2,0,L|427:302,1,100,2|2,3:2|3:2,0:0:0:0:
294,355,14739,1,2,0:2:0:0:
294,355,14836,1,2,0:2:0:0:
294,355,14933,1,2,0:2:0:0:
365,376,15126,1,2,3:2:0:0:
304,236,15513,6,0,B|257:210|198:238|224:264|168:304|116:271,1,200,2|2,3:2|0:2,0:0:0:0:
22,187,16675,1,2,3:2:0:0:
58,304,17062,5,2,3:2:0:0:
118,200,17449,1,0,3:2:0:0:
265,170,17836,1,0,3:2:0:0:
380,228,18223,1,0,3:2:0:0:
310,92,18610,6,0,P|264:72|219:90,1,100,6|0,3:2|3:2,0:0:0:0:
6,3,19771,5,2,3:2:0:0:
57,57,19965,1,2,0:2:0:0:
30,132,20159,2,0,L|48:244,1,100,2|2,3:2|3:2,0:0:0:0:
22,378,20933,1,2,0:2:0:0:
22,378,21030,1,2,0:2:0:0:
22,378,21126,1,2,0:2:0:0:
61,314,21320,1,2,3:2:0:0:
196,377,21707,6,0,B|166:257|248:307|215:168,1,200,2|2,3:2|0:2,0:0:0:0:
141,80,22868,1,2,3:2:0:0:
108,205,23255,5,2,3:2:0:0:
219,289,23642,1,0,3:2:0:0:
282,131,24029,1,0,3:2:0:0:
408,212,24417,1,0,3:2:0:0:
302,222,24804,1,4,3:2:0:0:
406,344,25191,5,2,3:2:0:0:
488,201,25578,1,2,0:2:0:0:
332,118,25965,1,2,3:2:0:0:
262,278,26352,2,0,P|225:317|172:320,1,110.000003356934,2|2,3:2|3:2,0:0:0:0:
101,159,27126,2,0,P|153:170|182:215,1,110.000003356934,2|2,0:2|3:2,0:0:0:0:
45,324,27900,70,0,B|72:209|-16:230|9:89,2,220.000006713867,6|6|6,3:2|0:2|3:2,0:0:0:0:
174,384,29836,2,0,P|249:370|275:246,1,200,0|0,3:2|3:2,0:0:0:0:
203,193,30997,1,4,3:2:0:0:
287,84,31384,37,2,3:2:0:0:
325,257,31771,1,2,0:2:0:0:
142,286,32159,1,2,3:2:0:0:
118,100,32546,2,0,L|235:120,1,110.000003356934,2|2,3:2|3:2,0:0:0:0:
365,11,33320,2,0,L|256:29,1,110.000003356934,2|2,0:2|3:2,0:0:0:0:
394,171,34094,22,0,P|418:122|415:68,1,110.000003356934,6|0,3:2|3:2,0:0:0:0:
183,181,35255,1,0,3:3:0:0:
219,286,35642,2,0,P|273:290|321:265,1,100,0|0,3:2|3:2,0:0:0:0:
356,58,36804,2,0,L|286:44,1,55.0000016784668,2|2,3:2|0:2,0:0:0:0:
227,28,37191,5,6,3:2:0:0:
323,200,37578,1,2,3:2:0:0:
143,283,37965,1,2,0:2:0:0:
72,98,38352,1,2,3:2:0:0:
238,204,38739,1,6,3:2:0:0:
105,351,39126,2,0,L|-1:376,2,110.000003356934,2|2|2,3:2|0:2|3:2,0:0:0:0:
185,291,40288,1,4,3:2:0:0:
263,384,40675,69,2,3:2:0:0:
179,204,41062,1,2,2:2:0:0:
360,125,41449,1,2,3:2:0:0:
443,316,41836,2,0,P|385:315|327:262,1,110.000003356934,6|2,3:2|3:2,0:0:0:0:
226,100,42610,2,0,P|254:150|237:227,1,110.000003356934,2|2,0:2|3:2,0:0:0:0:
21,256,43384,5,6,3:2:0:0:
82,137,43771,1,0,3:2:0:0:
261,330,44546,5,0,3:2:0:0:
307,242,44933,1,0,3:2:0:0:
493,366,45707,1,2,0:2:0:0:
365,313,46094,1,2,0:2:0:0:
469,147,46481,6,0,P|415:172|373:151,1,100,4|0,3:2|3:2,0:0:0:0:
290,62,47255,1,0,3:2:0:0:
181,151,47642,1,0,3:2:0:0:
243,300,48030,2,0,B|301:294|327:336|304:346|340:392|388:383,1,179.999994506836,4|2,3:2|3:2,0:0:0:0:
