osu file format v14

[General]
AudioFilename: audio.mp3
AudioLeadIn: 0
PreviewTime: 30
Countdown: 0
SampleSet: Soft
StackLeniency: 0.7
Mode: 0
LetterboxInBreaks: 0
WidescreenStoryboard: 1

[Editor]
Bookmarks: 30,4675,6223,10868,12417,17062,18610,23255,24804,36804,43384,44981,45030,45078,45126,45175,45223,45271,45320,45368,45417,45465,45513,45562,45610,45659,46481
DistanceSpacing: 1.05
BeatDivisor: 4
GridSize: 8
TimelineZoom: 1.099999

[Metadata]
Title:Shop
TitleUnicode:Shop
Artist:toby fox
ArtistUnicode:toby fox
Creator:AnnouncerF
Version:easy
Source:UNDERTALE
Tags:casper casperisapotato bluirre AnimeStyle chiptune ost videogame "radiation" soundtrack video game electronic music instrumental vgm original sound track
BeatmapID:3597065
BeatmapSetID:1757662

[Difficulty]
HPDrainRate:2
CircleSize:2.5
OverallDifficulty:2
ApproachRate:3
SliderMultiplier:1.6
SliderTickRate:2

[Events]
//Background and Video events
0,0,"70313329_p1.jpg",0,0
//Break Periods
//Storyboard Layer 0 (Background)
//Storyboard Layer 1 (Fail)
//Storyboard Layer 2 (Pass)
//Storyboard Layer 3 (Foreground)
//Storyboard Layer 4 (Overlay)
//Storyboard Sound Samples

[TimingPoints]
30,774.193548387097,4,2,1,40,1,0
30,-100,4,2,1,40,0,0
24804,-100,4,2,1,50,0,0
36804,-100,4,2,1,60,0,0
43384,-100,4,2,1,60,0,0
45707,-100,4,2,1,50,0,0
46481,-100,4,2,1,40,0,0
48031,-100,4,2,1,35,0,0

[Colours]
Combo1 : 203,175,228
Combo2 : 236,191,136
Combo3 : 224,86,39
Combo4 : 255,139,62
Combo5 : 118,56,124
Combo6 : 189,123,215

[HitObjects]
251,36,30,6,0,L|337:58,1,80,6|0,3:2|3:2,0:0:0:0:
494,82,1191,1,2,3:2:0:0:
481,164,1578,2,0,L|403:183,1,80,2|2,3:2|3:2,0:0:0:0:
341,240,2352,1,2,0:2:0:0:
279,183,2739,1,2,3:2:0:0:
207,227,3126,22,0,B|124:247|172:300|71:327,1,160,2|2,3:2|0:2,0:0:0:0:
2,309,4288,1,2,3:2:0:0:
3,225,4675,2,0,P|17:145|36:68,1,160,2|0,3:2|3:2,0:0:0:0:
200,35,6223,70,0,P|225:71|217:128,1,80,6|0,3:2|3:2,0:0:0:0:
75,179,7384,1,2,3:2:0:0:
87,262,7771,2,0,P|125:273|164:280,1,80,2|2,3:2|3:2,0:0:0:0:
243,251,8546,1,2,0:2:0:0:
296,315,8933,1,2,3:2:0:0:
373,282,9320,54,0,B|357:198|425:214|402:105,1,160,2|2,3:2|0:2,0:0:0:0:
360,59,10481,1,2,3:2:0:0:
423,4,10868,2,0,P|496:24|503:117,1,160,2|0,3:2|3:2,0:0:0:0:
420,240,12417,70,0,B|332:256,1,80,6|0,3:2|3:2,0:0:0:0:
200,363,13578,1,2,3:2:0:0:
118,381,13965,2,0,P|106:342|98:303,1,80,2|2,3:2|3:2,0:0:0:0:
105,219,14739,1,2,0:2:0:0:
30,181,15126,1,2,3:2:0:0:
59,102,15513,70,0,B|145:79|97:26|180:6,1,160,2|2,3:2|0:2,0:0:0:0:
257,37,16675,1,2,3:2:0:0:
280,117,17062,2,0,P|261:191|247:274,1,160,2|0,3:2|3:2,0:0:0:0:
379,376,18610,38,0,P|392:309|405:283,1,80,6|0,3:2|3:2,0:0:0:0:
478,152,19771,1,2,3:2:0:0:
415,95,20159,2,0,P|376:106|337:114,1,80,2|2,3:2|3:2,0:0:0:0:
271,166,20933,1,2,0:2:0:0:
196,126,21320,1,2,3:2:0:0:
144,192,21707,22,0,B|104:189|64:211|64:211|48:176|-5:142,1,160,2|2,3:2|0:2,0:0:0:0:
0,71,22868,1,2,3:2:0:0:
73,31,23255,2,0,P|163:29|186:104,1,160,2|0,3:2|3:2,0:0:0:0:
179,246,24804,69,4,3:2:0:0:
191,329,25191,2,0,P|151:334|116:352,2,80,2|2|2,3:2|0:2|3:2,0:0:0:0:
272,312,26352,1,2,3:2:0:0:
336,366,26739,2,0,P|375:360|410:342,1,80,2|2,3:2|0:2,0:0:0:0:
419,258,27513,1,2,3:2:0:0:
344,219,27900,2,0,B|257:196|305:143|222:123,2,160,6|6|6,3:2|0:2|3:2,0:0:0:0:
512,50,30997,5,4,3:2:0:0:
428,51,31384,2,0,P|388:36|345:25,2,80,2|2|2,3:2|0:2|3:2,0:0:0:0:
445,133,32546,1,2,3:2:0:0:
367,164,32933,2,0,P|327:149|284:138,1,80,2|2,3:2|0:2,0:0:0:0:
217,98,33707,1,2,3:2:0:0:
147,146,34094,2,0,B|208:198|203:288|203:288|280:231|356:273,1,320,6|0,3:2|3:2,0:0:0:0:
507,384,36804,53,2,3:2:0:0:
467,308,37191,2,0,P|486:265|484:209,1,80,6|2,3:2|3:2,0:0:0:0:
414,192,37965,2,0,P|395:149|397:93,1,80,2|2,0:2|3:2,0:0:0:0:
433,42,38739,2,0,P|476:36|543:22,2,80,6|2|2,3:2|3:2|0:2,0:0:0:0:
355,10,39900,1,2,3:2:0:0:
247,139,40675,70,0,P|262:181|270:235,2,80,2|2|2,3:2|2:2|3:2,0:0:0:0:
188,79,41836,2,0,P|129:118|125:150,1,80,6|2,3:2|3:2,0:0:0:0:
136,206,42610,1,2,0:2:0:0:
82,270,42997,1,2,3:2:0:0:
100,352,43384,6,0,L|185:330,1,80,6|0,3:2|3:2,0:0:0:0:
310,229,44546,1,0,3:2:0:0:
269,155,44933,1,0,3:2:0:0:
384,33,45707,2,0,P|416:10|455:8,1,80,2|2,0:2|0:2,0:0:0:0:
509,72,46481,6,0,P|499:112|493:171,1,80,4|0,3:2|3:2,0:0:0:0:
442,216,47255,1,0,3:2:0:0:
376,163,47642,1,0,3:2:0:0:
299,197,48030,2,0,B|216:219|265:271|175:306,1,160,4|2,3:2|3:2,0:0:0:0:
