osu file format v14

[General]
AudioFilename: audio.mp3
AudioLeadIn: 0
PreviewTime: 30
Countdown: 0
SampleSet: Soft
StackLeniency: 0.7
Mode: 0
LetterboxInBreaks: 0
WidescreenStoryboard: 1

[Editor]
Bookmarks: 30,4675,6223,10868,12417,17062,18610,23255,24804,36804,43384,44981,45030,45078,45126,45175,45223,45271,45320,45368,45417,45465,45513,45562,45610,45659,46481
DistanceSpacing: 1.2
BeatDivisor: 4
GridSize: 8
TimelineZoom: 0.9999994

[Metadata]
Title:Shop
TitleUnicode:Shop
Artist:toby fox
ArtistUnicode:toby fox
Creator:AnnouncerF
Version:bluirre's normal
Source:UNDERTALE
Tags:casper casperisapotato bluirre AnimeStyle chiptune ost videogame "radiation" soundtrack video game electronic music instrumental vgm original sound track
BeatmapID:3597064
BeatmapSetID:1757662

[Difficulty]
HPDrainRate:3
CircleSize:3.4
OverallDifficulty:4
ApproachRate:5
SliderMultiplier:2
SliderTickRate:2

[Events]
//Background and Video events
0,0,"70313329_p1.jpg",0,0
//Break Periods
//Storyboard Layer 0 (Background)
//Storyboard Layer 1 (Fail)
//Storyboard Layer 2 (Pass)
//Storyboard Layer 3 (Foreground)
//Storyboard Layer 4 (Overlay)
//Storyboard Sound Samples

[TimingPoints]
30,774.193548387097,4,2,1,40,1,0
30,-100,4,2,1,40,0,0
24804,-100,4,2,1,50,0,0
36804,-100,4,2,1,60,0,0
43384,-100,4,2,1,60,0,0
45707,-100,4,2,1,50,0,0
46481,-100,4,2,1,40,0,0
48030,-100,4,2,1,35,0,0

[Colours]
Combo1 : 203,175,228
Combo2 : 236,191,136
Combo3 : 224,86,39
Combo4 : 255,139,62
Combo5 : 118,56,124
Combo6 : 189,123,215

[HitObjects]
0,17,30,6,0,L|105:7,1,100,6|0,3:2|3:2,0:0:0:0:
346,32,1191,1,2,3:2:0:0:
346,32,1384,1,2,0:2:0:0:
346,32,1578,2,0,P|356:92|316:151,1,100,2|2,3:2|3:2,0:0:0:0:
235,70,2352,2,0,P|209:55|169:62,1,50,2|2,0:2|0:2,0:0:0:0:
137,82,2739,1,2,3:2:0:0:
191,188,3126,6,0,P|207:234|195:282,1,100,2|0,3:2|3:2,0:0:0:0:
121,377,3900,1,2,0:2:0:0:
22,307,4288,1,2,3:2:0:0:
103,219,4675,1,2,3:2:0:0:
40,116,5062,2,0,P|33:64|17:-4,2,100,0|0|0,3:2|3:2|3:2,0:0:0:0:
103,219,6223,6,0,P|150:179|221:185,1,100,6|0,3:2|3:2,0:0:0:0:
427,254,7384,1,2,3:2:0:0:
427,254,7578,1,2,0:2:0:0:
427,254,7771,2,0,P|387:207|393:136,1,100,2|2,3:2|3:2,0:0:0:0:
485,109,8545,2,0,P|500:82|493:42,1,50,2|2,0:2|0:2,0:0:0:0:
473,12,8932,1,2,3:2:0:0:
353,24,9320,6,0,P|306:39|258:27,1,100,2|0,3:2|3:2,0:0:0:0:
138,13,10094,1,2,0:2:0:0:
42,85,10481,1,2,3:2:0:0:
97,191,10868,1,2,3:2:0:0:
24,286,11255,2,0,P|35:334|41:384,2,100,0|0|0,3:2|3:2|3:2,0:0:0:0:
98,191,12417,6,0,P|145:230|216:224,1,100,6|0,3:2|3:2,0:0:0:0:
338,53,13578,1,2,3:2:0:0:
338,53,13771,1,2,0:2:0:0:
338,53,13965,2,0,P|395:73|426:137,1,100,2|2,3:2|3:2,0:0:0:0:
388,223,14739,2,0,P|372:249|379:289,1,50,2|2,0:2|0:2,0:0:0:0:
400,320,15126,1,2,3:2:0:0:
479,229,15514,6,0,P|469:180|434:145,1,100,2|0,3:2|3:2,0:0:0:0:
318,174,16288,1,2,0:2:0:0:
198,160,16675,1,2,3:2:0:0:
122,253,17062,1,2,3:2:0:0:
160,366,17449,2,0,P|209:372|258:383,2,100,0|0|0,3:2|3:2|3:2,0:0:0:0:
122,253,18610,6,0,L|110:132,1,100,6|0,3:2|3:2,0:0:0:0:
321,31,19771,1,2,3:2:0:0:
321,31,19965,1,2,0:2:0:0:
321,31,20158,2,0,P|311:91|351:150,1,100,2|2,3:2|3:2,0:0:0:0:
413,207,20932,2,0,P|443:206|474:232,1,50,2|2,0:2|0:2,0:0:0:0:
491,265,21319,1,2,3:2:0:0:
392,331,21707,6,0,P|344:340|309:375,1,100,2|0,3:2|3:2,0:0:0:0:
217,298,22481,1,2,0:2:0:0:
235,179,22868,1,2,3:2:0:0:
353,199,23255,1,2,3:2:0:0:
415,96,23642,2,0,P|367:80|319:92,1,100,0|0,3:2|3:2,0:0:0:0:
208,49,24417,1,0,3:2:0:0:
94,88,24804,5,4,3:2:0:0:
152,193,25191,2,0,P|212:182|271:222,2,100,2|2|2,3:2|0:2|3:2,0:0:0:0:
65,276,26352,1,2,3:2:0:0:
137,371,26739,1,2,3:2:0:0:
261,379,27126,2,0,P|297:346|311:298,1,100,2|2,0:2|3:2,0:0:0:0:
246,196,27900,6,0,B|241:96|184:-2,2,200,6|6|6,3:2|0:2|3:2,0:0:0:0:
310,298,29836,2,0,P|413:333|509:266,1,200,0|0,3:2|3:2,0:0:0:0:
397,215,30997,5,4,3:2:0:0:
330,108,31384,2,0,P|283:146|275:217,2,100,2|2|2,3:2|0:2|3:2,0:0:0:0:
408,16,32546,1,2,3:2:0:0:
289,0,32933,1,2,3:2:0:0:
169,11,33320,2,0,P|200:49|204:98,1,100,2|2,0:0|3:2,0:0:0:0:
121,185,34094,5,6,3:2:0:0:
37,271,34481,2,0,P|2:168|69:71,1,200,0|0,3:2|3:2,0:0:0:0:
160,84,35642,1,0,3:2:0:0:
279,75,36030,1,0,3:2:0:0:
151,282,36804,1,2,3:2:0:0:
151,282,36997,1,2,0:2:0:0:
151,282,37191,6,0,P|199:275|245:295,1,100,6|2,3:2|3:2,0:0:0:0:
364,307,37965,2,0,P|357:259|377:213,1,100,2|2,0:2|3:2,0:0:0:0:
418,100,38739,1,6,3:2:0:0:
299,81,39126,1,2,3:2:0:0:
175,68,39513,2,0,P|182:116|162:162,1,100,2|2,0:2|3:2,0:0:0:0:
97,248,40288,5,4,3:2:0:0:
171,342,40675,2,0,P|227:342|306:350,2,100,2|2|2,3:2|2:2|3:2,0:0:0:0:
97,248,41836,1,6,3:2:0:0:
180,162,42223,1,2,3:2:0:0:
271,240,42610,1,2,0:2:0:0:
354,154,42997,1,2,3:2:0:0:
305,44,43384,6,0,P|246:34|186:72,1,100,6|0,3:2|3:2,0:0:0:0:
14,187,44546,1,0,3:2:0:0:
125,232,44933,1,0,3:2:0:0:
349,317,45707,1,2,0:2:0:0:
394,206,46094,1,2,0:2:0:0:
302,128,46481,6,0,P|305:78|305:28,2,100,4|0|0,3:2|3:2|3:2,0:0:0:0:
214,209,47642,1,0,3:2:0:0:
156,309,48030,2,0,B|247:258|251:364|379:303,1,200,4|2,3:2|3:2,0:0:0:0:
