osu file format v14

[General]
AudioFilename: audio.mp3
AudioLeadIn: 0
PreviewTime: -1
Countdown: 1
SampleSet: Normal
StackLeniency: 0.3
Mode: 0
LetterboxInBreaks: 0
SkinPreference:Chitanda
WidescreenStoryboard: 1

[Editor]
Bookmarks: 988,5495,20169,20984,31247,73059
DistanceSpacing: 0.8
BeatDivisor: 2
GridSize: 4
TimelineZoom: 1.2

[Metadata]
Title:Ruins
TitleUnicode:Ruins
Artist:toby fox
ArtistUnicode:toby fox
Creator:Wee
Version:Normal
Source:Undertale
Tags:Undertale OST Ruins Wee EzPP
BeatmapID:1179462
BeatmapSetID:557248

[Difficulty]
HPDrainRate:5
CircleSize:3
OverallDifficulty:2
ApproachRate:5
SliderMultiplier:1.4
SliderTickRate:1

[Events]
//Background and Video events
0,0,"Untitled-2.png",0,0
//Break Periods
//Storyboard Layer 0 (Background)
//Storyboard Layer 1 (Fail)
//Storyboard Layer 2 (Pass)
//Storyboard Layer 3 (Foreground)
//Storyboard Sound Samples

[TimingPoints]
119,434.782608695652,3,1,0,100,1,0
26247,-100,3,1,0,100,0,1
35597,-100,3,1,0,100,0,0
36858,-100,3,1,0,100,0,0
47117,-100,3,1,0,100,0,1
57987,-100,3,1,0,100,0,0

[Colours]
Combo1 : 115,68,111
Combo2 : 128,128,192

[HitObjects]
68,196,119,6,0,L|212:128,1,140,8|8,0:0|0:0,0:0:0:0:
344,176,988,2,0,L|272:144,2,70,8|0|8,0:0|0:0|0:0,0:0:0:0:
384,256,2727,6,0,L|248:312,1,140,8|8,0:0|0:0,0:0:0:0:
144,316,3596,2,0,P|100:252|116:184,1,140,8|8,0:0|0:0,0:0:0:0:
168,112,4466,1,8,0:0:0:0:
280,72,4901,1,8,0:0:0:0:
392,112,5335,5,8,0:0:0:0:
388,212,5770,2,0,P|388:340|260:328,1,280,8|0,0:0|0:0,0:0:0:0:
188,320,7075,2,0,P|88:272|80:240,1,140,8|8,0:0|0:0,0:0:0:0:
124,140,7944,5,8,0:0:0:0:
216,80,8379,1,8,0:0:0:0:
320,112,8814,1,8,0:0:0:0:
404,168,9249,2,0,B|376:328|376:328|232:312,1,280
104,200,10553,6,0,L|248:132,1,140,8|8,0:0|0:0,0:0:0:0:
352,124,11423,1,8,0:0:0:0:
404,220,11858,1,8,0:0:0:0:
264,212,12292,1,8,0:0:0:0:
216,312,12727,1,8,0:0:0:0:
100,280,13162,6,0,P|100:136|224:104,1,280,0|8,0:0|0:0,0:0:0:0:
368,104,14466,1,8,0:0:0:0:
400,208,14901,2,0,P|408:288|368:344,1,140,8|0,0:0|0:0,0:0:0:0:
256,320,15771,5,8,0:0:0:0:
144,296,16205,1,8,0:0:0:0:
108,160,16640,1,8,0:0:0:0:
132,116,16858,1,0,0:0:0:0:
180,96,17075,2,0,L|344:92,1,140,8|0,0:0|0:0,0:0:0:0:
324,156,18379,5,8,0:0:0:0:
288,264,18814,1,8,0:0:0:0:
192,304,19249,1,8,0:0:0:0:
188,156,19684,2,0,L|88:40,2,140
296,136,20988,1,8,0:0:0:0:
404,200,21423,2,0,L|348:260,1,70,8|0,0:0|0:0,0:0:0:0:
344,296,21858,2,0,L|204:344,1,140,8|0,0:0|0:0,0:0:0:0:
100,340,22727,5,0,0:0:0:0:
240,260,23162,1,0,0:0:0:0:
96,248,23597,1,8,0:0:0:0:
124,144,24032,1,0,0:0:0:0:
204,72,24466,2,8,L|344:72,1,140
88,200,26205,6,0,B|128:164|128:164|152:212|152:212|184:176,1,140,8|0,0:0|0:0,0:0:0:0:
264,148,27075,1,8,0:0:0:0:
364,164,27510,1,8,0:0:0:0:
408,244,27945,1,8,0:0:0:0:
344,320,28379,1,8,0:0:0:0:
240,328,28814,2,0,B|124:316|72:232|72:148|72:132,1,280,8|0,0:0|0:0,0:0:0:0:
108,68,30118,1,8,0:0:0:0:
212,72,30553,5,8,0:0:0:0:
252,76,30771,1,0,0:0:0:0:
284,84,30988,1,8,0:0:0:0:
328,96,31205,1,0,0:0:0:0:
400,128,31423,2,0,P|432:236|404:264,1,140,8|0,0:0|0:0,0:0:0:0:
336,284,32292,1,8,0:0:0:0:
248,176,32727,1,8,0:0:0:0:
200,308,33162,1,8,0:0:0:0:
260,232,33597,1,8,0:0:0:0:
264,144,34032,6,0,P|224:104|136:132,1,140,8|0,0:0|0:0,0:0:0:0:
100,196,34901,2,8,P|76:272|104:320,1,140,8|8,0:0|0:0,0:0:0:0:
196,308,35771,1,8,0:0:0:0:
324,280,36205,1,8,0:0:0:0:
400,184,36640,1,8,0:0:0:0:
344,100,37075,1,8,0:0:0:0:
248,80,37510,6,0,L|168:84,1,70,8|0,0:0|0:0,0:0:0:0:
144,108,37945,1,8,0:0:0:0:
92,180,38379,2,8,P|80:264|120:328,1,140,0|0,0:0|0:0,0:0:0:0:
192,336,39249,1,8,0:0:0:0:
308,312,39684,1,8,0:0:0:0:
416,248,40118,1,8,0:0:0:0:
412,144,40553,2,8,P|316:104|280:104,1,140,8|8,0:0|0:0,0:0:0:0:
208,132,41423,1,8,0:0:0:0:
136,172,41858,5,8,0:0:0:0:
128,268,42292,1,8,0:0:0:0:
236,312,42727,2,0,L|304:276,2,70,8|0|8,0:0|0:0|0:0,0:0:0:0:
120,292,43597,1,8,0:0:0:0:
104,256,43814,2,8,P|88:164|152:136,1,140
188,108,44684,2,0,L|340:76,1,140,8|0,0:0|0:0,0:0:0:0:
412,128,45553,1,0,0:0:0:0:
276,308,46423,2,0,L|364:268,1,70
339,279,46858,1,0,0:0:0:0:
400,240,47075,6,0,P|400:116|244:88,1,280,8|8,0:0|0:0,0:0:0:0:
192,92,48379,1,0,0:0:0:0:
112,176,48814,1,8,0:0:0:0:
84,280,49249,1,8,0:0:0:0:
168,320,49684,2,0,P|324:312|392:216,1,280,8|0,0:0|0:0,0:0:0:0:
400,144,50988,1,0,0:0:0:0:
300,100,51423,2,8,L|224:96,4,70,8|0|8|0|8,0:0|0:0|0:0|0:0|0:0,0:0:0:0:
404,128,52727,6,0,B|448:236|400:304|404:300,1,140
256,280,53597,1,8,0:0:0:0:
256,272,54032,1,8,0:0:0:0:
256,264,54466,1,8,0:0:0:0:
268,256,54901,2,0,P|376:160|292:100,1,280,8|0,0:0|0:0,0:0:0:0:
192,104,56205,1,8,0:0:0:0:
112,240,56640,2,0,L|204:268,1,70,8|0,0:0|0:0,0:0:0:0:
220,268,57075,2,0,L|316:248,1,70,8|0,0:0|0:0,0:0:0:0:
344,248,57510,6,0,P|376:136|232:88,1,280,8|0,0:0|0:0,0:0:0:0:
160,120,58814,1,8,0:0:0:0:
236,328,60118,1,8,0:0:0:0:
372,284,60553,1,8,0:0:0:0:
408,164,60988,1,8,0:0:0:0:
328,68,61423,1,8,0:0:0:0:
128,72,62075,1,0,0:0:0:0:
116,108,62292,1,8,0:0:0:0:
108,148,62510,1,0,0:0:0:0:
100,184,62727,2,0,P|108:300|256:320,1,280,8|0,0:0|0:0,0:0:0:0:
340,300,64032,5,0,0:0:0:0:
400,224,64466,1,8,0:0:0:0:
384,128,64901,1,8,0:0:0:0:
304,84,65336,2,0,P|140:100|88:212,1,280,8|0,0:0|0:0,0:0:0:0:
108,272,66640,1,8,0:0:0:0:
272,300,67292,2,0,L|176:296,3,70,0|8|0|8,0:0|0:0|0:0|0:0,0:0:0:0:
116,256,68379,2,0,P|92:180|108:116,1,140
208,68,69249,5,8,0:0:0:0:
312,64,69684,1,8,0:0:0:0:
400,120,70118,1,8,0:0:0:0:
424,224,70553,2,0,P|348:316|200:300,1,280,8|0,0:0|0:0,0:0:0:0:
128,252,71858,1,8,0:0:0:0:
124,240,72075,1,0,0:0:0:0:
120,224,72292,1,8,0:0:0:0:
116,212,72510,1,0,0:0:0:0:
116,200,72727,1,8,0:0:0:0:
112,140,73162,6,0,P|336:104|212:332,1,560,8|0,0:0|0:0,0:0:0:0:
172,320,75336,1,0,0:0:0:0:
116,264,75771,2,0,P|100:136|232:68,1,280,8|0,0:0|0:0,0:0:0:0:
296,68,77075,1,8,0:0:0:0:
248,204,77510,1,8,0:0:0:0:
408,184,77945,1,8,0:0:0:0:
392,264,78379,2,0,B|236:76|124:304|120:304|120:304|124:88,1,560,8|0,0:0|0:0,0:0:0:0:
188,48,80553,1,8,0:0:0:0:
268,72,80988,6,0,P|428:148|376:352,1,420,8|0,0:0|0:0,0:0:0:0:
256,192,82727,12,0,88597,0:0:0:0:
160,136,89249,5,0,0:0:0:0:
268,168,89684,1,0,0:0:0:0:
348,248,90118,1,0,0:0:0:0:
