osu file format v14

[General]
AudioFilename: audio.mp3
AudioLeadIn: 0
PreviewTime: -1
Countdown: 1
SampleSet: Normal
StackLeniency: 0.3
Mode: 0
LetterboxInBreaks: 0
SkinPreference:Chitanda
WidescreenStoryboard: 0

[Editor]
Bookmarks: 5495,20169,20984,31247,73059
DistanceSpacing: 0.8
BeatDivisor: 4
GridSize: 4
TimelineZoom: 1.2

[Metadata]
Title:Ruins
TitleUnicode:Ruins
Artist:toby fox
ArtistUnicode:toby fox
Creator:Wee
Version:Hard
Source:Undertale
Tags:Undertale OST Ruins Wee EzPP
BeatmapID:1179158
BeatmapSetID:557248

[Difficulty]
HPDrainRate:7
CircleSize:3.5
OverallDifficulty:3
ApproachRate:9
SliderMultiplier:1.4
SliderTickRate:1

[Events]
//Background and Video events
0,0,"Untitled-2.png",0,0
//Break Periods
//Storyboard Layer 0 (Background)
//Storyboard Layer 1 (Fail)
//Storyboard Layer 2 (Pass)
//Storyboard Layer 3 (Foreground)
//Storyboard Sound Samples

[TimingPoints]
0,500,4,1,0,100,1,0
119,434.782608695652,3,1,0,100,1,0
25181,-100,3,1,0,100,0,0
26205,-100,3,1,0,100,0,1
26205,-100,3,1,0,100,0,0
26205,-100,3,1,0,100,0,0
35597,-100,3,1,0,100,0,0
36858,-100,3,1,0,100,0,0
47117,-100,3,1,0,100,0,1
57987,-100,3,1,0,100,0,0
72987,-66.6666666666667,3,1,0,100,0,0

[Colours]
Combo1 : 115,68,111
Combo2 : 128,128,192

[HitObjects]
128,128,125,5,8,0:0:0:0:
180,56,342,1,0,0:0:0:0:
268,72,559,1,8,0:0:0:0:
392,232,994,5,8,0:0:0:0:
340,300,1211,1,0,0:0:0:0:
252,288,1429,1,8,0:0:0:0:
280,152,2510,2,0,L|220:192,1,70,0|8,0:0|0:0,0:0:0:0:
188,212,2945,1,0,0:0:0:0:
140,240,3162,1,8,0:0:0:0:
84,152,3597,1,8,0:0:0:0:
152,84,3814,1,0,0:0:0:0:
248,96,4032,1,8,0:0:0:0:
376,128,4467,5,8,0:0:0:0:
368,176,4684,1,0,0:0:0:0:
304,276,4902,1,8,0:0:0:0:
288,284,5010,1,0,0:0:0:0:
272,292,5118,1,0,0:0:0:0:
244,304,5336,2,0,P|128:256|120:232,1,140,8|0,0:0|0:0,0:0:0:0:
144,140,5988,2,0,B|240:56|240:52|264:72,1,140,8|0,0:0|0:0,0:0:0:0:
336,136,6641,1,8,0:0:0:0:
376,252,7075,6,0,L|324:304,4,70,8|0|0|0|0,0:0|0:0|0:0|0:0|0:0,0:0:0:0:
176,236,8597,1,0,0:0:0:0:
72,308,9032,1,0,0:0:0:0:
76,324,9140,1,0,0:0:0:0:
80,340,9249,2,8,L|200:232,1,140
184,246,9901,1,0,0:0:0:0:
328,176,10118,5,8,0:0:0:0:
400,152,10336,1,0,0:0:0:0:
336,100,10553,1,8,0:0:0:0:
256,280,11205,1,0,0:0:0:0:
116,260,11640,1,0,0:0:0:0:
152,216,11858,1,0,0:0:0:0:
276,104,12292,1,0,0:0:0:0:
176,112,12727,5,8,0:0:0:0:
224,232,13163,1,8,0:0:0:0:
256,204,13380,1,0,0:0:0:0:
288,176,13597,1,8,0:0:0:0:
320,152,13815,1,0,0:0:0:0:
396,68,14250,1,0,0:0:0:0:
356,108,14467,1,0,0:0:0:0:
156,284,15119,5,0,0:0:0:0:
156,112,15336,1,8,0:0:0:0:
96,256,15554,1,0,0:0:0:0:
212,136,15771,1,8,0:0:0:0:
384,164,16206,2,0,P|432:240|416:288,1,140,8|0,0:0|0:0,0:0:0:0:
348,300,16858,1,0,0:0:0:0:
292,304,17075,1,8,0:0:0:0:
316,192,17510,6,0,L|376:124,1,70
284,116,17945,1,8,0:0:0:0:
396,184,18163,1,0,0:0:0:0:
344,312,18380,2,0,P|284:360|212:264,1,210,8|0,0:0|0:0,0:0:0:0:
164,212,19684,1,0,0:0:0:0:
284,300,20336,6,0,L|208:296,1,70,0|8,0:0|0:0,0:0:0:0:
112,252,20771,1,0,0:0:0:0:
96,232,20988,2,0,P|72:168|104:104,1,140,8|0,0:0|0:0,0:0:0:0:
208,108,21858,1,8,0:0:0:0:
232,132,22075,1,0,0:0:0:0:
260,156,22292,1,8,0:0:0:0:
448,252,22945,5,0,0:0:0:0:
420,304,23163,2,0,P|396:336|372:324,1,70,8|0,0:0|0:0,0:0:0:0:
320,308,23597,1,8,0:0:0:0:
96,228,24032,2,0,P|72:164|124:120,1,140,8|0,0:0|0:0,0:0:0:0:
208,108,24684,1,0,0:0:0:0:
232,132,24902,1,8,0:0:0:0:
260,152,26206,6,0,P|380:88|392:116,1,210,8|0,0:0|0:0,0:0:0:0:
384,192,27293,1,0,0:0:0:0:
352,256,27510,1,8,0:0:0:0:
44,236,27945,5,8,0:0:0:0:
136,120,28163,1,0,0:0:0:0:
372,240,28380,1,8,0:0:0:0:
136,352,28597,1,0,0:0:0:0:
264,312,28815,2,0,P|368:240|332:160,1,210,8|0,0:0|0:0,0:0:0:0:
224,200,29901,1,0,0:0:0:0:
204,236,30010,1,0,0:0:0:0:
184,272,30119,1,8,0:0:0:0:
344,248,30554,5,8,0:0:0:0:
256,356,30771,1,0,0:0:0:0:
92,136,30989,1,8,0:0:0:0:
400,136,31206,1,0,0:0:0:0:
256,296,31423,2,0,B|176:268|252:180|252:184|288:136|288:136|256:116,1,210,8|0,0:0|0:0,0:0:0:0:
200,112,32510,5,0,0:0:0:0:
131,146,32728,2,0,P|111:226|115:270,1,105,8|0,0:0|0:0,0:0:0:0:
144,280,33163,2,0,P|200:256|232:216,1,105,8|0,0:0|0:0,0:0:0:0:
219,191,33597,2,0,P|163:179|123:127,1,105,8|0,0:0|0:0,0:0:0:0:
116,96,34032,2,0,L|192:96,1,70,8|0,0:0|0:0,0:0:0:0:
232,104,34467,1,8,0:0:0:0:
284,144,34684,1,0,0:0:0:0:
300,196,35118,2,0,L|272:268,1,70,0|8,0:0|0:0,0:0:0:0:
160,204,35989,6,0,L|236:148,1,70,8|0,0:0|0:0,0:0:0:0:
284,132,36423,2,0,L|356:112,1,70,0|8,0:0|0:0,0:0:0:0:
344,108,37076,2,0,P|436:156|428:204,1,140
408,256,37728,1,0,0:0:0:0:
352,312,37945,1,8,0:0:0:0:
256,160,38380,5,0,0:0:0:0:
256,280,38597,1,0,0:0:0:0:
256,52,38815,1,0,0:0:0:0:
256,164,39032,1,0,0:0:0:0:
256,280,39250,2,0,L|400:240,1,140,8|0,0:0|0:0,0:0:0:0:
392,108,39902,1,0,0:0:0:0:
276,96,40119,2,0,L|136:132,1,140,0|8,0:0|0:0,0:0:0:0:
88,204,41206,5,0,0:0:0:0:
176,224,41423,1,8,0:0:0:0:
260,244,41641,1,0,0:0:0:0:
344,224,41858,2,0,P|420:184|396:140,1,140
120,180,42727,1,0,0:0:0:0:
120,228,42945,2,0,L|144:316,1,70,0|8,0:0|0:0,0:0:0:0:
192,232,43597,1,0,0:0:0:0:
348,216,43815,5,0,0:0:0:0:
284,276,44032,2,0,P|240:308|224:312,1,70,8|0,0:0|0:0,0:0:0:0:
148,288,44467,1,8,0:0:0:0:
96,228,44902,2,0,P|108:168|168:104,1,140
208,108,45554,1,0,0:0:0:0:
312,124,45771,1,8,0:0:0:0:
128,236,47076,2,0,B|212:148|224:196|312:248|312:248,1,210,8|0,0:0|0:0,0:0:0:0:
408,196,47945,1,0,0:0:0:0:
400,312,48163,6,0,L|344:240,1,70,0|8,0:0|0:0,0:0:0:0:
316,152,48815,2,0,P|448:212|456:212,1,140
88,152,49466,1,0,0:0:0:0:
408,152,49684,2,8,P|388:316|352:332,1,210
280,296,50771,1,0,0:0:0:0:
244,256,50879,1,0,0:0:0:0:
220,208,50988,1,8,0:0:0:0:
168,88,51423,5,8,0:0:0:0:
256,288,51641,1,0,0:0:0:0:
332,92,51858,1,8,0:0:0:0:
136,216,52076,1,0,0:0:0:0:
368,216,52293,2,0,B|324:176|244:256|176:132,1,210,8|0,0:0|0:0,0:0:0:0:
104,240,53380,1,0,0:0:0:0:
124,112,53597,1,8,0:0:0:0:
348,116,54032,1,8,0:0:0:0:
184,240,54467,1,8,0:0:0:0:
124,136,54902,5,8,0:0:0:0:
148,152,55119,1,0,0:0:0:0:
172,168,55336,1,8,0:0:0:0:
196,188,55554,1,0,0:0:0:0:
252,228,55989,2,0,P|292:252|328:232,1,70,0|8,0:0|0:0,0:0:0:0:
240,64,56858,5,0,0:0:0:0:
348,116,57076,1,8,0:0:0:0:
340,248,57293,1,0,0:0:0:0:
208,272,57510,1,8,0:0:0:0:
100,128,57945,1,8,0:0:0:0:
372,104,58380,5,8,0:0:0:0:
396,208,58597,1,0,0:0:0:0:
288,248,58815,1,8,0:0:0:0:
188,256,59250,2,0,L|212:180,1,70,8|0,0:0|0:0,0:0:0:0:
96,192,59684,2,0,L|160:152,1,70,8|0,0:0|0:0,0:0:0:0:
212,120,60119,1,8,0:0:0:0:
412,168,60553,2,0,L|412:248,1,70,8|0,0:0|0:0,0:0:0:0:
72,252,61423,1,8,0:0:0:0:
200,296,62076,5,0,0:0:0:0:
200,44,62293,1,8,0:0:0:0:
312,296,62510,1,0,0:0:0:0:
304,44,62727,2,0,B|416:108|436:132|436:132|328:208|288:184|288:184|172:220,1,420,8|8,0:0|0:0,0:0:0:0:
104,96,64683,1,0,0:0:0:0:
188,56,64902,1,8,0:0:0:0:
256,120,65119,1,0,0:0:0:0:
280,200,65336,2,0,B|436:240|432:240|212:304,1,280,8|0,0:0|0:0,0:0:0:0:
120,236,66641,6,0,P|212:108|236:112,1,210,8|0,0:0|0:0,0:0:0:0:
324,128,67510,1,8,0:0:0:0:
488,248,67728,1,0,0:0:0:0:
312,320,67945,2,0,P|148:288|340:112,1,560,8|8,0:0|0:0,0:0:0:0:
388,152,70118,1,0,0:0:0:0:
416,244,70554,1,8,0:0:0:0:
144,240,71205,1,0,0:0:0:0:
192,256,71314,1,0,0:0:0:0:
232,264,71422,1,8,0:0:0:0:
280,260,71640,5,0,0:0:0:0:
340,248,71858,2,0,P|336:136|252:96,1,210,8|0,0:0|0:0,0:0:0:0:
104,208,72728,1,8,0:0:0:0:
112,320,73163,6,0,B|356:40|532:236|532:232|356:348|356:348|204:144,1,840.000032043458,8|0,0:0|0:0,0:0:0:0:
216,152,75336,1,0,0:0:0:0:
180,148,75445,1,0,0:0:0:0:
148,148,75553,1,0,0:0:0:0:
124,156,75771,2,0,B|140:260|128:288|160:304|228:256|304:336|376:264|316:200|384:164|436:268,1,420.000016021729,8|0,0:0|0:0,0:0:0:0:
256,308,77076,1,8,0:0:0:0:
184,192,77510,1,8,0:0:0:0:
216,112,77945,1,8,0:0:0:0:
296,84,78380,6,8,B|136:156|116:144|116:144|144:256|124:284|124:284|156:260|272:280|284:304|284:304|292:276|352:164,1,630.000024032594,8|0,0:0|0:0,0:0:0:0:
200,312,80554,1,8,0:0:0:0:
224,324,80663,1,0,0:0:0:0:
256,332,80771,1,0,0:0:0:0:
312,312,80989,6,0,B|432:220|428:208|428:208|104:268|104:268|176:176,1,577.500022029878,8|0,0:0|0:0,0:0:0:0:
180,176,82293,6,0,B|348:68|388:72|400:348|400:348|216:320,1,577.500022029878,8|0,0:0|0:0,0:0:0:0:
216,336,83597,6,0,B|408:96|408:96|204:76|112:104,1,577.500022029878,8|0,0:0|0:0,0:0:0:0:
112,120,84902,6,0,B|108:264|144:320|144:320|236:168|236:168|288:200|304:348,1,577.500022029878,8|0,0:0|0:0,0:0:0:0:
256,192,86206,12,0,90119,0:0:0:0:
