osu file format v14

[General]
AudioFilename: audio.mp3
AudioLeadIn: 0
PreviewTime: 35
Countdown: 1
SampleSet: Soft
StackLeniency: 0.3
Mode: 0
LetterboxInBreaks: 0
WidescreenStoryboard: 0

[Editor]
Bookmarks: 75517
DistanceSpacing: 1
BeatDivisor: 4
GridSize: 16
TimelineZoom: 1

[Metadata]
Title:Rude Buster
TitleUnicode:Rude Buster
Artist:toby fox
ArtistUnicode:toby fox
Creator:Duskyui
Version:The Power of Precision Shines Within You
Source:DELTARUNE
Tags:battle theme fight soundtrack radiation
BeatmapID:1824877
BeatmapSetID:873003

[Difficulty]
HPDrainRate:5.5
CircleSize:6
OverallDifficulty:9
ApproachRate:9.7
SliderMultiplier:2.2
SliderTickRate:1

[Events]
//Background and Video events
0,0,"delta_rune.png",0,0
//Break Periods
//Storyboard Layer 0 (Background)
//Storyboard Layer 1 (Fail)
//Storyboard Layer 2 (Pass)
//Storyboard Layer 3 (Foreground)
//Storyboard Sound Samples

[TimingPoints]
89,428.571428571429,4,2,0,60,1,0
6303,-100,4,2,0,60,0,0
13160,-100,4,2,0,60,0,0
41231,-133.333333333333,4,2,0,60,0,0
44231,-66.6666666666667,4,2,0,60,0,0
44660,-133.333333333333,4,2,0,60,0,0
48089,-80,4,2,0,60,0,0
73803,-100,4,2,0,60,0,0
82374,-100,4,2,0,20,0,0
85803,-100,4,2,0,5,0,0

[HitObjects]
481,226,89,6,0,L|470:341,1,110
469,346,410,5,0,0:0:0:0:
415,331,517,1,2,0:0:0:0:
385,297,624,1,0,0:0:0:0:
377,270,731,1,0,0:0:0:0:
406,222,839,2,0,L|416:112,1,110
293,167,1160,5,2,0:0:0:0:
347,157,1267,1,0,0:0:0:0:
269,112,1374,2,0,P|223:122|188:187,1,110,2|2,0:0|0:0,0:0:0:0:
140,336,1803,6,0,L|132:227,1,110
132,219,2124,5,0,0:0:0:0:
80,199,2231,1,2,0:0:0:0:
58,160,2339,1,0,0:0:0:0:
59,132,2446,1,0,0:0:0:0:
105,90,2553,2,0,B|164:73|156:107|216:98,1,110
272,72,2874,5,2,0:0:0:0:
215,37,2981,1,0,0:0:0:0:
308,9,3089,2,0,P|364:11|402:58,1,110,2|2,0:0|0:0,0:0:0:0:
246,249,3517,6,0,P|248:192|295:154,1,110
291,157,3839,5,0,0:0:0:0:
323,201,3946,1,2,0:0:0:0:
329,244,4053,1,0,0:0:0:0:
324,271,4160,1,0,0:0:0:0:
274,305,4267,2,0,B|255:300|238:309|238:309|200:280|158:289,1,110
68,260,4589,5,2,0:0:0:0:
120,222,4696,1,0,0:0:0:0:
107,317,4803,2,0,P|77:339|2:324,1,110,2|2,0:0|0:0,0:0:0:0:
178,229,5231,6,0,P|203:238|231:237,1,55,2|0,0:0|0:0,0:0:0:0:
120,222,5446,1,2,0:0:0:0:
120,222,5553,5,2,0:0:0:0:
77,171,5660,1,0,0:0:0:0:
91,123,5767,1,0,0:0:0:0:
117,103,5874,1,0,0:0:0:0:
135,105,5981,2,0,P|77:90|59:34,1,110,2|0,0:0|0:0,0:0:0:0:
235,53,6303,5,0,0:0:0:0:
182,65,6410,1,0,0:0:0:0:
265,112,6517,2,0,P|287:118|324:104,1,55,2|0,0:0|0:0,0:0:0:0:
388,27,6731,2,0,P|364:29|333:54,1,55,2|0,0:0|0:0,0:0:0:0:
415,180,6946,6,0,L|425:298,1,110
425,300,7267,5,0,0:0:0:0:
462,344,7374,1,2,0:0:0:0:
420,357,7481,1,0,0:0:0:0:
394,355,7589,1,0,0:0:0:0:
365,303,7696,2,0,P|318:283|249:317,1,110
136,373,8017,5,2,0:0:0:0:
193,378,8124,1,0,0:0:0:0:
119,315,8231,2,0,P|90:314|60:328,1,55,2|0,0:0|0:0,0:0:0:0:
4,378,8446,1,2,0:0:0:0:
112,195,8660,6,0,P|173:186|226:222,1,110
220,214,8981,5,0,0:0:0:0:
277,188,9089,1,2,0:0:0:0:
251,151,9196,1,0,0:0:0:0:
225,143,9303,1,0,0:0:0:0:
305,140,9410,2,0,B|350:139|365:92|365:92|347:89|333:99,1,110
431,195,9731,5,2,0:0:0:0:
402,141,9839,1,0,0:0:0:0:
385,235,9946,2,0,P|414:252|445:255,1,55,2|0,0:0|0:0,0:0:0:0:
474,151,10160,1,2,0:0:0:0:
287,32,10374,6,0,P|245:67|191:70,1,110
182,69,10696,5,0,0:0:0:0:
123,125,10803,1,2,0:0:0:0:
79,124,10910,1,0,0:0:0:0:
57,108,11017,1,0,0:0:0:0:
31,35,11124,2,0,P|66:18|145:34,1,110
35,160,11446,5,2,0:0:0:0:
19,223,11553,1,0,0:0:0:0:
126,210,11660,2,0,P|94:200|61:209,1,55,2|0,0:0|0:0,0:0:0:0:
31,301,11874,1,2,0:0:0:0:
268,202,12089,6,0,L|264:147,1,55,2|0,0:0|0:0,0:0:0:0:
263,140,12303,5,0,0:0:0:0:
208,179,12410,1,2,0:0:0:0:
199,205,12517,1,0,0:0:0:0:
210,231,12624,1,0,0:0:0:0:
260,275,12731,1,0,0:0:0:0:
260,266,12838,6,0,P|230:251|151:283,1,110,2|0,0:0|0:0,0:0:0:0:
263,335,13160,5,0,0:0:0:0:
312,303,13267,1,0,0:0:0:0:
408,330,13374,2,0,L|415:385,1,55,2|0,0:0|0:0,0:0:0:0:
373,242,13589,2,0,L|366:297,1,55,2|0,0:0|0:0,0:0:0:0:
337,117,13803,6,0,P|291:74|234:76,1,110,4|0,0:0|0:0,0:0:0:0:
241,74,14124,5,2,0:0:0:0:
286,149,14231,1,2,0:0:0:0:
261,125,14339,1,2,0:0:0:0:
206,126,14446,1,2,0:0:0:0:
169,176,14553,2,0,P|115:208|62:195,1,110,2|2,0:0|0:0,0:0:0:0:
63,196,14874,5,0,0:0:0:0:
110,148,14981,1,0,0:0:0:0:
10,161,15089,2,0,P|-1:189|6:223,1,55,2|0,0:0|0:0,0:0:0:0:
106,73,15303,1,0,0:0:0:0:
106,73,15517,6,0,P|146:34|209:39,1,110,2|0,0:0|0:0,0:0:0:0:
279,82,15839,1,2,0:0:0:0:
255,28,15946,1,0,0:0:0:0:
280,89,16053,2,0,P|325:93|354:71,1,55,2|0,0:0|0:0,0:0:0:0:
351,18,16267,5,2,0:0:0:0:
398,61,16374,2,0,L|406:138,1,55,2|0,0:0|0:0,0:0:0:0:
418,216,16589,1,2,0:0:0:0:
465,173,16696,1,2,0:0:0:0:
465,173,16803,2,0,L|473:96,1,55
416,223,17017,2,0,L|421:277,1,55
512,251,17231,6,0,P|450:250|422:296,1,110,4|0,0:0|0:0,0:0:0:0:
367,356,17553,1,2,0:0:0:0:
346,364,17660,1,2,0:0:0:0:
307,361,17767,1,2,0:0:0:0:
264,326,17874,1,2,0:0:0:0:
247,256,17981,6,0,P|253:201|300:172,1,110,2|2,0:0|0:0,0:0:0:0:
303,232,18303,1,0,0:0:0:0:
161,199,18410,2,0,P|146:175|143:148,1,55,2|2,0:0|0:0,0:0:0:0:
213,84,18624,1,0,0:0:0:0:
273,91,18731,1,0,0:0:0:0:
39,157,18946,6,0,P|27:181|25:213,1,55,2|0,0:0|0:0,0:0:0:0:
61,258,19160,1,0,0:0:0:0:
120,230,19267,2,0,P|80:193|61:195,1,55,2|0,0:0|0:0,0:0:0:0:
0,261,19481,1,2,0:0:0:0:
0,261,19589,1,0,0:0:0:0:
114,300,19696,6,0,L|231:290,1,110,2|0,0:0|0:0,0:0:0:0:
192,353,20017,1,0,0:0:0:0:
192,353,20124,1,0,0:0:0:0:
252,359,20231,2,0,L|306:363,1,55,2|0,0:0|0:0,0:0:0:0:
305,286,20446,2,0,L|359:281,1,55,2|0,0:0|0:0,0:0:0:0:
458,376,20660,6,0,P|423:332|422:273,1,110,6|0,0:0|0:0,0:0:0:0:
463,228,20981,1,2,0:0:0:0:
471,207,21088,1,2,0:0:0:0:
467,168,21195,1,2,0:0:0:0:
433,125,21302,1,2,0:0:0:0:
361,120,21410,6,0,P|435:113|465:69,1,110,2|2,0:0|0:0,0:0:0:0:
470,31,21731,1,0,0:0:0:0:
417,6,21839,2,0,P|374:6|353:17,1,55,2|2,0:0|0:0,0:0:0:0:
312,64,22053,1,0,0:0:0:0:
361,120,22160,2,0,P|388:126|421:119,1,55
316,43,22374,6,0,P|257:33|198:74,1,110,2|0,0:0|0:0,0:0:0:0:
181,121,22696,1,2,0:0:0:0:
137,74,22803,1,0,0:0:0:0:
184,127,22910,2,0,P|158:140|123:140,1,55,2|0,0:0|0:0,0:0:0:0:
56,102,23124,5,2,0:0:0:0:
23,54,23231,2,0,L|31:-3,1,55,2|0,0:0|0:0,0:0:0:0:
120,133,23446,5,2,0:0:0:0:
124,190,23553,1,2,0:0:0:0:
121,194,23660,2,0,L|62:187,1,55,2|0,0:0|0:0,0:0:0:0:
150,246,23874,2,0,L|209:239,1,55,2|0,0:0|0:0,0:0:0:0:
92,250,24089,6,0,P|59:296|69:349,1,110,6|0,0:0|0:0,0:0:0:0:
292,361,24410,1,2,0:0:0:0:
281,341,24517,1,2,0:0:0:0:
250,317,24624,1,2,0:0:0:0:
195,308,24731,1,2,0:0:0:0:
131,342,24839,6,0,P|162:300|237:298,1,110,2|2,0:0|0:0,0:0:0:0:
273,319,25160,1,0,0:0:0:0:
322,370,25267,1,0,0:0:0:0:
321,369,25374,6,0,P|348:377|374:373,1,55,2|2,0:0|0:0,0:0:0:0:
418,323,25589,1,0,0:0:0:0:
194,196,25803,6,0,P|213:222|239:232,1,55,2|0,0:0|0:0,0:0:0:0:
248,173,26017,1,0,0:0:0:0:
198,135,26124,2,0,L|133:140,1,55,2|0,0:0|0:0,0:0:0:0:
256,109,26339,2,0,L|320:114,1,55,2|0,0:0|0:0,0:0:0:0:
362,209,26553,6,0,B|345:150|379:158|370:98,1,110,2|0,0:0|0:0,0:0:0:0:
334,56,26874,1,0,0:0:0:0:
334,56,26981,1,0,0:0:0:0:
374,99,27089,2,0,P|394:108|443:106,1,55,2|0,0:0|0:0,0:0:0:0:
476,158,27303,2,0,P|493:145|516:101,1,55,2|0,0:0|0:0,0:0:0:0:
414,41,27517,5,6,0:0:0:0:
198,34,27839,1,2,0:0:0:0:
184,38,27946,5,2,0:0:0:0:
232,63,28053,1,2,0:0:0:0:
286,68,28160,1,2,0:0:0:0:
338,51,28267,1,2,0:0:0:0:
294,12,28374,5,2,0:0:0:0:
227,75,28481,2,0,L|236:136,1,55
368,239,28696,5,2,0:0:0:0:
346,149,28803,2,0,L|288:126,1,55
210,208,29017,6,0,P|266:186|308:231,1,110,2|0,0:0|0:0,0:0:0:0:
101,320,29553,1,2,0:0:0:0:
87,319,29660,5,2,0:0:0:0:
127,282,29767,1,2,0:0:0:0:
177,263,29874,1,2,0:0:0:0:
232,267,29981,1,2,0:0:0:0:
201,312,30089,5,2,0:0:0:0:
119,270,30196,2,0,L|112:211,1,55
278,320,30410,5,2,0:0:0:0:
200,370,30517,2,0,L|145:346,1,55
280,384,30731,6,0,P|335:359|333:298,1,110,2|0,0:0|0:0,0:0:0:0:
25,183,31267,1,2,0:0:0:0:
32,194,31374,5,2,0:0:0:0:
86,194,31481,1,2,0:0:0:0:
130,163,31588,1,2,0:0:0:0:
149,112,31695,1,2,0:0:0:0:
92,121,31802,5,2,0:0:0:0:
178,198,31910,2,0,P|204:207|235:200,1,55
317,283,32124,2,0,P|356:266|379:201,1,110,2|2,0:0|0:0,0:0:0:0:
336,164,32446,1,2,0:0:0:0:
469,56,32660,6,0,L|459:177,1,110,2|2,0:0|0:0,0:0:0:0:
397,152,32981,2,0,P|385:126|388:95,1,55,2|0,0:0|0:0,0:0:0:0:
512,203,33196,1,2,0:0:0:0:
512,203,33303,1,0,0:0:0:0:
464,245,33410,6,0,L|349:237,1,110,2|0,0:0|0:0,0:0:0:0:
315,342,33731,5,0,0:0:0:0:
317,348,33838,1,0,0:0:0:0:
362,313,33946,2,0,P|299:288|264:313,1,110
495,295,34374,5,6,0:0:0:0:
227,227,34696,1,2,0:0:0:0:
199,242,34803,5,2,0:0:0:0:
252,233,34910,1,2,0:0:0:0:
290,195,35017,1,2,0:0:0:0:
299,142,35124,1,2,0:0:0:0:
274,94,35231,5,2,0:0:0:0:
349,181,35339,2,0,P|377:193|416:191,1,55
183,169,35553,5,2,0:0:0:0:
295,147,35661,2,0,P|319:128|337:93,1,55
123,169,35874,5,2,0:0:0:0:
233,196,35981,1,0,0:0:0:0:
151,112,36089,6,0,P|95:112|58:150,1,110,2|0,0:0|0:0,0:0:0:0:
121,326,36410,1,2,0:0:0:0:
151,321,36517,5,2,0:0:0:0:
104,295,36624,1,2,0:0:0:0:
102,242,36731,1,2,0:0:0:0:
145,212,36838,1,2,0:0:0:0:
193,233,36945,5,2,0:0:0:0:
52,274,37053,2,0,P|17:267|-2:254,1,55
258,220,37267,5,2,0:0:0:0:
151,321,37375,2,0,P|139:354|141:377,1,55
360,344,37589,5,2,0:0:0:0:
267,229,37696,1,0,0:0:0:0:
304,371,37803,6,0,P|344:333|361:281,1,110,2|0,0:0|0:0,0:0:0:0:
320,163,38124,1,2,0:0:0:0:
288,171,38231,5,2,0:0:0:0:
329,205,38338,1,2,0:0:0:0:
383,211,38445,1,2,0:0:0:0:
430,185,38552,1,2,0:0:0:0:
455,136,38659,5,2,0:0:0:0:
291,113,38767,2,0,L|222:125,1,55
349,258,38981,5,2,0:0:0:0:
411,104,39089,2,0,L|455:50,1,55
255,52,39303,6,0,L|188:62,1,55,2|0,0:0|0:0,0:0:0:0:
349,26,39517,6,0,P|385:56|401:124,1,110,2|0,0:0|0:0,0:0:0:0:
295,118,39839,2,0,P|319:111|352:125,1,55,2|2,0:0|0:0,0:0:0:0:
294,191,40053,1,0,0:0:0:0:
247,156,40160,1,0,0:0:0:0:
205,119,40267,2,0,B|191:48|191:48|204:10,1,110,2|0,0:0|0:0,0:0:0:0:
25,69,40589,5,2,0:0:0:0:
100,100,40696,1,2,0:0:0:0:
133,26,40803,2,0,P|97:33|67:67,1,55,2|0,0:0|0:0,0:0:0:0:
45,129,41017,2,0,P|33:163|48:206,1,55,2|0,0:0|0:0,0:0:0:0:
166,359,41231,5,4,0:0:0:0:
166,359,41446,6,0,P|174:340|187:325,1,41.2500015735627,8|0,0:3|0:0,0:0:0:0:
241,303,41660,1,8,0:3:0:0:
241,303,41767,1,0,0:0:0:0:
290,332,41874,1,0,0:0:0:0:
347,326,41981,2,0,P|389:309|413:270,1,82.5000031471254,8|0,0:3|0:0,0:0:0:0:
344,350,42303,1,8,0:3:0:0:
396,330,42410,1,0,0:0:0:0:
430,286,42517,2,0,P|440:261|437:236,1,41.2500015735627,8|0,0:3|0:0,0:0:0:0:
349,219,42731,2,0,P|344:238|347:259,1,41.2500015735627,8|0,0:3|0:0,0:0:0:0:
440,126,42946,6,0,P|425:183|384:210,1,82.5000031471254,4|0,0:3|0:0,0:0:0:0:
403,198,43267,1,0,0:0:0:0:
357,161,43374,1,8,0:3:0:0:
357,161,43481,1,0,0:0:0:0:
301,179,43589,1,0,0:0:0:0:
255,142,43696,2,0,P|208:142|188:189,1,82.5000031471254,8|0,0:3|0:0,0:0:0:0:
189,227,44017,1,8,0:3:0:0:
189,227,44124,1,0,0:0:0:0:
131,195,44231,6,0,B|128:192|128:192|132:191|132:191|128:188|128:188|132:187|132:187|128:185|128:185|132:184|132:184|127:182|127:182|131:181|131:181|127:178|127:178|131:177|131:177|127:175|127:175|131:174|131:174|127:172|127:172|130:171|130:171|126:169|126:169|130:168|130:168|126:166|126:166|130:165|130:165|126:163|126:163|130:162|130:162|125:160|125:160|129:159|129:159|125:157|125:157|129:156|129:156|125:153|125:153|129:152|129:152|125:150|125:150|129:149|129:149|124:147|124:147|128:147|128:147|124:143|124:143|128:143|128:143|124:140|124:140|128:140|128:140|123:137|123:137|126:137|126:137|125:128,1,165.000006294251,8|0,0:3|0:0,0:0:0:0:
246,56,44660,6,0,P|218:88|152:87,1,82.5000031471254,4|0,0:3|0:0,0:0:0:0:
172,96,44981,1,0,0:0:0:0:
116,78,45089,1,8,0:3:0:0:
116,78,45196,1,0,0:0:0:0:
105,21,45303,1,0,0:0:0:0:
49,3,45410,2,0,L|42:89,1,82.5000031471254,8|0,0:3|0:0,0:0:0:0:
120,179,45731,1,8,0:3:0:0:
81,132,45838,1,0,0:0:0:0:
23,139,45945,1,4,0:3:0:0:
128,248,46160,1,8,0:3:0:0:
128,248,46267,1,0,0:0:0:0:
178,275,46374,6,0,P|201:277|225:266,1,41.2500015735627,8|0,0:3|0:0,0:0:0:0:
185,350,46589,1,0,0:0:0:0:
135,377,46696,6,0,P|112:379|88:368,1,41.2500015735627,8|0,0:3|0:0,0:0:0:0:
123,317,46910,1,0,0:0:0:0:
137,314,47017,1,0,0:0:0:0:
193,341,47124,6,0,P|241:349|286:334,1,82.5000031471254,8|0,0:3|0:0,0:0:0:0:
314,295,47446,1,0,0:0:0:0:
318,279,47553,1,0,0:0:0:0:
336,357,47660,2,0,P|358:362|386:356,1,41.2500015735627,8|0,0:3|0:0,0:0:0:0:
435,315,47874,1,2,0:0:0:0:
403,267,47981,1,2,0:0:0:0:
456,153,48089,6,0,B|464:111|505:125|505:125|499:172|444:143,1,137.5,4|0,0:0|0:0,0:0:0:0:
399,115,48410,1,0,0:0:0:0:
446,70,48517,2,0,P|481:60|523:69,1,68.75
386,58,48731,1,2,0:0:0:0:
332,42,48839,1,2,0:0:0:0:
243,123,48946,6,0,B|303:140|333:101|333:101|315:112|293:109,1,137.5,4|0,0:0|0:0,0:0:0:0:
236,182,49267,1,0,0:0:0:0:
301,185,49374,2,0,P|332:178|371:154,1,68.75
133,43,49589,1,2,0:0:0:0:
120,103,49696,1,2,0:0:0:0:
173,226,49803,6,0,P|180:195|98:179,1,137.5,4|0,0:0|0:0,0:0:0:0:
46,258,50124,2,0,P|65:247|128:258,1,68.75,2|0,0:0|0:0,0:0:0:0:
156,287,50285,1,0,0:0:0:0:
156,287,50339,2,0,P|175:298|238:287,1,68.75,2|0,0:0|0:0,0:0:0:0:
137,350,50553,6,0,L|56:347,1,68.75,2|0,0:0|0:0,0:0:0:0:
0,336,50767,2,0,L|81:333,1,68.75,2|0,0:0|0:0,0:0:0:0:
297,285,50981,2,0,L|228:287,1,68.75,2|0,0:0|0:0,0:0:0:0:
195,341,51196,2,0,L|264:343,1,68.75,2|0,0:0|0:0,0:0:0:0:
345,235,51410,6,0,B|391:169|369:94|286:98|278:152|291:181,1,206.25,2|0,0:0|0:0,0:0:0:0:
341,325,51839,1,0,0:0:0:0:
341,325,51946,6,0,P|399:283|456:318,1,137.5,2|0,0:0|0:0,0:0:0:0:
402,345,52267,1,0,0:0:0:0:
412,226,52374,2,0,B|417:205|417:205|416:172|416:172|423:187,2,68.75,2|0|2,0:0|0:0|0:0,0:0:0:0:
468,245,52696,1,0,0:0:0:0:
507,195,52803,2,0,P|506:144|463:60,1,137.5,2|0,0:0|0:0,0:0:0:0:
416,35,53124,1,0,0:0:0:0:
319,97,53231,6,0,L|387:90,1,68.75,2|0,0:0|0:0,0:0:0:0:
416,35,53446,2,0,L|348:28,1,68.75,2|0,0:0|0:0,0:0:0:0:
326,156,53660,1,2,0:0:0:0:
274,172,53767,1,2,0:0:0:0:
220,160,53874,1,2,0:0:0:0:
184,88,53981,6,0,L|194:13,1,68.75,2|0,0:3|0:0,0:0:0:0:
135,126,54196,2,0,L|125:51,1,68.75,2|0,0:3|0:0,0:0:0:0:
193,223,54410,2,0,L|222:153,1,68.75,2|0,0:3|0:0,0:0:0:0:
255,279,54624,1,2,0:0:0:0:
264,210,54731,1,2,0:0:0:0:
58,364,54946,5,6,0:0:0:0:
90,372,55053,1,0,0:0:0:0:
124,366,55160,1,0,0:0:0:0:
151,345,55267,1,2,0:0:0:0:
122,291,55374,5,2,0:0:0:0:
148,316,55481,1,0,0:0:0:0:
183,329,55588,1,0,0:0:0:0:
221,325,55695,1,2,0:0:0:0:
258,270,55803,5,2,0:0:0:0:
315,255,55910,1,0,0:0:0:0:
375,264,56017,1,2,0:0:0:0:
425,302,56124,1,0,0:0:0:0:
438,366,56231,5,2,0:0:0:0:
399,305,56338,1,2,0:0:0:0:
381,236,56445,1,2,0:0:0:0:
387,165,56552,1,2,0:0:0:0:
418,106,56660,6,0,P|442:83|488:73,1,68.75,6|0,0:0|0:0,0:0:0:0:
315,70,56874,1,0,0:0:0:0:
341,8,56981,1,2,0:0:0:0:
278,118,57089,2,0,P|245:108|220:84,1,68.75,2|0,0:0|0:0,0:0:0:0:
306,178,57303,1,0,0:0:0:0:
306,178,57410,1,2,0:0:0:0:
309,182,57517,5,2,0:0:0:0:
251,202,57624,1,0,0:0:0:0:
190,195,57731,1,2,0:0:0:0:
137,162,57838,1,0,0:0:0:0:
100,107,57946,5,2,0:0:0:0:
156,160,58053,1,2,0:0:0:0:
137,236,58160,1,2,0:0:0:0:
66,269,58267,1,2,0:0:0:0:
6,213,58374,6,0,P|10:176|38:139,1,68.75,6|0,0:0|0:0,0:0:0:0:
100,107,58589,1,2,0:0:0:0:
185,143,58696,2,0,P|214:81|278:88,1,137.5,2|0,0:0|0:0,0:0:0:0:
331,159,59017,1,0,0:0:0:0:
396,158,59124,2,0,P|448:117|440:52,1,137.5,6|0,0:0|0:0,0:0:0:0:
380,20,59446,2,0,P|369:45|382:89,1,68.75,2|0,0:0|0:0,0:0:0:0:
490,189,59660,2,0,B|511:218|511:218|493:331,1,137.5,2|0,0:0|0:0,0:0:0:0:
274,278,60089,6,0,P|333:238|396:263,1,137.5,6|0,0:0|0:0,0:0:0:0:
396,263,60410,1,0,0:0:0:0:
342,304,60517,1,2,0:0:0:0:
342,304,60624,2,0,P|326:327|326:375,1,68.75
181,235,60839,6,0,B|123:206|91:247|101:291|126:300|147:288,1,137.5,2|0,0:0|0:0,0:0:0:0:
95,179,61160,5,0,0:0:0:0:
39,163,61267,1,0,0:0:0:0:
52,224,61374,1,0,0:0:0:0:
52,224,61481,1,0,0:0:0:0:
80,122,61589,1,0,0:0:0:0:
80,122,61696,1,0,0:0:0:0:
156,166,61803,6,0,B|245:189|236:139|309:164,1,137.5,4|0,0:0|0:0,0:0:0:0:
351,187,62124,1,0,0:0:0:0:
308,75,62231,2,0,P|278:53|238:54,1,68.75,2|0,0:0|0:0,0:0:0:0:
362,35,62446,2,0,P|398:31|432:52,1,68.75,2|0,0:0|0:0,0:0:0:0:
359,245,62660,2,0,B|348:246|348:246|315:237,2,34.375,2|0|0,0:0|0:0|0:0,0:0:0:0:
424,182,62874,5,2,0:0:0:0:
435,235,62981,2,0,B|451:308|386:287|412:373,1,137.5,2|0,0:0|0:0,0:0:0:0:
464,335,63303,1,2,0:0:0:0:
488,280,63410,1,2,0:0:0:0:
359,245,63517,6,0,P|274:255|232:315,1,137.5,4|0,0:0|0:0,0:0:0:0:
237,351,63839,1,0,0:0:0:0:
190,273,63946,2,0,P|183:243|147:209,1,68.75,2|0,0:0|0:0,0:0:0:0:
243,210,64160,2,0,P|249:179|286:145,1,68.75,2|0,0:0|0:0,0:0:0:0:
129,270,64374,2,0,L|55:262,1,68.75,2|0,0:0|0:0,0:0:0:0:
56,271,64589,1,2,0:0:0:0:
93,204,64696,2,0,P|101:167|89:129,1,68.75,2|0,0:0|0:0,0:0:0:0:
25,201,64910,2,0,B|-1:259|56:286|23:356,1,137.5,2|0,0:0|0:0,0:0:0:0:
114,380,65231,5,6,0:0:0:0:
155,335,65338,1,0,0:0:0:0:
215,327,65445,1,0,0:0:0:0:
267,358,65552,1,2,0:0:0:0:
332,342,65660,5,2,0:0:0:0:
395,360,65767,1,0,0:0:0:0:
457,335,65874,1,0,0:0:0:0:
489,277,65981,1,2,0:0:0:0:
424,248,66089,5,2,0:0:0:0:
402,254,66196,1,0,0:0:0:0:
386,270,66303,1,2,0:0:0:0:
378,292,66410,1,2,0:0:0:0:
397,348,66517,5,0,0:0:0:0:
420,291,66624,1,2,0:0:0:0:
402,232,66731,1,2,0:0:0:0:
356,191,66838,1,2,0:0:0:0:
297,179,66946,6,0,P|265:179|229:193,1,68.75,6|0,0:0|0:0,0:0:0:0:
187,258,67160,1,0,0:0:0:0:
165,145,67267,6,0,P|149:117|118:92,1,68.75,6|0,0:0|0:0,0:0:0:0:
60,103,67481,1,0,0:0:0:0:
219,122,67589,6,0,P|270:70|178:59,1,206.25,6|0,0:0|0:0,0:0:0:0:
306,139,68017,5,0,0:0:0:0:
313,142,68071,1,0,0:0:0:0:
321,145,68124,1,0,0:0:0:0:
330,146,68178,1,0,0:0:0:0:
339,146,68231,2,0,P|367:135|388:95,1,68.75
347,55,68446,1,0,0:0:0:0:
347,55,68553,1,0,0:0:0:0:
447,102,68660,6,0,L|461:250,1,137.5,4|0,0:0|0:0,0:0:0:0:
460,248,68981,1,2,0:0:0:0:
396,275,69089,1,0,0:0:0:0:
396,275,69196,1,2,0:0:0:0:
328,257,69303,1,2,0:0:0:0:
388,206,69410,2,0,B|395:304|395:304|352:332,1,137.5,2|0,0:0|0:0,0:0:0:0:
217,311,69731,1,0,0:0:0:0:
148,322,69839,1,0,0:0:0:0:
239,372,69946,2,0,P|281:327|250:258,1,137.5,2|0,0:0|0:0,0:0:0:0:
19,199,70374,5,6,0:0:0:0:
82,217,70481,1,2,0:0:0:0:
147,201,70588,1,2,0:0:0:0:
195,153,70696,2,0,P|264:122|299:133,1,68.75,2|0,0:0|0:0,0:0:0:0:
245,197,70910,2,0,P|278:203|306:223,1,68.75,2|0,0:0|0:0,0:0:0:0:
131,132,71124,1,0,0:0:0:0:
131,132,71178,1,0,0:0:0:0:
131,132,71231,6,0,P|110:103|106:66,1,68.75,2|0,0:0|0:0,0:0:0:0:
145,14,71446,1,2,0:0:0:0:
193,62,71553,1,0,0:0:0:0:
250,25,71660,2,0,P|277:14|319:17,1,68.75
362,280,71874,1,0,0:0:0:0:
362,280,71981,1,0,0:0:0:0:
308,241,72089,5,6,0:0:0:0:
320,201,72196,1,0,0:0:0:0:
347,171,72303,1,0,0:0:0:0:
385,155,72410,1,2,0:0:0:0:
473,129,72517,5,6,0:0:0:0:
435,94,72624,1,0,0:0:0:0:
390,78,72731,1,0,0:0:0:0:
341,85,72838,1,2,0:0:0:0:
339,165,72946,5,6,0:0:0:0:
330,91,73053,1,0,0:0:0:0:
269,49,73160,1,0,0:0:0:0:
199,68,73267,1,2,0:0:0:0:
196,141,73374,5,6,0:0:0:0:
112,186,73481,1,0,0:0:0:0:
26,148,73588,1,0,0:0:0:0:
3,56,73695,1,2,0:0:0:0:
96,0,73803,6,0,L|103:118,1,110,6|0,0:0|0:0,0:0:0:0:
187,274,74124,2,0,P|190:244|204:220,1,55,2|0,0:0|0:0,0:0:0:0:
285,209,74339,2,0,P|295:232|324:252,1,55,2|0,0:0|0:0,0:0:0:0:
247,343,74553,2,0,L|129:338,1,110,2|0,0:0|0:0,0:0:0:0:
238,176,74874,1,2,0:0:0:0:
428,320,75089,6,0,L|435:206,1,110,2|0,0:0|0:0,0:0:0:0:
479,148,75410,5,2,0:0:0:0:
512,384,75517,1,4,0:0:0:0:
