osu file format v14

[General]
AudioFilename: audio.mp3
AudioLeadIn: 0
PreviewTime: 35
Countdown: 1
SampleSet: Soft
StackLeniency: 0.2
Mode: 0
LetterboxInBreaks: 0
WidescreenStoryboard: 1

[Editor]
Bookmarks: 75517
DistanceSpacing: 1.5
BeatDivisor: 4
GridSize: 16
TimelineZoom: 1

[Metadata]
Title:Rude Buster
TitleUnicode:Rude Buster
Artist:toby fox
ArtistUnicode:toby fox
Creator:Duskyui
Version:Insane
Source:DELTARUNE
Tags:battle theme fight soundtrack radiation
BeatmapID:1827226
BeatmapSetID:873003

[Difficulty]
HPDrainRate:5.5
CircleSize:4.6
OverallDifficulty:7.7
ApproachRate:9
SliderMultiplier:1.9
SliderTickRate:1

[Events]
//Background and Video events
0,0,"delta_rune.png",0,0
//Break Periods
//Storyboard Layer 0 (Background)
//Storyboard Layer 1 (Fail)
//Storyboard Layer 2 (Pass)
//Storyboard Layer 3 (Foreground)
//Storyboard Sound Samples

[TimingPoints]
89,428.571428571429,4,2,0,60,1,0
41231,-133.333333333333,4,2,0,60,0,0
47874,-100,4,2,0,60,0,0
73803,-100,4,2,0,60,0,0
82374,-100,4,2,0,20,0,0
85803,-100,4,2,0,5,0,0

[HitObjects]
117,171,89,6,0,P|135:208|127:267,1,95
127,268,410,1,0,0:0:0:0:
60,285,517,1,0,0:0:0:0:
53,291,624,2,0,P|44:316|48:344,1,47.5
112,356,839,2,0,L|212:348,1,95
263,290,1160,1,0,0:0:0:0:
276,291,1267,1,0,0:0:0:0:
275,359,1374,2,0,L|369:366,1,95
491,295,1803,6,0,P|498:254|475:199,1,95
473,199,2124,1,0,0:0:0:0:
402,190,2231,1,0,0:0:0:0:
402,190,2339,2,0,P|389:161|388:133,1,47.5
332,204,2553,2,0,P|304:244|255:261,1,95
185,226,2874,1,0,0:0:0:0:
190,215,2981,1,0,0:0:0:0:
251,178,3089,1,0,0:0:0:0:
36,195,3303,1,0,0:0:0:0:
36,195,3517,6,0,P|84:196|126:156,1,95
122,161,3839,1,0,0:0:0:0:
61,129,3946,1,0,0:0:0:0:
61,129,4053,2,0,P|34:109|23:87,1,47.5
108,43,4267,2,0,P|160:41|197:76,1,95
215,134,4589,1,0,0:0:0:0:
215,134,4696,1,0,0:0:0:0:
273,94,4803,2,0,P|322:78|367:102,1,95
288,221,5231,6,0,L|166:210,1,95
102,237,5553,2,0,L|224:226,1,95
238,305,5874,1,0,0:0:0:0:
238,304,5981,2,0,P|274:332|321:334,1,95
388,304,6303,1,0,0:0:0:0:
391,291,6410,1,0,0:0:0:0:
449,343,6517,1,0,0:0:0:0:
401,209,6731,1,0,0:0:0:0:
401,209,6946,6,0,P|395:161|426:115,1,95
424,118,7267,1,0,0:0:0:0:
493,92,7374,1,0,0:0:0:0:
493,92,7481,2,0,P|506:67|506:42,1,47.5
440,17,7696,2,0,L|338:24,1,95
308,84,8017,1,0,0:0:0:0:
308,84,8124,1,0,0:0:0:0:
260,136,8231,2,0,L|165:129,1,95
66,25,8660,6,0,P|117:22|158:52,1,95
157,52,8981,1,0,0:0:0:0:
99,96,9089,1,0,0:0:0:0:
90,99,9196,2,0,P|79:124|79:150,1,47.5
128,197,9410,2,0,L|223:204,1,95
260,270,9731,1,0,0:0:0:0:
260,270,9839,1,0,0:0:0:0:
208,319,9946,1,0,0:0:0:0:
233,114,10160,1,0,0:0:0:0:
233,114,10374,6,0,P|263:149|309:162,1,95
314,161,10696,1,0,0:0:0:0:
383,136,10803,1,0,0:0:0:0:
383,136,10910,2,0,L|377:201,1,47.5
436,225,11124,2,0,L|446:337,1,95
389,366,11446,1,0,0:0:0:0:
389,366,11553,1,0,0:0:0:0:
349,306,11660,2,0,P|300:286|249:300,1,95
143,377,12089,6,0,P|161:337|153:281,1,95
111,204,12410,2,0,P|110:247|140:295,1,95
187,226,12731,1,0,0:0:0:0:
169,156,12839,2,0,B|116:132|116:132|73:143,1,95
38,198,13160,1,0,0:0:0:0:
38,198,13267,1,0,0:0:0:0:
7,133,13374,2,0,L|16:29,1,95
254,204,13803,6,0,L|245:100,1,95
245,103,14124,1,0,0:0:0:0:
192,54,14231,2,0,L|200:1,2,47.5
266,35,14553,2,0,P|323:26|370:49,1,95
405,106,14874,1,0,0:0:0:0:
405,106,14981,2,0,P|348:123|321:170,1,95
343,229,15303,1,0,0:0:0:0:
343,229,15517,6,0,L|442:239,1,95
377,307,15839,2,0,L|278:317,1,95
151,358,16267,5,0,0:0:0:0:
97,306,16374,2,0,P|147:284|194:294,1,95
192,294,16696,1,0,0:0:0:0:
151,358,16803,2,0,L|253:376,2,95
20,368,17553,5,0,0:0:0:0:
20,368,17660,2,0,P|33:343|33:313,1,47.5
14,256,17874,1,0,0:0:0:0:
80,230,17981,2,0,L|185:242,1,95
151,155,18303,1,0,0:0:0:0:
142,156,18410,2,0,L|42:166,1,95
0,118,18731,1,0,0:0:0:0:
231,180,18946,6,0,P|254:143|240:82,1,95
81,52,19267,2,0,L|186:64,1,95
185,63,19696,6,0,P|232:25|291:39,1,95
333,82,20017,1,0,0:0:0:0:
335,91,20124,1,0,0:0:0:0:
337,100,20231,2,0,L|443:110,1,95
511,160,20660,6,0,P|459:172|428:222,1,95
431,212,20981,1,0,0:0:0:0:
475,268,21089,2,0,P|493:248|499:226,2,47.5
404,279,21410,2,0,L|298:272,1,95
262,331,21731,1,0,0:0:0:0:
262,331,21839,2,0,L|167:337,1,95
99,302,22160,1,0,0:0:0:0:
99,302,22374,6,0,P|153:286|176:238,1,95
120,199,22696,2,0,L|111:94,1,95
257,71,23124,5,0,0:0:0:0:
320,102,23231,2,0,P|281:138|230:136,1,95
185,94,23553,1,0,0:0:0:0:
185,94,23660,2,0,L|194:-11,2,95
391,40,24410,5,0,0:0:0:0:
391,40,24517,2,0,P|361:17|340:14,1,47.5
345,94,24731,1,0,0:0:0:0:
345,94,24839,2,0,L|441:91,1,95
474,158,25160,1,0,0:0:0:0:
474,157,25267,2,0,L|379:159,1,95
307,160,25589,1,0,0:0:0:0:
307,160,25803,6,0,P|346:180|367:229,1,95
320,278,26124,2,0,L|216:269,1,95
215,268,26553,6,0,P|175:293|130:283,1,95
85,229,26874,1,0,0:0:0:0:
85,229,26981,1,0,0:0:0:0:
85,229,27089,2,0,L|77:173,1,47.5
15,150,27303,2,0,L|23:94,1,47.5
77,58,27517,6,0,P|131:37|175:48,1,95
223,86,27839,5,0,0:0:0:0:
224,97,27946,1,0,0:0:0:0:
226,109,28053,1,0,0:0:0:0:
227,121,28160,1,0,0:0:0:0:
228,133,28267,1,0,0:0:0:0:
183,180,28374,2,0,B|277:176,1,95
328,257,28696,2,0,B|233:253,1,95
356,179,29017,1,0,0:0:0:0:
282,332,29231,6,0,P|336:353|380:342,1,95
420,294,29553,5,0,0:0:0:0:
419,283,29660,1,0,0:0:0:0:
417,271,29767,1,0,0:0:0:0:
416,259,29874,1,0,0:0:0:0:
415,247,29981,1,0,0:0:0:0:
365,203,30088,2,0,B|460:200,1,95
402,119,30410,2,0,B|307:115,1,95
433,49,30731,1,0,0:0:0:0:
260,192,30946,6,0,P|209:197|168:176,1,95
101,148,31267,5,0,0:0:0:0:
100,159,31374,1,0,0:0:0:0:
98,171,31481,1,0,0:0:0:0:
97,183,31588,1,0,0:0:0:0:
96,195,31695,1,0,0:0:0:0:
48,242,31802,2,0,B|142:245,1,95
198,318,32124,2,0,B|103:321,1,95
69,384,32446,1,0,0:0:0:0:
267,344,32660,6,0,P|269:295|235:254,1,95
339,299,32981,2,0,P|393:303|431:277,1,95
428,143,33410,5,0,0:0:0:0:
428,143,33517,2,0,P|407:177|407:195,1,47.5
479,217,33731,1,0,0:0:0:0:
477,208,33838,1,0,0:0:0:0:
476,200,33946,1,0,0:0:0:0:
333,167,34160,1,0,0:0:0:0:
333,167,34374,6,0,L|218:177,1,95
180,133,34695,5,0,0:0:0:0:
181,121,34802,1,0,0:0:0:0:
182,109,34909,1,0,0:0:0:0:
183,97,35016,1,0,0:0:0:0:
184,85,35123,1,0,0:0:0:0:
239,40,35231,2,0,P|257:29|311:31,2,47.5
308,90,35552,2,0,P|328:95|379:80,2,47.5
402,40,35874,1,0,0:0:0:0:
381,28,35981,1,0,0:0:0:0:
358,24,36088,1,0,0:0:0:0:
238,175,36410,5,0,0:0:0:0:
239,186,36517,1,0,0:0:0:0:
240,198,36624,1,0,0:0:0:0:
241,210,36731,1,0,0:0:0:0:
242,222,36838,1,0,0:0:0:0:
196,276,36946,2,0,P|180:289|126:297,2,47.5
254,371,37267,2,0,P|233:368|191:333,2,47.5
341,334,37588,1,0,0:0:0:0:
303,315,37695,1,0,0:0:0:0:
325,350,37802,1,0,0:0:0:0:
386,216,38124,5,0,0:0:0:0:
404,201,38231,1,0,0:0:0:0:
426,192,38338,1,0,0:0:0:0:
450,190,38445,1,0,0:0:0:0:
473,196,38552,1,0,0:0:0:0:
443,262,38660,2,0,P|427:283|425:313,2,47.5
495,312,38981,2,0,P|498:338|518:360,2,47.5
434,375,39303,1,0,0:0:0:0:
343,272,39517,6,0,P|282:248|239:264,1,95
201,301,39839,2,0,B|187:271|187:271|194:195,1,95
194,200,40160,1,0,0:0:0:0:
149,144,40267,2,0,L|137:22,1,95
78,0,40589,1,0,0:0:0:0:
63,68,40696,1,0,0:0:0:0:
131,49,40803,2,0,L|183:36,1,47.5
73,147,41017,2,0,L|21:134,1,47.5
123,242,41231,6,0,P|136:299|121:336,1,71.2500027179719
131,321,41553,1,0,0:0:0:0:
65,287,41660,2,0,P|46:282|28:284,1,35.625001358986
169,384,41981,6,0,P|211:344|251:338,1,71.2500027179719
294,337,42303,1,0,0:0:0:0:
294,337,42410,1,0,0:0:0:0:
347,383,42517,2,0,L|431:379,1,71.2500027179719
456,231,42946,6,0,P|422:266|423:310,1,71.2500027179719
419,294,43267,1,0,0:0:0:0:
489,301,43374,2,0,P|499:319|514:330,2,35.625001358986
336,261,43696,2,0,P|322:225|331:173,1,71.2500027179719
371,140,44017,1,0,0:0:0:0:
371,140,44124,1,0,0:0:0:0:
442,143,44231,2,0,L|523:150,1,71.2500027179719
359,1,44660,6,0,P|390:17|410:71,1,71.2500027179719
409,54,44981,1,0,0:0:0:0:
338,71,45089,2,0,P|315:77|300:88,1,35.625001358986
262,140,45303,1,0,0:0:0:0:
235,73,45410,2,0,P|202:51|155:54,1,71.2500027179719
102,66,45731,1,0,0:0:0:0:
90,71,45839,1,0,0:0:0:0:
129,131,45946,1,0,0:0:0:0:
50,251,46160,1,0,0:0:0:0:
50,251,46267,1,0,0:0:0:0:
50,251,46374,6,0,P|31:205|40:157,1,71.2500027179719
107,189,46696,2,0,P|128:144|170:118,1,71.2500027179719
191,189,47017,1,0,0:0:0:0:
191,189,47124,2,0,P|238:174|285:188,1,71.2500027179719
312,226,47446,1,0,0:0:0:0:
309,240,47553,1,0,0:0:0:0:
241,263,47660,1,0,0:0:0:0:
245,276,47767,1,0,0:0:0:0:
306,312,47874,2,0,L|363:307,1,47.5
273,380,48089,6,0,P|225:347|109:381,1,142.5
140,360,48517,1,0,0:0:0:0:
317,214,48731,2,0,L|364:218,1,47.5
435,262,48946,6,0,P|384:213|375:144,1,142.5
383,141,49374,1,0,0:0:0:0:
236,250,49589,2,0,L|188:254,1,47.5
144,200,49803,6,0,L|41:186,1,95
112,120,50124,2,0,L|215:106,1,95
317,214,50553,5,0,0:0:0:0:
484,183,50767,1,0,0:0:0:0:
259,161,50982,1,0,0:0:0:0:
422,213,51196,1,0,0:0:0:0:
433,49,51410,2,0,P|364:41|317:91,1,142.5
185,221,51946,6,0,L|177:121,1,95
101,182,52267,1,0,0:0:0:0:
101,182,52374,2,0,L|95:248,1,47.5
92,300,52589,1,0,0:0:0:0:
240,340,52803,2,0,P|205:301|159:293,1,95
172,368,53124,1,0,0:0:0:0:
172,368,53231,2,0,P|272:352|339:360,1,142.5
443,345,53767,2,0,P|421:324|387:317,1,47.5
409,181,53981,6,0,P|447:156|507:171,1,95
421,249,54410,2,0,P|375:240|344:205,1,95
321,47,54946,5,0,0:0:0:0:
327,69,55053,1,0,0:0:0:0:
329,93,55160,1,0,0:0:0:0:
326,116,55267,1,0,0:0:0:0:
276,161,55374,1,0,0:0:0:0:
270,183,55481,1,0,0:0:0:0:
268,207,55588,1,0,0:0:0:0:
271,230,55695,1,0,0:0:0:0:
324,281,55803,6,0,L|334:328,1,47.5
317,294,56017,2,0,L|327:341,1,47.5
207,317,56231,2,0,L|217:270,1,47.5
200,304,56445,2,0,L|210:257,1,47.5
152,169,56660,5,0,0:0:0:0:
130,160,56767,1,0,0:0:0:0:
106,155,56874,1,0,0:0:0:0:
84,155,56981,1,0,0:0:0:0:
17,176,57089,1,0,0:0:0:0:
35,161,57196,1,0,0:0:0:0:
52,143,57303,1,0,0:0:0:0:
63,124,57410,1,0,0:0:0:0:
36,56,57517,6,0,L|32:5,1,47.5
25,49,57731,2,0,L|21:-2,1,47.5
147,38,57946,2,0,L|143:89,1,47.5
136,45,58160,2,0,L|132:96,1,47.5
213,8,58374,5,0,0:0:0:0:
235,0,58481,1,0,0:0:0:0:
258,0,58588,1,0,0:0:0:0:
312,44,58696,2,0,L|413:54,1,95
415,55,59017,1,0,0:0:0:0:
469,9,59124,1,0,0:0:0:0:
320,112,59339,1,0,0:0:0:0:
340,180,59446,1,0,0:0:0:0:
246,91,59660,2,0,P|202:97|160:147,1,95
143,257,60089,6,0,P|197:230|285:254,1,142.5
281,252,60517,1,0,0:0:0:0:
327,305,60624,1,0,0:0:0:0:
477,271,60839,6,0,L|482:177,1,95
426,131,61160,1,0,0:0:0:0:
426,131,61267,1,0,0:0:0:0:
394,194,61374,2,0,L|399:288,1,95
512,368,61803,6,0,P|465:344|412:358,1,95
327,305,62231,2,0,P|273:317|219:296,1,95
140,209,62660,2,0,L|130:309,1,95
69,231,62981,2,0,L|59:136,1,95
96,74,63303,1,0,0:0:0:0:
99,59,63410,1,0,0:0:0:0:
149,121,63517,2,0,P|197:143|245:137,1,95
326,27,63946,6,0,L|315:132,1,95
412,161,64374,2,0,L|423:266,1,95
390,320,64696,2,0,P|336:332|282:311,1,95
150,167,65231,5,0,0:0:0:0:
172,173,65338,1,0,0:0:0:0:
191,187,65445,1,0,0:0:0:0:
205,206,65552,1,0,0:0:0:0:
143,249,65660,1,0,0:0:0:0:
121,255,65767,1,0,0:0:0:0:
102,269,65874,1,0,0:0:0:0:
88,288,65981,1,0,0:0:0:0:
110,360,66089,6,0,P|133:363|164:355,2,47.5
30,328,66410,2,0,L|40:223,1,95
103,203,66731,1,0,0:0:0:0:
103,203,66839,1,0,0:0:0:0:
43,164,66946,2,0,P|10:114|20:69,1,95
79,104,67267,2,0,P|123:116|166:97,1,95
190,29,67589,2,0,P|232:9|277:22,1,95
350,148,68017,6,0,L|347:187,3,23.75
343,153,68231,6,0,L|338:218,1,47.5
412,231,68446,2,0,L|417:296,1,47.5
365,329,68660,6,0,P|312:343|273:321,1,95
272,322,68981,1,0,0:0:0:0:
230,263,69089,1,0,0:0:0:0:
199,255,69196,1,0,0:0:0:0:
168,259,69303,1,0,0:0:0:0:
114,309,69410,2,0,B|119:381|119:381|133:347,1,95
71,186,69839,1,0,0:0:0:0:
48,255,69947,2,0,L|61:155,1,95
199,63,70374,5,0,0:0:0:0:
245,58,70481,1,0,0:0:0:0:
283,85,70588,1,0,0:0:0:0:
237,146,70696,2,0,P|179:157|139:134,1,95
251,236,71124,6,0,P|286:257|349:245,1,95
369,187,71446,1,0,0:0:0:0:
369,187,71553,1,0,0:0:0:0:
407,247,71660,1,0,0:0:0:0:
491,122,71874,2,0,P|494:99|486:71,1,47.5
420,107,72089,5,0,0:0:0:0:
417,130,72196,1,0,0:0:0:0:
423,153,72303,1,0,0:0:0:0:
436,172,72410,1,0,0:0:0:0:
497,220,72517,1,0,0:0:0:0:
508,240,72624,1,0,0:0:0:0:
512,263,72731,1,0,0:0:0:0:
509,286,72838,1,0,0:0:0:0:
447,329,72946,6,0,L|439:379,1,47.5
435,326,73160,2,0,L|427:376,1,47.5
367,277,73374,5,0,0:0:0:0:
303,245,73481,1,0,0:0:0:0:
233,242,73588,1,0,0:0:0:0:
167,270,73695,1,0,0:0:0:0:
120,322,73802,5,0,0:0:0:0:
7,220,74017,1,0,0:0:0:0:
7,220,74124,2,0,L|15:325,1,95
136,168,74553,6,0,P|125:90|73:162,1,190
75,207,75089,1,0,0:0:0:0:
138,241,75303,1,0,0:0:0:0:
294,186,75517,5,0,0:0:0:0:
