osu file format v14

[General]
AudioFilename: audio.mp3
AudioLeadIn: 0
PreviewTime: 111753
Countdown: 0
SampleSet: Soft
StackLeniency: 0.7
Mode: 2
LetterboxInBreaks: 0
WidescreenStoryboard: 0

[Editor]
Bookmarks: 35564,114923,167224,272394,296875
DistanceSpacing: 0.2
BeatDivisor: 16
GridSize: 32
TimelineZoom: 4.399997

[Metadata]
Title:Rude Buster (Camellia Remix)
TitleUnicode:Rude Buster (かめりあ Remix)
Artist:Toby Fox
ArtistUnicode:Toby Fox
Creator:Bunnrei
Version:A Tale of Light and Dark
Source:DELTARUNE
Tags:undertale battle theme remix cover don't forget english instrumental video game electronic kris susie ralsei deltacore -plus- ster osu_gangster chara cametek
BeatmapID:2504762
BeatmapSetID:1202751

[Difficulty]
HPDrainRate:4
CircleSize:4.2
OverallDifficulty:9.8
ApproachRate:9.8
SliderMultiplier:2
SliderTickRate:2

[Events]
//Background and Video events
0,0,"yes.jpg",0,0
//Break Periods
2,17764,20708
2,101085,103123
2,144557,146595
2,198896,205462
2,267726,270670
//Storyboard Layer 0 (Background)
//Storyboard Layer 1 (Fail)
//Storyboard Layer 2 (Pass)
//Storyboard Layer 3 (Foreground)
//Storyboard Layer 4 (Overlay)
//Storyboard Sound Samples

[TimingPoints]
2168,226.415094339623,4,2,98,20,1,0
2168,-133.333333333333,4,2,98,20,0,0
3074,226.415094339623,4,2,98,60,1,0
3074,-200,4,2,98,60,0,0
3130,-200,4,2,98,30,0,0
10319,-166.666666666667,4,2,98,45,0,0
15753,-166.666666666667,4,2,97,45,0,0
16545,-111.111111111111,4,2,97,60,0,0
16658,-111.111111111111,4,1,97,60,0,0
21187,-125,4,2,98,60,0,0
24809,-125,4,2,1,40,0,0
26621,-125,4,2,1,50,0,0
28432,-125,4,2,1,60,0,0
30243,-100,4,2,1,80,0,0
31036,-45.4545454545455,4,2,1,80,0,0
32055,-142.857142857143,4,2,1,80,0,0
32168,-142.857142857143,4,2,98,65,0,0
32960,-142.857142857143,4,2,1,65,0,0
33074,-142.857142857143,4,2,98,65,0,0
33866,-142.857142857143,4,2,1,65,0,0
33979,-142.857142857143,4,2,98,65,0,0
34772,-142.857142857143,4,2,1,65,0,0
34885,-142.857142857143,4,2,98,65,0,0
35451,-142.857142857143,4,2,1,65,0,0
35790,-142.857142857143,4,2,98,65,0,0
36583,-142.857142857143,4,2,1,65,0,0
36696,-142.857142857143,4,2,98,65,0,0
37489,-142.857142857143,4,2,1,65,0,0
37602,-142.857142857143,4,2,98,65,0,0
38394,-125,4,2,1,75,0,0
38507,-125,4,1,97,75,0,0
39300,-111.111111111111,4,1,1,80,0,0
44734,-111.111111111111,4,2,98,80,0,0
46545,-104.166666666667,4,1,1,90,0,1
46602,-104.166666666667,4,1,1,90,0,1
47451,-104.166666666667,4,1,5,90,0,1
47564,-104.166666666667,4,1,1,90,0,1
49262,-104.166666666667,4,1,5,90,0,1
49375,-104.166666666667,4,1,1,90,0,1
51074,-104.166666666667,4,1,5,90,0,1
51187,-104.166666666667,4,1,1,90,0,1
52432,-104.166666666667,4,1,5,90,0,1
52545,-104.166666666667,4,1,1,90,0,1
52885,-104.166666666667,4,1,5,90,0,1
52998,-104.166666666667,4,1,1,90,0,1
54696,-104.166666666667,4,1,5,90,0,1
54809,-104.166666666667,4,1,1,90,0,1
56507,-104.166666666667,4,1,5,90,0,1
56621,-104.166666666667,4,1,1,90,0,1
60017,-104.166666666667,4,1,1,90,0,0
60130,-104.166666666667,4,2,98,90,0,0
61036,-45.4545454545455,4,2,1,90,0,0
61489,-104.166666666667,4,2,1,90,0,0
64658,-45.4545454545455,4,2,1,90,0,0
65111,-100,4,2,1,90,0,0
66470,-100,4,2,98,75,0,0
68281,-117.647058823529,4,2,1,70,0,0
69866,-117.647058823529,4,1,5,70,0,0
69979,-117.647058823529,4,2,1,70,0,0
73489,-117.647058823529,4,1,5,70,0,0
73602,-117.647058823529,4,2,1,70,0,0
75526,-117.647058823529,4,2,1,75,0,0
77111,-117.647058823529,4,1,5,75,0,0
77224,-117.647058823529,4,2,1,75,0,0
80734,-117.647058823529,4,1,5,75,0,0
80847,-117.647058823529,4,2,1,75,0,0
82772,-111.111111111111,4,2,1,80,0,0
97375,-111.111111111111,4,2,69,60,0,0
103602,-125,4,2,98,60,0,0
104507,-125,4,1,1,60,0,0
106319,-111.111111111111,4,1,1,70,0,0
107224,-111.111111111111,4,1,1,80,0,0
108130,-100,4,1,1,80,0,0
109941,-100,4,2,98,80,0,0
111753,-104.166666666667,4,1,1,90,0,1
113338,-104.166666666667,4,1,6,90,0,1
113451,-104.166666666667,4,1,1,90,0,1
116960,-104.166666666667,4,1,6,90,0,1
117074,-104.166666666667,4,1,1,90,0,1
120583,-104.166666666667,4,1,6,90,0,1
120696,-104.166666666667,4,1,1,90,0,1
124206,-104.166666666667,4,1,6,90,0,1
124319,-104.166666666667,4,1,1,90,0,1
133489,-104.166666666667,4,2,98,90,0,0
134394,-104.166666666667,4,1,1,90,0,1
135300,-104.166666666667,4,2,98,90,0,0
136206,-104.166666666667,4,1,1,90,0,1
137111,-104.166666666667,4,2,98,90,0,0
138017,-104.166666666667,4,1,1,90,0,1
140734,-100,4,2,1,80,0,0
140847,-100,4,2,69,60,0,0
147074,-125,4,2,98,60,0,0
147979,-142.857142857143,4,2,1,80,0,0
148092,-142.857142857143,4,2,98,65,0,0
148885,-142.857142857143,4,2,1,65,0,0
148998,-142.857142857143,4,2,98,65,0,0
149790,-142.857142857143,4,2,1,65,0,0
149904,-142.857142857143,4,2,98,65,0,0
150696,-142.857142857143,4,2,1,65,0,0
150809,-142.857142857143,4,2,98,65,0,0
151375,-142.857142857143,4,2,1,65,0,0
151715,-142.857142857143,4,2,98,65,0,0
152507,-142.857142857143,4,2,1,65,0,0
152621,-142.857142857143,4,2,98,65,0,0
153413,-142.857142857143,4,2,1,65,0,0
153526,-142.857142857143,4,2,98,65,0,0
154319,-142.857142857143,4,2,1,75,0,0
154432,-142.857142857143,4,1,97,75,0,0
155224,-111.111111111111,4,1,1,80,0,0
160658,-111.111111111111,4,2,97,80,0,0
161111,-83.3333333333333,4,2,97,80,0,0
161451,-104.166666666667,4,2,1,80,0,0
162243,-104.166666666667,4,2,97,80,0,0
162470,-104.166666666667,4,1,1,90,0,1
168809,-104.166666666667,4,1,5,90,0,1
168923,-104.166666666667,4,1,1,90,0,1
176960,-45.4545454545455,4,2,1,90,0,0
177413,-111.111111111111,4,2,1,90,0,0
180583,-104.166666666667,4,1,1,90,0,1
184206,-45.4545454545455,4,2,1,90,0,0
184658,-111.111111111111,4,2,1,90,0,0
187828,-104.166666666667,4,1,1,90,0,1
190545,-100,4,2,1,90,0,1
191451,-100,4,2,1,90,0,0
191564,-100,4,2,69,60,0,0
195074,-100,4,2,69,45,0,0
205941,-100,4,2,1,25,0,0
206055,-100,4,2,69,45,0,0
209564,-250,4,2,96,20,0,0
216809,-250,4,2,96,25,0,0
227677,-200,4,2,96,40,0,0
234923,-166.666666666667,4,1,3,60,0,0
238545,-125,4,1,3,65,0,0
239451,-125,4,1,3,70,0,0
240357,-100,4,1,3,75,0,0
241262,-200,4,2,3,65,0,0
242168,-104.166666666667,4,1,3,80,0,1
258470,-166.666666666667,4,2,96,50,0,0
258583,-166.666666666667,4,2,96,40,0,0
263904,-166.666666666667,4,2,98,60,0,0
264017,-166.666666666667,4,2,69,40,0,0
271149,-166.666666666667,4,2,1,40,0,0
277375,-111.111111111111,4,1,1,60,0,0
278394,-125,4,2,1,60,0,0
278451,-125,4,2,98,60,0,0
283828,-100,4,2,1,80,0,0
285640,-111.111111111111,4,2,1,80,0,0
286319,-111.111111111111,4,2,1,60,0,0
286545,-111.111111111111,4,2,1,80,0,0
287224,-111.111111111111,4,2,1,60,0,0
287451,-111.111111111111,4,2,1,80,0,0
288130,-111.111111111111,4,2,1,60,0,0
288357,-111.111111111111,4,2,1,80,0,0
289941,-111.111111111111,4,2,1,60,0,0
290168,-111.111111111111,4,2,1,80,0,0
290847,-111.111111111111,4,2,1,60,0,0
291074,-111.111111111111,4,2,1,80,0,0
291753,-111.111111111111,4,2,1,60,0,0
291979,-111.111111111111,4,2,1,80,0,0
292092,-111.111111111111,4,2,98,80,0,0
292885,-104.166666666667,4,1,1,80,0,0
298319,-100,4,2,98,80,0,0
300130,-125,4,2,1,80,0,0
301941,-104.166666666667,4,1,97,80,0,0
303300,-104.166666666667,4,2,98,80,0,0
303753,-104.166666666667,4,1,1,90,0,1
308281,-104.166666666667,4,1,5,90,0,1
308394,-104.166666666667,4,1,1,90,0,1
309640,-104.166666666667,4,1,5,90,0,1
309753,-104.166666666667,4,1,1,90,0,1
316432,-104.166666666667,4,1,1,90,0,0
317451,-104.166666666667,4,2,98,90,0,0
318243,-104.166666666667,4,1,1,90,0,1
331828,-104.166666666667,4,2,98,90,0,1
332734,-111.111111111111,4,2,1,80,0,0
338168,-100,4,2,98,80,0,0
339979,-100,4,2,1,90,0,0
342583,-33.3333333333333,4,2,1,90,0,1
344904,-33.3333333333333,4,1,97,80,0,1
344960,-100,4,1,97,80,0,1
345470,-100,4,1,97,80,0,0

[Colours]
Combo1 : 0,128,255
Combo2 : 0,255,64
Combo3 : 255,0,128

[HitObjects]
230,317,2168,6,0,P|256:137|280:317,1,525.000020027161,2|0,0:0|0:0,0:0:0:0:
106,224,3074,6,0,L|256:224,2,150,6|0|0,0:0|0:0|0:0,0:0:0:0:
256,224,3979,2,0,L|106:224,1,150,2|0,0:0|0:0,0:0:0:0:
406,224,4658,6,0,L|256:224,2,150,2|0|0,0:0|0:0|0:0,0:0:0:0:
256,224,5564,1,0,0:0:0:0:
106,224,5790,2,0,L|256:224,1,150,2|0,0:0|0:0,0:0:0:0:
180,225,6243,2,0,P|128:186|182:150,1,150,0|0,0:0|0:0,0:0:0:0:
406,224,6696,6,0,L|256:224,2,150,2|0|0,0:0|0:0|0:0,0:0:0:0:
181,118,7602,2,0,L|331:118,1,150,2|0,0:0|0:0,0:0:0:0:
106,224,8281,6,0,L|224:224,1,100,2|0,0:0|0:0,0:0:0:0:
256,224,8621,2,0,L|106:224,1,150
256,224,9187,1,0,0:0:0:0:
406,224,9413,2,0,L|256:224,1,150,2|0,0:0|0:0,0:0:0:0:
181,118,9866,2,0,L|331:118,1,150,0|0,0:0|0:0,0:0:0:0:
64,288,10319,6,0,L|46:225,2,59.9999981689454,10|0|0,0:0|0:0|0:0,0:0:0:0:
148,208,10658,2,0,L|130:145,2,59.9999981689454,0|8|0,0:0|0:0|0:0,0:0:0:0:
233,146,10998,2,0,L|215:83,1,59.9999981689454,0|0,0:0|0:0,0:0:0:0:
301,82,11224,6,0,L|319:19,2,59.9999981689454,10|0|0,0:0|0:0|0:0,0:0:0:0:
216,114,11564,2,0,L|234:51,2,59.9999981689454,0|8|0,0:0|0:0|0:0,0:0:0:0:
301,319,11904,6,0,L|283:256,2,59.9999981689454,2|0|8,0:0|0:0|0:0,0:0:0:0:
385,239,12243,2,0,L|367:176,2,59.9999981689454,0|0|0,0:0|0:0|0:0,0:0:0:0:
470,177,12583,2,0,L|452:114,1,59.9999981689454,8|0,0:0|0:0,0:0:0:0:
369,116,12809,2,0,L|351:53,1,59.9999981689454,0|0,0:0|0:0,0:0:0:0:
268,206,13036,6,0,L|286:143,2,59.9999981689454,10|0|0,0:0|0:0|0:0,0:0:0:0:
184,126,13375,2,0,L|202:63,4,59.9999981689454,0|8|0|0|0,0:0|0:0|0:0|0:0|0:0,0:0:0:0:
449,288,13941,6,0,L|467:225,2,59.9999981689454,10|0|0,0:0|0:0|0:0,0:0:0:0:
352,235,14281,2,0,L|370:172,2,59.9999981689454,0|8|0,0:0|0:0|0:0,0:0:0:0:
256,204,14621,2,0,L|274:141,1,59.9999981689454,0|0,0:0|0:0,0:0:0:0:
176,261,14847,6,0,L|158:198,2,59.9999981689454,10|0|0,0:0|0:0|0:0,0:0:0:0:
273,208,15187,2,0,L|255:145,2,59.9999981689454,0|8|0,0:0|0:0|0:0,0:0:0:0:
369,177,15527,2,0,L|351:114,1,59.9999981689454,2|0,0:0|0:0,0:0:0:0:
225,113,15753,6,0,P|185:75|239:64,1,119.999996337891,12|0,0:0|0:0,0:0:0:0:
407,265,16206,2,0,P|466:202|407:175,1,179.999994506836,12|8,0:0|0:0,0:0:0:0:
361,177,16602,1,8,0:0:0:0:
134,244,16658,6,0,L|70:244,1,59.9999981689454,10|10,0:0|0:0,0:0:0:0:
226,192,16809,1,10,0:0:0:0:
378,244,16885,2,0,L|442:244,1,59.9999981689454,10|10,0:0|0:0,0:0:0:0:
286,192,17036,1,10,0:0:0:0:
134,244,17111,6,0,L|70:244,2,59.9999981689454,2|2|2,0:0|0:0|0:0,0:0:0:0:
286,192,17338,2,0,L|350:192,2,59.9999981689454,2|2|2,0:0|0:0|0:0,0:0:0:0:
16,120,17564,5,6,0:0:0:0:
256,319,21187,6,0,P|304:265|255:211,1,160,0|2,0:0|0:0,0:0:0:0:
156,208,21526,2,0,L|147:116,1,80,0|0,0:0|0:0,0:0:0:0:
271,95,21753,1,2,0:0:0:0:
171,75,21866,1,0,0:0:0:0:
299,234,21979,6,0,P|347:179|298:125,1,160,0|2,0:0|0:0,0:0:0:0:
178,109,22319,2,0,L|281:109,1,80,0|0,0:0|0:0,0:0:0:0:
386,165,22545,2,0,L|395:73,1,80,2|0,0:0|0:0,0:0:0:0:
265,224,22772,2,0,L|274:132,1,80,2|0,0:0|0:0,0:0:0:0:
402,131,22998,6,0,L|219:131,1,160,2|0,0:0|0:0,0:0:0:0:
110,131,23338,2,0,L|293:131,1,160,2|0,0:0|0:0,0:0:0:0:
170,235,23677,2,0,L|74:235,1,80,0|2,0:0|0:0,0:0:0:0:
401,341,23904,6,0,L|408:289,3,40,0|0|2|2,0:0|0:0|0:0|0:0,0:0:0:0:
256,256,24130,6,0,L|249:204,3,40,0|0|2|2,0:0|0:0|0:0|0:0,0:0:0:0:
105,301,24357,6,0,L|111:341,3,40,0|0|2|2,0:0|0:0|0:0|0:0,0:0:0:0:
261,216,24583,6,0,L|256:256,3,40,0|0|2|2,0:0|0:0|0:0|0:0,0:0:0:0:
401,341,24809,5,2,0:0:0:0:
240,203,25036,2,0,L|231:111,1,80,10|0,0:0|0:0,0:0:0:0:
400,341,25375,2,0,L|409:249,1,80,2|10,0:0|0:0,0:0:0:0:
172,270,25715,5,2,0:0:0:0:
252,261,25828,2,0,L|259:181,1,80,0|10,0:0|0:0,0:0:0:0:
340,270,26055,1,2,0:0:0:0:
252,261,26168,2,0,L|259:181,1,80,0|2,0:0|0:0,0:0:0:0:
172,270,26394,1,10,0:0:0:0:
394,120,26621,5,2,0:0:0:0:
159,135,26847,2,0,L|151:55,1,80,10|0,0:0|0:0,0:0:0:0:
353,135,27187,2,0,L|360:55,1,80,2|10,0:0|0:0,0:0:0:0:
148,279,27526,5,2,0:0:0:0:
252,261,27639,2,0,L|259:181,1,80,0|10,0:0|0:0,0:0:0:0:
364,279,27866,1,2,0:0:0:0:
252,261,27979,2,0,L|259:181,1,80,0|2,0:0|0:0,0:0:0:0:
148,279,28205,1,10,0:0:0:0:
470,48,28432,5,2,0:0:0:0:
111,206,28658,2,0,L|103:126,1,80,10|0,0:0|0:0,0:0:0:0:
401,206,28998,2,0,L|409:126,1,80,2|10,0:0|0:0,0:0:0:0:
42,328,29338,5,2,0:0:0:0:
256,160,29451,2,0,L|263:80,1,80,0|10,0:0|0:0,0:0:0:0:
368,178,29678,1,2,0:0:0:0:
256,160,29791,2,0,L|263:80,1,80,0|2,0:0|0:0,0:0:0:0:
42,328,30017,1,10,0:0:0:0:
130,328,30130,2,0,L|192:329,1,40,2|2,0:0|0:0,0:0:0:0:
356,224,30243,6,0,L|132:224,1,200,6|0,0:0|0:0,0:0:0:0:
402,300,30583,2,0,P|403:237|268:187,1,200,6|0,0:0|0:0,0:0:0:0:
395,91,30923,1,0,0:0:0:0:
133,369,31036,6,0,B|354:368|354:368|321:325|321:325|307:381|307:381|298:329|298:329|286:275|286:275|288:329|288:329|280:273|280:273|271:327|271:327|268:270|268:270|266:218|266:218|266:162|266:162|266:221|266:221|269:171|269:171|275:117|275:117|280:173|280:173|289:120|289:120|300:63|300:63|311:117|311:117|323:67|323:67|339:13|339:13|352:65|352:65|370:7|370:7|388:54|388:54|405:2|405:2|424:53|424:53|443:2|443:2|467:60|465:60|465:61|465:61|481:16|481:16|503:72,1,1760.00005371094,6|0,0:0|0:0,0:0:0:0:
256,256,32055,6,0,L|160:256,2,69.9999978637696,6|0|2,0:0|0:0|0:0,0:0:0:0:
138,313,32394,2,0,L|234:313,2,69.9999978637696,0|0|2,0:0|0:0|0:0,0:0:0:0:
256,352,32734,2,0,P|288:314|244:268,1,104.999996795654,0|0,0:0|0:0,0:0:0:0:
137,201,32960,6,0,L|41:201,2,69.9999978637696,6|0|2,0:0|0:0|0:0,0:0:0:0:
256,224,33300,2,0,L|352:224,2,69.9999978637696,0|0|2,0:0|0:0|0:0,0:0:0:0:
375,175,33640,2,0,L|252:174,1,104.999996795654,0|0,0:0|0:0,0:0:0:0:
414,323,33866,6,0,L|510:323,2,69.9999978637696,6|0|2,0:0|0:0|0:0,0:0:0:0:
295,250,34206,2,0,L|391:250,2,69.9999978637696,0|0|2,0:0|0:0|0:0,0:0:0:0:
413,193,34545,1,0,0:0:0:0:
413,158,34616,1,0,0:0:0:0:
414,123,34687,1,0,0:0:0:0:
256,96,34772,6,0,L|96:96,1,139.999995727539,6|2,0:0|0:0,0:0:0:0:
256,96,35111,2,0,L|416:96,1,139.999995727539,0|2,0:0|0:0,0:0:0:0:
147,269,35451,1,6,0:0:0:0:
365,269,35564,1,6,0:0:0:0:
116,96,35677,6,0,L|20:96,2,69.9999978637696,6|0|2,0:0|0:0|0:0,0:0:0:0:
234,171,36017,2,0,L|330:171,2,69.9999978637696,0|0|2,0:0|0:0|0:0,0:0:0:0:
126,200,36357,2,0,L|113:76,1,104.999996795654,0|0,0:0|0:0,0:0:0:0:
316,59,36583,6,0,L|412:59,2,69.9999978637696,6|0|2,0:0|0:0|0:0,0:0:0:0:
196,59,36923,2,0,L|100:59,2,69.9999978637696,0|0|2,0:0|0:0|0:0,0:0:0:0:
309,164,37262,2,0,L|204:163,1,104.999996795654,0|0,0:0|0:0,0:0:0:0:
396,96,37489,6,0,L|492:96,2,69.9999978637696,6|0|2,0:0|0:0|0:0,0:0:0:0:
278,171,37829,2,0,L|182:171,2,69.9999978637696,0|0|2,0:0|0:0|0:0,0:0:0:0:
396,96,38168,1,0,0:0:0:0:
440,136,38239,1,0,0:0:0:0:
425,207,38309,1,0,0:0:0:0:
256,256,38394,6,0,L|352:256,1,80,6|0,0:0|0:0,0:0:0:0:
224,352,38621,2,0,L|128:352,1,80,2|0,0:0|0:0,0:0:0:0:
384,192,38847,2,0,L|448:192,2,53.3333333333333,2|2|2,0:0|0:0|0:0,0:0:0:0:
190,194,39074,1,10,0:0:0:0:
256,192,39149,1,8,0:0:0:0:
322,194,39224,1,8,0:0:0:0:
128,192,39300,5,14,0:0:0:0:
38,174,39413,1,0,0:0:0:0:
218,195,39526,1,10,0:0:0:0:
119,177,39639,1,0,0:0:0:0:
300,182,39753,1,10,0:0:0:0:
192,164,39866,1,0,0:0:0:0:
376,267,39979,6,0,L|296:261,1,44.999998626709,10|2,0:0|0:0,0:0:0:0:
180,263,40092,2,0,L|136:267,1,44.999998626709,2|2,0:0|0:0,0:0:0:0:
384,192,40206,5,10,0:0:0:0:
474,174,40319,1,0,0:0:0:0:
294,195,40432,1,10,0:0:0:0:
393,177,40545,1,0,0:0:0:0:
212,182,40658,6,0,L|292:176,1,44.999998626709,10|2,0:0|0:0,0:0:0:0:
395,80,40772,2,0,L|475:74,1,44.999998626709,2|2,0:0|0:0,0:0:0:0:
136,267,40885,6,0,L|216:261,1,44.999998626709,10|2,0:0|0:0,0:0:0:0:
331,263,40999,2,0,L|411:257,1,44.999998626709,2|2,0:0|0:0,0:0:0:0:
137,192,41111,5,10,0:0:0:0:
38,174,41224,1,0,0:0:0:0:
227,195,41337,1,10,0:0:0:0:
119,177,41450,1,0,0:0:0:0:
309,182,41564,1,10,0:0:0:0:
192,164,41677,1,0,0:0:0:0:
376,267,41790,6,0,L|331:263,1,44.999998626709,10|2,0:0|0:0,0:0:0:0:
180,263,41903,2,0,L|136:267,1,44.999998626709,2|2,0:0|0:0,0:0:0:0:
375,192,42017,5,10,0:0:0:0:
474,174,42130,1,0,0:0:0:0:
285,195,42243,1,10,0:0:0:0:
393,177,42356,1,0,0:0:0:0:
205,182,42470,6,0,L|249:178,1,44.999998626709,10|2,0:0|0:0,0:0:0:0:
395,80,42583,2,0,L|475:74,1,44.999998626709,2|2,0:0|0:0,0:0:0:0:
136,267,42696,6,0,L|180:263,1,44.999998626709,10|2,0:0|0:0,0:0:0:0:
331,263,42810,2,0,L|375:259,1,44.999998626709,2|2,0:0|0:0,0:0:0:0:
139,370,42923,5,14,0:0:0:0:
373,370,43036,2,0,L|390:306,2,44.999998626709,2|2|2,0:0|0:0|0:0,0:0:0:0:
119,213,43262,1,14,0:0:0:0:
393,212,43375,2,0,L|416:251,2,44.999998626709,2|2|2,0:0|0:0|0:0,0:0:0:0:
99,56,43602,5,14,0:0:0:0:
413,55,43715,2,0,L|439:19,2,44.999998626709,2|2|2,0:0|0:0|0:0,0:0:0:0:
79,213,43941,1,14,0:0:0:0:
433,213,44055,2,0,L|478:213,2,44.999998626709,2|2|2,0:0|0:0|0:0,0:0:0:0:
147,263,44281,6,0,L|94:254,1,44.999998626709,14|10,0:0|0:0,0:0:0:0:
365,263,44394,2,0,L|418:254,1,44.999998626709,10|10,0:0|0:0,0:0:0:0:
108,347,44507,2,0,L|55:338,1,44.999998626709,14|10,0:0|0:0,0:0:0:0:
404,347,44621,2,0,L|457:338,1,44.999998626709,10|10,0:0|0:0,0:0:0:0:
256,128,44734,6,0,L|57:128,1,179.999994506836,0|2,0:0|0:0,0:0:0:0:
166,193,45074,2,0,L|166:98,1,89.9999972534181,0|0,0:0|0:0,0:0:0:0:
76,128,45300,2,0,L|76:33,1,89.9999972534181,2|0,0:0|0:0,0:0:0:0:
167,226,45526,6,0,P|206:148|166:71,1,179.999994506836,0|2,0:0|0:0,0:0:0:0:
76,128,45866,2,0,L|76:33,1,89.9999972534181,0|0,0:0|0:0,0:0:0:0:
256,128,46092,2,0,L|256:32,1,89.9999972534181,2|0,0:0|0:0,0:0:0:0:
212,173,46262,1,0,0:0:0:0:
32,224,46319,2,0,L|32:129,1,89.9999972534181,2|0,0:0|0:0,0:0:0:0:
256,192,46545,6,0,L|41:192,1,192.0000046875,6|10,0:0|0:0,0:0:0:0:
256,284,46885,2,0,L|378:284,1,96.0000023437501,0|2,0:0|0:0,0:0:0:0:
160,284,47111,2,0,L|282:284,1,96.0000023437501,0|10,0:0|0:0,0:0:0:0:
447,285,47338,6,0,P|482:225|454:111,1,192.0000046875,0|0,0:0|0:0,0:0:0:0:
256,69,47677,2,0,L|378:69,1,96.0000023437501,10|0,0:0|0:0,0:0:0:0:
119,259,47904,2,0,L|23:259,1,96.0000023437501,2|0,0:0|0:0,0:0:0:0:
256,253,48130,2,0,L|133:253,1,96.0000023437501,10|0,0:0|0:0,0:0:0:0:
447,192,48357,6,0,L|256:192,1,192.0000046875,2|10,0:0|0:0,0:0:0:0:
466,290,48696,2,0,L|346:290,1,96.0000023437501,0|2,0:0|0:0,0:0:0:0:
160,192,48923,2,0,L|280:192,1,96.0000023437501,0|10,0:0|0:0,0:0:0:0:
41,284,49149,6,0,P|100:235|39:161,1,192.0000046875,0|0,0:0|0:0,0:0:0:0:
234,135,49489,2,0,L|131:135,1,96.0000023437501,10|0,0:0|0:0,0:0:0:0:
352,306,49715,2,0,L|456:306,1,96.0000023437501,2|0,0:0|0:0,0:0:0:0:
205,210,49941,1,10,0:0:0:0:
307,210,50055,1,0,0:0:0:0:
92,332,50168,6,0,P|33:284|94:210,1,192.0000046875,2|10,0:0|0:0,0:0:0:0:
284,136,50507,2,0,L|162:136,1,96.0000023437501,0|2,0:0|0:0,0:0:0:0:
381,284,50734,2,0,L|504:284,1,96.0000023437501,0|10,0:0|0:0,0:0:0:0:
256,253,50960,6,0,L|470:253,1,192.0000046875,0|0,0:0|0:0,0:0:0:0:
225,314,51300,2,0,L|102:314,1,96.0000023437501,10|0,0:0|0:0,0:0:0:0:
350,255,51526,2,0,L|255:255,1,96.0000023437501,2|0,0:0|0:0,0:0:0:0:
33,314,51753,2,0,L|129:314,1,96.0000023437501,10|0,0:0|0:0,0:0:0:0:
351,300,51979,6,0,L|137:300,1,192.0000046875,2|10,0:0|0:0,0:0:0:0:
396,351,52319,2,0,P|456:319|382:248,1,192.0000046875,0|0,0:0|0:0,0:0:0:0:
290,243,52658,1,10,0:0:0:0:
67,250,52772,6,0,L|258:250,1,192.0000046875,0|0,0:0|0:0,0:0:0:0:
142,192,53111,2,0,L|131:81,1,96.0000023437501,10|0,0:0|0:0,0:0:0:0:
340,70,53338,1,2,0:0:0:0:
239,43,53451,1,2,0:0:0:0:
466,287,53564,2,0,L|471:231,1,48.000001171875,10|0,0:0|0:0,0:0:0:0:
331,185,53677,2,0,L|248:176,1,48.000001171875,0|0,0:0|0:0,0:0:0:0:
470,99,53790,6,0,L|256:99,1,192.0000046875,6|10,0:0|0:0,0:0:0:0:
47,303,54130,2,0,L|170:303,1,96.0000023437501,0|2,0:0|0:0,0:0:0:0:
358,223,54357,2,0,L|235:223,1,96.0000023437501,0|10,0:0|0:0,0:0:0:0:
475,352,54583,6,0,P|477:287|377:222,1,192.0000046875,0|0,0:0|0:0,0:0:0:0:
165,145,54923,2,0,L|288:145,1,96.0000023437501,10|0,0:0|0:0,0:0:0:0:
47,303,55149,2,0,L|170:303,1,96.0000023437501,2|0,0:0|0:0,0:0:0:0:
368,303,55375,2,0,L|464:303,1,96.0000023437501,10|0,0:0|0:0,0:0:0:0:
255,284,55602,6,0,P|193:223|256:165,1,192.0000046875,2|10,0:0|0:0,0:0:0:0:
454,135,55941,2,0,L|352:135,1,96.0000023437501,0|2,0:0|0:0,0:0:0:0:
160,253,56168,2,0,L|256:253,1,96.0000023437501,0|10,0:0|0:0,0:0:0:0:
64,192,56394,6,0,L|256:192,1,192.0000046875,0|0,0:0|0:0,0:0:0:0:
66,319,56734,2,0,L|50:215,1,96.0000023437501,10|0,0:0|0:0,0:0:0:0:
256,253,56960,2,0,L|160:253,1,96.0000023437501,2|0,0:0|0:0,0:0:0:0:
366,350,57187,1,10,0:0:0:0:
265,347,57300,1,0,0:0:0:0:
470,345,57413,6,0,L|470:222,1,96.0000023437501,2|0,0:0|0:0,0:0:0:0:
256,161,57640,2,0,L|378:161,2,96.0000023437501,10|0|2,0:0|0:0|0:0,0:0:0:0:
48,161,57979,2,0,L|171:161,1,96.0000023437501,0|10,0:0|0:0,0:0:0:0:
352,128,58206,6,0,L|256:128,1,96.0000023437501,0|2,0:0|0:0,0:0:0:0:
160,126,58432,1,0,0:0:0:0:
367,161,58545,2,0,L|463:161,1,96.0000023437501,10|0,0:0|0:0,0:0:0:0:
168,317,58772,1,2,0:0:0:0:
343,317,58885,1,2,0:0:0:0:
120,317,58998,2,0,L|185:317,1,48.000001171875,10|2,0:0|0:0,0:0:0:0:
343,317,59111,2,0,L|391:317,1,48.000001171875,2|2,0:0|0:0,0:0:0:0:
168,317,59224,6,0,P|101:281|172:227,1,192.0000046875,6|0,0:0|0:0,0:0:0:0:
343,317,59564,2,0,P|410:281|339:227,1,192.0000046875,6|0,0:0|0:0,0:0:0:0:
256,192,59904,1,0,0:0:0:0:
470,130,60017,6,0,B|279:130|279:130|349:67|349:67|276:131,1,384.000009375,6|0,0:0|0:0,0:0:0:0:
177,113,60583,2,0,L|263:31,1,96.0000023437501,2|0,0:0|0:0,0:0:0:0:
148,215,60809,2,0,L|62:133,1,96.0000023437501,2|0,0:0|0:0,0:0:0:0:
375,384,61036,6,0,B|155:378|155:378|148:148|148:148|142:370,1,660.000020141602,6|0,0:0|0:0,0:0:0:0:
378,192,61489,1,10,0:0:0:0:
133,192,61602,1,0,0:0:0:0:
229,161,61715,1,0,0:0:0:0:
133,192,61828,1,0,0:0:0:0:
378,192,61941,5,0,0:0:0:0:
377,144,61997,1,0,0:0:0:0:
349,105,62054,1,0,0:0:0:0:
305,90,62110,1,0,0:0:0:0:
163,192,62168,2,0,L|286:192,1,96.0000023437501,2|0,0:0|0:0,0:0:0:0:
440,192,62394,1,10,0:0:0:0:
478,166,62450,1,0,0:0:0:0:
475,121,62507,1,0,0:0:0:0:
434,100,62563,1,0,0:0:0:0:
256,130,62621,2,0,L|378:130,1,96.0000023437501,0|0,0:0|0:0,0:0:0:0:
141,344,62847,6,0,P|144:272|224:255,1,144.000003515625,2|0,0:0|0:0,0:0:0:0:
354,192,63074,1,0,0:0:0:0:
256,192,63187,1,0,0:0:0:0:
452,354,63300,2,0,L|473:259,1,96.0000023437501,10|0,0:0|0:0,0:0:0:0:
256,192,63526,2,0,L|246:131,3,48.000001171875,0|0|0|0,0:0|0:0|0:0|0:0,0:0:0:0:
52,340,63753,6,0,L|34:258,1,72.0000017578126
237,231,63979,2,0,L|247:171,3,48.000001171875,2|0|0|0,0:0|0:0|0:0|0:0,0:0:0:0:
439,169,64206,6,0,L|460:74,1,96.0000023437501,10|0,0:0|0:0,0:0:0:0:
256,96,64432,2,0,L|350:86,1,96.0000023437501,0|0,0:0|0:0,0:0:0:0:
137,384,64658,6,0,B|357:378|357:378|364:148|364:148|370:370,1,660.000020141602,2|0,0:0|0:0,0:0:0:0:
128,192,65111,1,10,0:0:0:0:
384,192,65224,1,0,0:0:0:0:
284,160,65337,1,0,0:0:0:0:
384,192,65450,1,0,0:0:0:0:
128,192,65564,5,0,0:0:0:0:
128,142,65620,1,0,0:0:0:0:
157,102,65677,1,0,0:0:0:0:
203,86,65733,1,0,0:0:0:0:
352,192,65790,2,0,L|252:192,1,100,2|0,0:0|0:0,0:0:0:0:
34,194,66017,2,0,L|84:194,1,50,10|2,0:0|0:0,0:0:0:0:
261,104,66130,2,0,L|325:104,1,50,2|2,0:0|0:0,0:0:0:0:
251,104,66243,2,0,L|187:104,1,50,10|2,0:0|0:0,0:0:0:0:
428,194,66357,2,0,L|492:194,1,50,2|2,0:0|0:0,0:0:0:0:
255,287,66470,6,0,P|220:196|254:105,1,200,0|2,0:0|0:0,0:0:0:0:
352,96,66809,2,0,L|352:224,1,100
254,105,67036,2,0,L|254:233,1,100,2|0,0:0|0:0,0:0:0:0:
352,96,67262,6,0,P|387:187|353:278,1,200,0|2,0:0|0:0,0:0:0:0:
456,224,67602,2,0,L|456:352,1,100,0|0,0:0|0:0,0:0:0:0:
256,224,67828,2,0,L|256:96,1,100,2|0,0:0|0:0,0:0:0:0:
305,178,67998,1,0,0:0:0:0:
456,224,68055,2,0,L|456:352,1,100,2|0,0:0|0:0,0:0:0:0:
172,129,68281,6,0,L|364:129,1,170.000003242493,6|2,0:0|0:0,0:0:0:0:
148,203,68621,1,0,0:0:0:0:
233,203,68734,1,2,0:0:0:0:
148,203,68847,1,0,0:0:0:0:
63,203,68960,1,2,0:0:0:0:
296,297,69074,6,0,L|200:297,1,85.0000016212464,0|2,0:0|0:0,0:0:0:0:
304,249,69300,2,0,L|313:136,1,85.0000016212464,0|2,0:0|0:0,0:0:0:0:
208,249,69526,2,0,L|199:136,1,85.0000016212464,0|2,0:0|0:0,0:0:0:0:
382,165,69753,2,0,P|433:132|375:60,1,170.000003242493,0|0,0:0|0:0,0:0:0:0:
130,165,70092,6,0,P|79:132|137:60,1,170.000003242493,2|2,0:0|0:0,0:0:0:0:
312,70,70432,2,0,L|227:70,1,85.0000016212464,0|2,0:0|0:0,0:0:0:0:
134,133,70658,2,0,L|219:133,1,85.0000016212464,0|2,0:0|0:0,0:0:0:0:
125,224,70885,1,0,0:0:0:0:
305,230,70998,6,0,L|314:117,1,85.0000016212464,2|0,0:0|0:0,0:0:0:0:
218,147,71224,1,2,0:0:0:0:
404,110,71338,1,0,0:0:0:0:
309,153,71451,2,0,L|302:237,1,85.0000016212464,2|0,0:0|0:0,0:0:0:0:
394,264,71677,2,0,L|400:348,1,85.0000016212464,2|0,0:0|0:0,0:0:0:0:
178,353,71904,6,0,P|124:304|187:258,1,170.000003242493,2|2,0:0|0:0,0:0:0:0:
372,159,72243,1,0,0:0:0:0:
287,159,72356,1,2,0:0:0:0:
372,159,72470,1,0,0:0:0:0:
457,159,72582,1,2,0:0:0:0:
182,104,72696,6,0,L|78:104,1,85.0000016212464,0|2,0:0|0:0,0:0:0:0:
200,230,72923,2,0,L|304:230,1,85.0000016212464
183,249,73149,2,0,L|174:136,1,85.0000016212464,0|2,0:0|0:0,0:0:0:0:
385,156,73375,2,0,L|205:155,1,170.000003242493,0|0,0:0|0:0,0:0:0:0:
17,343,73715,6,0,L|197:342,1,170.000003242493,2|2,0:0|0:0,0:0:0:0:
380,222,74055,2,0,L|262:225,1,85.0000016212464,0|2,0:0|0:0,0:0:0:0:
488,384,74281,2,0,L|379:385,1,85.0000016212464,0|2,0:0|0:0,0:0:0:0:
180,366,74507,1,0,0:0:0:0:
351,242,74621,6,0,L|360:129,1,85.0000016212464,2|0,0:0|0:0,0:0:0:0:
256,128,74847,2,0,L|247:15,1,85.0000016212464,2|0,0:0|0:0,0:0:0:0:
448,64,75074,1,2,0:0:0:0:
346,66,75187,1,2,0:0:0:0:
79,73,75300,2,0,L|13:73,2,42.5000008106232,2|0|0,0:0|0:0|0:0,0:0:0:0:
352,192,75526,5,6,0:0:0:0:
160,192,75640,1,2,0:0:0:0:
352,192,75753,1,2,0:0:0:0:
160,192,75866,2,0,L|43:192,1,85.0000016212464,0|2,0:0|0:0,0:0:0:0:
178,320,76092,2,0,L|295:320,1,85.0000016212464,0|2,0:0|0:0,0:0:0:0:
57,384,76319,6,0,L|48:271,1,85.0000016212464,0|2,0:0|0:0,0:0:0:0:
160,192,76545,2,0,L|169:79,1,85.0000016212464,0|2,0:0|0:0,0:0:0:0:
277,123,76772,2,0,L|286:10,1,85.0000016212464,0|2,0:0|0:0,0:0:0:0:
78,318,76998,2,0,P|27:272|97:208,1,170.000003242493,0|0,0:0|0:0,0:0:0:0:
256,192,77338,6,0,L|64:192,1,170.000003242493,2|2,0:0|0:0,0:0:0:0:
267,314,77677,2,0,L|171:314,1,85.0000016212464,0|2,0:0|0:0,0:0:0:0:
285,219,77904,2,0,L|381:219,1,85.0000016212464,0|2,0:0|0:0,0:0:0:0:
267,166,78130,1,0,0:0:0:0:
449,76,78243,6,0,L|353:76,1,85.0000016212464,2|0,0:0|0:0,0:0:0:0:
467,26,78469,1,2,0:0:0:0:
276,264,78583,2,0,L|267:151,1,85.0000016212464,0|2,0:0|0:0,0:0:0:0:
371,94,78809,1,0,0:0:0:0:
374,51,78865,1,2,0:0:0:0:
377,9,78922,1,2,0:0:0:0:
178,219,79036,2,0,L|172:150,1,42.5000008106232,2|2,0:0|0:0,0:0:0:0:
350,166,79149,6,0,P|408:113|343:67,1,170.000003242493,2|2,0:0|0:0,0:0:0:0:
147,117,79489,2,0,L|249:117,1,85.0000016212464,0|2,0:0|0:0,0:0:0:0:
334,117,79715,2,0,L|232:117,1,85.0000016212464,0|2,0:0|0:0,0:0:0:0:
452,359,79941,6,0,L|367:359,1,85.0000016212464,0|2,0:0|0:0,0:0:0:0:
264,242,80168,2,0,L|349:242,1,85.0000016212464,0|2,0:0|0:0,0:0:0:0:
247,242,80394,2,0,L|162:242,1,85.0000016212464,0|2,0:0|0:0,0:0:0:0:
343,340,80621,2,0,P|402:311|328:255,1,170.000003242493,0|0,0:0|0:0,0:0:0:0:
159,245,80960,6,0,P|107:298|169:340,1,170.000003242493,2|2,0:0|0:0,0:0:0:0:
406,138,81300,2,0,L|276:128,1,127.50000243187,2|0,0:0|0:0,0:0:0:0:
106,138,81526,2,0,L|236:128,1,127.50000243187,2|0,0:0|0:0,0:0:0:0:
404,138,81753,6,0,P|467:95|399:49,1,170.000003242493,2|2,0:0|0:0,0:0:0:0:
163,74,82092,1,2,0:0:0:0:
349,74,82206,1,2,0:0:0:0:
115,278,82319,2,0,L|7:278,1,85.0000016212464,10|0,0:0|0:0,0:0:0:0:
384,135,82545,1,10,0:0:0:0:
128,135,82658,1,10,0:0:0:0:
416,320,82772,6,0,B|325:320|325:320|417:320|417:320|325:323,1,269.999991760254,6|0,0:0|0:0,0:0:0:0:
128,320,83224,1,10,0:0:0:0:
330,322,83338,1,0,0:0:0:0:
229,313,83451,1,0,0:0:0:0:
330,322,83564,1,0,0:0:0:0:
431,337,83677,5,0,0:0:0:0:
166,214,83790,2,0,L|355:203,1,179.999994506836,2|2,0:0|0:0,0:0:0:0:
70,291,84130,2,0,B|65:201|65:201|154:192|154:192|63:200,1,269.999991760254,10|0,0:0|0:0,0:0:0:0:
321,91,84583,6,0,B|412:91|412:91|320:91|320:91|412:94,1,269.999991760254,2|0,0:0|0:0,0:0:0:0:
203,104,85036,1,10,0:0:0:0:
406,93,85149,1,0,0:0:0:0:
306,111,85262,1,0,0:0:0:0:
406,93,85375,1,0,0:0:0:0:
306,111,85489,5,0,0:0:0:0:
487,267,85602,2,0,P|489:318|374:368,1,179.999994506836,2|2,0:0|0:0,0:0:0:0:
203,283,85941,2,0,B|212:194|212:194|303:195|301:195|301:195|316:94,1,269.999991760254,10|0,0:0|0:0,0:0:0:0:
96,320,86394,6,0,B|187:320|187:320|95:320|95:320|187:323,1,269.999991760254,2|0,0:0|0:0,0:0:0:0:
384,320,86846,1,10,0:0:0:0:
182,322,86960,1,0,0:0:0:0:
283,313,87073,1,0,0:0:0:0:
182,322,87186,1,0,0:0:0:0:
80,349,87300,5,0,0:0:0:0:
334,358,87413,2,0,P|377:348|334:260,1,179.999994506836,2|2,0:0|0:0,0:0:0:0:
92,134,87753,2,0,L|194:133,1,89.9999972534181,10|0,0:0|0:0,0:0:0:0:
73,220,87979,2,0,L|62:110,1,89.9999972534181
302,78,88206,6,0,B|211:78|211:78|303:78|303:78|211:81,1,269.999991760254,2|0,0:0|0:0,0:0:0:0:
403,269,88658,1,10,0:0:0:0:
293,348,88772,2,0,L|282:238,1,89.9999972534181,0|0,0:0|0:0,0:0:0:0:
473,199,88998,2,0,L|477:147,1,44.999998626709,0|0,0:0|0:0,0:0:0:0:
420,128,89111,5,0,0:0:0:0:
176,115,89224,2,0,L|270:111,1,89.9999972534181,2|0,0:0|0:0,0:0:0:0:
156,34,89451,1,2,0:0:0:0:
356,34,89564,2,0,L|266:37,1,89.9999972534181,10|0,0:0|0:0,0:0:0:0:
156,34,89790,2,0,L|245:37,1,89.9999972534181
28,345,90017,6,0,B|119:345|119:345|27:345|27:345|119:348,1,269.999991760254,6|0,0:0|0:0,0:0:0:0:
318,355,90470,1,10,0:0:0:0:
113,347,90583,1,0,0:0:0:0:
215,337,90696,1,0,0:0:0:0:
113,347,90809,1,0,0:0:0:0:
319,305,90923,6,0,P|343:229|210:172,1,224.999993133545,2|0,0:0|0:0,0:0:0:0:
393,229,91262,2,0,P|454:207|336:44,1,359.999989013672,2|0,0:0|0:0,0:0:0:0:
133,111,91828,6,0,B|42:111|42:111|134:111|134:111|42:114,1,269.999991760254,6|0,0:0|0:0,0:0:0:0:
251,124,92281,1,10,0:0:0:0:
48,113,92394,1,0,0:0:0:0:
148,131,92507,1,0,0:0:0:0:
48,113,92621,1,0,0:0:0:0:
233,316,92734,6,0,P|257:240|124:183,1,224.999993133545,2|0,0:0|0:0,0:0:0:0:
316,318,93074,2,0,P|406:289|388:62,1,359.999989013672,2|2,0:0|0:0,0:0:0:0:
345,47,93583,1,2,0:0:0:0:
168,140,93640,6,0,B|259:140|259:140|167:140|167:140|259:143,1,269.999991760254,6|0,0:0|0:0,0:0:0:0:
458,150,94093,1,10,0:0:0:0:
253,142,94206,1,0,0:0:0:0:
355,132,94319,1,0,0:0:0:0:
253,142,94432,1,0,0:0:0:0:
34,315,94545,6,0,P|32:257|161:180,1,224.999993133545,2|0,0:0|0:0,0:0:0:0:
327,89,94885,2,0,P|224:119|200:224,1,224.999993133545,2|0,0:0|0:0,0:0:0:0:
364,362,95224,2,0,L|375:252,1,89.9999972534181,0|0,0:0|0:0,0:0:0:0:
134,97,95451,6,0,B|45:97|45:97|37:308,1,269.999991760254,6|0,0:0|0:0,0:0:0:0:
251,124,95904,1,10,0:0:0:0:
147,362,96017,2,0,L|136:252,1,89.9999972534181,0|0,0:0|0:0,0:0:0:0:
348,222,96243,2,0,L|274:222,1,44.999998626709,2|2,0:0|0:0,0:0:0:0:
90,227,96357,5,10,0:0:0:0:
181,182,96470,1,2,0:0:0:0:
78,133,96583,1,2,0:0:0:0:
422,227,96696,1,10,0:0:0:0:
331,182,96809,1,2,0:0:0:0:
434,133,96923,1,2,0:0:0:0:
204,63,97036,1,10,0:0:0:0:
308,63,97149,1,2,0:0:0:0:
70,124,97262,5,6,0:0:0:0:
256,192,97375,12,0,100885,0:0:0:0:
111,341,103602,6,0,L|104:289,3,40,0|0|2|2,0:0|0:0|0:0|0:0,0:0:0:0:
256,256,103828,6,0,L|263:204,3,40,0|0|2|2,0:0|0:0|0:0|0:0,0:0:0:0:
407,301,104055,6,0,L|401:341,3,40,0|0|2|2,0:0|0:0|0:0|0:0,0:0:0:0:
251,216,104281,6,0,L|256:256,3,40,0|0|2|2,0:0|0:0|0:0|0:0,0:0:0:0:
111,341,104507,6,0,L|6:342,1,80,2|0,0:0|0:0,0:0:0:0:
138,288,104734,2,0,L|33:289,1,80,2|0,0:0|0:0,0:0:0:0:
164,209,104960,2,0,L|59:210,1,80,2|0,0:0|0:0,0:0:0:0:
266,90,105187,2,0,L|309:90,1,40,2|2,0:0|0:0,0:0:0:0:
246,90,105300,2,0,L|203:90,1,40,2|2,0:0|0:0,0:0:0:0:
401,341,105413,6,0,L|506:342,1,80,2|0,0:0|0:0,0:0:0:0:
374,288,105640,2,0,L|479:289,1,80,2|0,0:0|0:0,0:0:0:0:
348,194,105866,2,0,L|305:194,1,40,2|2,0:0|0:0,0:0:0:0:
368,194,105979,2,0,L|411:194,1,40,2|2,0:0|0:0,0:0:0:0:
246,90,106092,2,0,L|203:90,1,40,2|2,0:0|0:0,0:0:0:0:
266,90,106205,2,0,L|309:90,1,40,2|2,0:0|0:0,0:0:0:0:
117,342,106319,6,0,L|6:342,1,89.9999972534181,2|0,0:0|0:0,0:0:0:0:
216,318,106545,2,0,L|105:318,1,89.9999972534181,2|0,0:0|0:0,0:0:0:0:
315,294,106772,2,0,L|204:294,1,89.9999972534181,2|0,0:0|0:0,0:0:0:0:
413,148,106998,2,0,L|465:147,1,44.999998626709,2|2,0:0|0:0,0:0:0:0:
256,288,107111,2,0,L|204:287,1,44.999998626709,2|2,0:0|0:0,0:0:0:0:
395,342,107224,6,0,L|506:342,1,89.9999972534181,2|0,0:0|0:0,0:0:0:0:
296,318,107450,2,0,L|407:318,1,89.9999972534181,2|0,0:0|0:0,0:0:0:0:
197,186,107677,2,0,L|145:185,1,44.999998626709,2|2,0:0|0:0,0:0:0:0:
354,326,107790,2,0,L|406:325,1,44.999998626709,2|2,0:0|0:0,0:0:0:0:
158,326,107904,2,0,L|106:325,1,44.999998626709,2|2,0:0|0:0,0:0:0:0:
315,186,108017,2,0,L|367:185,1,44.999998626709,2|2,0:0|0:0,0:0:0:0:
197,186,108130,5,14,0:0:0:0:
24,175,108243,2,0,L|10:119,2,50,2|2|2,0:0|0:0|0:0,0:0:0:0:
197,186,108470,1,14,0:0:0:0:
488,175,108583,2,0,L|502:119,2,50,2|2|2,0:0|0:0|0:0,0:0:0:0:
315,186,108809,5,14,0:0:0:0:
24,175,108923,1,2,0:0:0:0:
22,125,108979,1,2,0:0:0:0:
49,85,109036,1,2,0:0:0:0:
96,69,109092,1,2,0:0:0:0:
315,186,109149,6,0,L|384:192,1,50,14|2,0:0|0:0,0:0:0:0:
228,90,109262,2,0,L|219:38,1,50,2|2,0:0|0:0,0:0:0:0:
284,90,109375,2,0,L|293:38,1,50,2|2,0:0|0:0,0:0:0:0:
147,263,109489,6,0,L|94:254,1,50,14|10,0:0|0:0,0:0:0:0:
365,263,109602,2,0,L|418:254,1,50,10|10,0:0|0:0,0:0:0:0:
108,347,109715,2,0,L|55:338,1,50,14|10,0:0|0:0,0:0:0:0:
404,347,109829,2,0,L|457:338,1,50,10|10,0:0|0:0,0:0:0:0:
256,128,109941,6,0,L|49:128,1,200,0|2,0:0|0:0,0:0:0:0:
166,193,110281,2,0,L|166:91,1,100,0|0,0:0|0:0,0:0:0:0:
76,128,110507,2,0,L|76:28,1,100,2|0,0:0|0:0,0:0:0:0:
167,226,110733,6,0,P|206:148|164:38,1,200,0|2,0:0|0:0,0:0:0:0:
76,128,111073,2,0,L|76:24,1,100,0|0,0:0|0:0,0:0:0:0:
256,128,111299,2,0,L|256:0,1,100,2|0,0:0|0:0,0:0:0:0:
207,173,111469,1,0,0:0:0:0:
54,189,111526,2,0,L|54:89,1,100,2|0,0:0|0:0,0:0:0:0:
353,88,111753,6,0,L|139:88,1,192.0000046875,6|10,0:0|0:0,0:0:0:0:
269,184,112092,1,0,0:0:0:0:
71,288,112206,2,0,L|199:288,1,96.0000023437501,2|0,0:0|0:0,0:0:0:0:
364,283,112432,1,10,0:0:0:0:
163,192,112545,6,0,L|291:192,1,96.0000023437501,0|2,0:0|0:0,0:0:0:0:
44,340,112772,2,0,L|28:245,1,96.0000023437501,0|10,0:0|0:0,0:0:0:0:
256,99,112998,2,0,L|128:99,1,96.0000023437501,0|2,0:0|0:0,0:0:0:0:
351,191,113224,2,0,L|130:191,1,192.0000046875,0|0,0:0|0:0,0:0:0:0:
412,356,113564,6,0,P|468:314|403:236,1,192.0000046875,2|10,0:0|0:0,0:0:0:0:
198,150,113904,2,0,L|329:150,1,96.0000023437501,0|2,0:0|0:0,0:0:0:0:
85,305,114130,2,0,L|69:210,1,96.0000023437501,0|10,0:0|0:0,0:0:0:0:
294,150,114357,1,0,0:0:0:0:
41,284,114470,6,0,L|172:284,1,96.0000023437501,2|0,0:0|0:0,0:0:0:0:
374,284,114696,1,10,0:0:0:0:
170,192,114809,1,0,0:0:0:0:
276,161,114923,2,0,L|291:66,1,96.0000023437501,2|0,0:0|0:0,0:0:0:0:
93,353,115149,2,0,L|224:352,1,96.0000023437501,10|0,0:0|0:0,0:0:0:0:
387,217,115375,6,0,P|441:184|382:88,1,192.0000046875,2|10,0:0|0:0,0:0:0:0:
283,85,115715,1,0,0:0:0:0:
482,43,115828,2,0,L|346:44,1,96.0000023437501,2|0,0:0|0:0,0:0:0:0:
187,47,116055,1,10,0:0:0:0:
386,42,116168,6,0,L|522:43,1,96.0000023437501,0|2,0:0|0:0,0:0:0:0:
273,305,116394,2,0,L|257:210,1,96.0000023437501,0|10,0:0|0:0,0:0:0:0:
466,55,116621,2,0,L|370:54,1,96.0000023437501,0|2,0:0|0:0,0:0:0:0:
159,203,116847,2,0,L|382:203,1,192.0000046875,0|0,0:0|0:0,0:0:0:0:
108,330,117187,6,0,P|45:295|97:189,1,192.0000046875,2|10,0:0|0:0,0:0:0:0:
279,132,117526,2,0,L|161:131,1,96.0000023437501,0|2,0:0|0:0,0:0:0:0:
390,313,117753,2,0,L|486:313,1,96.0000023437501,0|10,0:0|0:0,0:0:0:0:
256,284,117979,1,0,0:0:0:0:
450,241,118092,6,0,L|466:146,1,96.0000023437501,2|0,0:0|0:0,0:0:0:0:
256,99,118319,1,10,0:0:0:0:
351,76,118432,1,2,0:0:0:0:
160,76,118545,1,2,0:0:0:0:
256,99,118658,1,2,0:0:0:0:
43,147,118772,2,0,L|98:143,1,48.000001171875,10|2,0:0|0:0,0:0:0:0:
256,99,118885,2,0,L|302:103,1,48.000001171875,2|2,0:0|0:0,0:0:0:0:
138,136,118998,6,0,L|9:151,1,96.0000023437501,2|2,0:0|0:0,0:0:0:0:
256,253,119224,1,14,0:0:0:0:
42,146,119338,1,0,0:0:0:0:
256,253,119451,6,0,L|378:253,1,96.0000023437501,2|0,0:0|0:0,0:0:0:0:
160,253,119677,1,10,0:0:0:0:
420,349,119790,6,0,L|436:254,1,96.0000023437501,0|2,0:0|0:0,0:0:0:0:
214,199,120017,2,0,L|310:199,1,96.0000023437501,0|10,0:0|0:0,0:0:0:0:
91,349,120243,2,0,L|75:254,1,96.0000023437501,0|2,0:0|0:0,0:0:0:0:
351,192,120470,2,0,L|139:166,1,192.0000046875,0|0,0:0|0:0,0:0:0:0:
421,349,120809,6,0,P|466:316|373:239,1,192.0000046875,2|10,0:0|0:0,0:0:0:0:
205,273,121149,2,0,L|327:273,1,96.0000023437501,0|2,0:0|0:0,0:0:0:0:
101,294,121375,2,0,L|86:199,1,96.0000023437501,0|10,0:0|0:0,0:0:0:0:
317,192,121602,1,0,0:0:0:0:
123,284,121715,6,0,L|246:284,1,96.0000023437501,2|0,0:0|0:0,0:0:0:0:
25,367,121941,1,10,0:0:0:0:
256,345,122055,1,0,0:0:0:0:
151,334,122168,2,0,L|136:239,1,96.0000023437501,2|0,0:0|0:0,0:0:0:0:
331,237,122394,2,0,L|200:236,1,96.0000023437501,10|0,0:0|0:0,0:0:0:0:
41,88,122621,6,0,L|258:88,1,192.0000046875,2|10,0:0|0:0,0:0:0:0:
115,165,122960,1,0,0:0:0:0:
317,284,123074,2,0,L|194:284,1,96.0000023437501,2|0,0:0|0:0,0:0:0:0:
421,165,123300,1,10,0:0:0:0:
194,284,123413,6,0,L|290:284,1,96.0000023437501,0|2,0:0|0:0,0:0:0:0:
102,356,123640,2,0,L|87:262,1,96.0000023437501,0|10,0:0|0:0,0:0:0:0:
348,161,123866,2,0,L|363:66,1,96.0000023437501,0|2,0:0|0:0,0:0:0:0:
162,66,124092,2,0,L|393:66,1,192.0000046875,0|0,0:0|0:0,0:0:0:0:
138,331,124432,6,0,P|68:304|150:245,1,192.0000046875,6|0,0:0|0:0,0:0:0:0:
321,156,124772,2,0,L|169:149,1,144.000003515625,6|0,0:0|0:0,0:0:0:0:
387,233,124998,2,0,P|436:208|389:144,1,144.000003515625,6|0,0:0|0:0,0:0:0:0:
256,192,125224,6,0,P|207:166|254:101,1,144.000003515625,6|0,0:0|0:0,0:0:0:0:
396,93,125451,2,0,L|339:93,1,48.000001171875,6|6,0:0|0:0,0:0:0:0:
139,270,125564,1,6,0:0:0:0:
372,270,125677,1,2,0:0:0:0:
194,192,125790,1,2,0:0:0:0:
94,152,125904,1,2,0:0:0:0:
194,192,126017,1,2,0:0:0:0:
94,152,126131,1,2,0:0:0:0:
317,192,126243,6,0,P|378:130|298:83,1,192.0000046875,6|10,0:0|0:0,0:0:0:0:
94,152,126583,1,0,0:0:0:0:
304,264,126696,2,0,L|176:264,1,96.0000023437501,2|0,0:0|0:0,0:0:0:0:
420,302,126923,2,0,L|292:302,1,96.0000023437501,10|0,0:0|0:0,0:0:0:0:
126,309,127149,6,0,P|65:248|145:201,1,192.0000046875,2|10,0:0|0:0,0:0:0:0:
353,161,127489,2,0,L|123:160,1,192.0000046875,2|2,0:0|0:0,0:0:0:0:
382,196,127828,2,0,L|397:101,1,96.0000023437501,10|0,0:0|0:0,0:0:0:0:
194,192,128055,6,0,P|133:130|213:83,1,192.0000046875,2|10,0:0|0:0,0:0:0:0:
417,152,128395,1,0,0:0:0:0:
207,264,128508,2,0,L|335:264,1,96.0000023437501,2|0,0:0|0:0,0:0:0:0:
91,302,128735,2,0,L|219:302,1,96.0000023437501,10|0,0:0|0:0,0:0:0:0:
412,192,128960,6,0,L|197:192,1,192.0000046875,2|10,0:0|0:0,0:0:0:0:
448,314,129300,2,0,L|233:314,1,192.0000046875,2|2,0:0|0:0,0:0:0:0:
486,243,129640,2,0,L|364:243,1,96.0000023437501,10|0,0:0|0:0,0:0:0:0:
160,160,129866,6,0,L|374:160,1,192.0000046875,2|10,0:0|0:0,0:0:0:0:
160,160,130206,1,0,0:0:0:0:
351,160,130319,2,0,L|245:159,1,96.0000023437501,2|0,0:0|0:0,0:0:0:0:
446,160,130545,2,0,L|340:159,1,96.0000023437501,10|0,0:0|0:0,0:0:0:0:
139,308,130772,6,0,P|78:246|159:199,1,192.0000046875,2|10,0:0|0:0,0:0:0:0:
372,308,131111,2,0,P|433:246|352:199,1,192.0000046875,2|2,0:0|0:0,0:0:0:0:
147,194,131451,2,0,L|269:193,1,96.0000023437501,10|0,0:0|0:0,0:0:0:0:
25,124,131677,6,0,L|257:121,1,192.0000046875,2|10,0:0|0:0,0:0:0:0:
440,130,132017,2,0,L|317:130,1,96.0000023437501,0|2,0:0|0:0,0:0:0:0:
139,278,132243,2,0,L|261:278,1,96.0000023437501,0|10,0:0|0:0,0:0:0:0:
27,208,132470,2,0,L|117:208,1,48.000001171875,0|0,0:0|0:0,0:0:0:0:
256,192,132583,5,2,0:0:0:0:
160,149,132696,1,0,0:0:0:0:
351,149,132809,1,10,0:0:0:0:
160,149,132923,2,0,P|96:108|163:45,1,192.0000046875,2|2,0:0|0:0,0:0:0:0:
349,44,133262,2,0,L|217:43,1,96.0000023437501,10|0,0:0|0:0,0:0:0:0:
456,335,133489,5,0,0:0:0:0:
465,287,133545,1,0,0:0:0:0:
460,241,133602,1,0,0:0:0:0:
404,166,133715,1,0,0:0:0:0:
313,143,133828,1,2,0:0:0:0:
203,145,133941,2,0,L|283:77,3,96.0000023437501,2|2|2|2,0:0|0:0|0:0|0:0,0:0:0:0:
36,279,134394,6,0,L|232:242,1,192.0000046875,6|2,0:0|0:0,0:0:0:0:
443,234,134734,2,0,L|247:197,1,192.0000046875,6|2,0:0|0:0,0:0:0:0:
475,279,135074,2,0,L|343:251,1,96.0000023437501,2|0,0:0|0:0,0:0:0:0:
55,335,135300,5,0,0:0:0:0:
46,287,135356,1,0,0:0:0:0:
51,241,135413,1,0,0:0:0:0:
107,166,135526,1,0,0:0:0:0:
198,143,135639,1,2,0:0:0:0:
308,145,135752,2,0,L|228:77,3,96.0000023437501,2|2|2|2,0:0|0:0|0:0|0:0,0:0:0:0:
459,343,136206,6,0,P|462:279|335:207,1,192.0000046875,6|2,0:0|0:0,0:0:0:0:
160,184,136545,2,0,L|380:181,1,192.0000046875,6|2,0:0|0:0,0:0:0:0:
141,203,136885,2,0,L|31:207,1,96.0000023437501,2|0,0:0|0:0,0:0:0:0:
256,345,137111,5,0,0:0:0:0:
264,297,137167,1,0,0:0:0:0:
259,251,137224,1,0,0:0:0:0:
204,175,137337,1,0,0:0:0:0:
113,152,137450,1,2,0:0:0:0:
219,135,137564,2,0,L|292:73,3,96.0000023437501,2|2|2|2,0:0|0:0|0:0|0:0,0:0:0:0:
36,279,138017,6,0,L|232:242,1,192.0000046875,6|2,0:0|0:0,0:0:0:0:
443,234,138357,2,0,L|247:197,1,192.0000046875,6|2,0:0|0:0,0:0:0:0:
475,279,138697,2,0,L|343:251,1,96.0000023437501,2|0,0:0|0:0,0:0:0:0:
160,125,138923,6,0,L|356:89,1,192.0000046875,6|6,0:0|0:0,0:0:0:0:
300,54,139206,1,6,0:0:0:0:
160,125,139262,2,0,P|109:173|158:201,1,144.000003515625,6|0,0:0|0:0,0:0:0:0:
351,125,139489,2,0,P|402:173|353:201,1,144.000003515625,6|0,0:0|0:0,0:0:0:0:
188,302,139715,6,0,P|256:163|324:301,1,384.000009375,6|2,0:0|0:0,0:0:0:0:
273,304,140224,1,2,0:0:0:0:
140,305,140281,2,0,L|45:298,1,96.0000023437501,10|2,0:0|0:0,0:0:0:0:
363,142,140507,1,10,0:0:0:0:
148,142,140621,1,10,0:0:0:0:
468,297,140734,5,6,0:0:0:0:
256,192,140847,12,0,144357,0:0:0:0:
401,341,147074,6,0,L|408:289,3,40,0|0|2|2,0:0|0:0|0:0|0:0,0:0:0:0:
256,256,147300,6,0,L|249:204,3,40,0|0|2|2,0:0|0:0|0:0|0:0,0:0:0:0:
105,301,147527,6,0,L|111:341,3,40,0|0|2|2,0:0|0:0|0:0|0:0,0:0:0:0:
261,216,147753,6,0,L|256:256,3,40,0|0|2|2,0:0|0:0|0:0|0:0,0:0:0:0:
401,341,147979,6,0,L|502:341,2,69.9999978637696,6|0|2,0:0|0:0|0:0,0:0:0:0:
283,341,148319,2,0,L|182:341,2,69.9999978637696,0|0|2,0:0|0:0|0:0,0:0:0:0:
401,341,148658,2,0,L|425:341,4,17.4999994659424
198,147,148885,6,0,L|97:147,2,69.9999978637696,6|0|2,0:0|0:0|0:0,0:0:0:0:
316,147,149225,2,0,L|417:147,2,69.9999978637696,0|0|2,0:0|0:0|0:0,0:0:0:0:
204,137,149564,1,0,0:0:0:0:
238,137,149620,1,0,0:0:0:0:
273,137,149677,1,0,0:0:0:0:
93,346,149790,6,0,L|-8:346,2,69.9999978637696,6|0|2,0:0|0:0|0:0,0:0:0:0:
211,346,150130,2,0,L|312:346,2,69.9999978637696,0|0|2,0:0|0:0|0:0,0:0:0:0:
93,346,150470,2,0,L|61:346,1,17.4999994659424,0|0,0:0|0:0,0:0:0:0:
416,255,150696,6,0,P|463:214|406:186,1,139.999995727539,6|2,0:0|0:0,0:0:0:0:
301,216,151036,2,0,L|461:216,1,139.999995727539,0|2,0:0|0:0,0:0:0:0:
160,96,151375,1,6,0:0:0:0:
352,96,151489,1,6,0:0:0:0:
111,341,151602,6,0,L|10:341,2,69.9999978637696,6|0|2,0:0|0:0|0:0,0:0:0:0:
228,339,151941,2,0,L|127:339,2,69.9999978637696,0|0|2,0:0|0:0|0:0,0:0:0:0:
110,339,152281,2,0,L|101:216,1,104.999996795654,0|0,0:0|0:0,0:0:0:0:
279,129,152507,6,0,L|349:129,2,69.9999978637696,6|0|2,0:0|0:0|0:0,0:0:0:0:
162,127,152847,2,0,L|263:127,2,69.9999978637696,0|0|2,0:0|0:0|0:0,0:0:0:0:
279,129,153187,2,0,L|322:129,2,43.749998664856
255,131,153357,1,0,0:0:0:0:
401,341,153413,6,0,L|502:341,2,69.9999978637696,6|0|2,0:0|0:0|0:0,0:0:0:0:
284,339,153752,2,0,L|385:339,2,69.9999978637696,0|0|2,0:0|0:0|0:0,0:0:0:0:
401,341,154092,1,0,0:0:0:0:
32,224,154319,6,0,L|32:128,1,69.9999978637696,6|0,0:0|0:0,0:0:0:0:
160,128,154545,2,0,L|224:128,2,46.6666652425131,2|2|2,0:0|0:0|0:0,0:0:0:0:
78,224,154772,2,0,L|14:224,2,46.6666652425131,2|2|2,0:0|0:0|0:0,0:0:0:0:
224,288,154998,1,10,0:0:0:0:
128,288,155111,1,10,0:0:0:0:
384,192,155224,5,14,0:0:0:0:
474,174,155337,1,0,0:0:0:0:
294,195,155450,1,10,0:0:0:0:
393,177,155563,1,0,0:0:0:0:
212,182,155677,1,10,0:0:0:0:
320,164,155790,1,0,0:0:0:0:
136,267,155904,6,0,L|216:261,1,44.999998626709,10|2,0:0|0:0,0:0:0:0:
332,263,156017,2,0,L|376:267,1,44.999998626709,2|2,0:0|0:0,0:0:0:0:
128,192,156130,5,10,0:0:0:0:
38,174,156243,1,0,0:0:0:0:
218,195,156356,1,10,0:0:0:0:
119,177,156469,1,0,0:0:0:0:
300,182,156583,6,0,L|220:176,1,44.999998626709,10|2,0:0|0:0,0:0:0:0:
117,80,156696,2,0,L|37:74,1,44.999998626709,2|2,0:0|0:0,0:0:0:0:
376,267,156809,6,0,L|296:261,1,44.999998626709,10|2,0:0|0:0,0:0:0:0:
181,263,156923,2,0,L|101:257,1,44.999998626709,2|2,0:0|0:0,0:0:0:0:
375,192,157035,5,10,0:0:0:0:
474,174,157148,1,0,0:0:0:0:
285,195,157261,1,10,0:0:0:0:
393,177,157374,1,0,0:0:0:0:
203,182,157488,1,10,0:0:0:0:
320,164,157601,1,0,0:0:0:0:
136,267,157715,6,0,L|181:263,1,44.999998626709,10|2,0:0|0:0,0:0:0:0:
332,263,157828,2,0,L|376:267,1,44.999998626709,2|2,0:0|0:0,0:0:0:0:
137,192,157941,5,10,0:0:0:0:
38,174,158054,1,0,0:0:0:0:
227,195,158167,1,10,0:0:0:0:
119,177,158280,1,0,0:0:0:0:
307,182,158394,6,0,L|263:178,1,44.999998626709,10|2,0:0|0:0,0:0:0:0:
117,80,158507,2,0,L|37:74,1,44.999998626709,2|2,0:0|0:0,0:0:0:0:
376,267,158620,6,0,L|332:263,1,44.999998626709,10|2,0:0|0:0,0:0:0:0:
181,263,158734,2,0,L|137:259,1,44.999998626709,2|2,0:0|0:0,0:0:0:0:
373,370,158847,5,14,0:0:0:0:
139,370,158960,2,0,L|122:306,2,44.999998626709,2|2|2,0:0|0:0|0:0,0:0:0:0:
393,213,159186,1,14,0:0:0:0:
119,212,159300,2,0,L|96:251,2,44.999998626709,2|2|2,0:0|0:0|0:0,0:0:0:0:
413,56,159526,5,14,0:0:0:0:
99,55,159639,2,0,L|73:19,2,44.999998626709,2|2|2,0:0|0:0|0:0,0:0:0:0:
433,213,159865,1,14,0:0:0:0:
79,213,159979,2,0,L|34:213,2,44.999998626709,2|2|2,0:0|0:0|0:0,0:0:0:0:
365,263,160205,6,0,L|418:254,1,44.999998626709,14|10,0:0|0:0,0:0:0:0:
147,263,160318,2,0,L|94:254,1,44.999998626709,10|10,0:0|0:0,0:0:0:0:
404,347,160432,2,0,L|457:338,1,44.999998626709,14|10,0:0|0:0,0:0:0:0:
108,347,160545,2,0,L|55:338,1,44.999998626709,10|10,0:0|0:0,0:0:0:0:
256,192,160658,6,0,P|318:144|244:93,1,179.999994506836,0|2,0:0|0:0,0:0:0:0:
157,89,160998,1,0,0:0:0:0:
360,204,161111,2,0,B|241:204|241:204|362:207|362:207,1,239.999992675781,2|0,0:0|0:0,0:0:0:0:
270,284,161451,2,0,L|206:284,1,48.000001171875
367,279,161564,6,0,L|466:275,2,96.0000023437501,4|0|0,0:0|0:0|0:0,0:0:0:0:
144,279,161904,2,0,L|45:275,2,96.0000023437501,4|0|0,0:0|0:0|0:0,0:0:0:0:
392,139,162243,1,2,0:0:0:0:
119,139,162357,1,2,0:0:0:0:
368,355,162470,6,0,L|490:350,1,96.0000023437501,6|0,0:0|0:0,0:0:0:0:
178,148,162696,2,0,L|55:144,1,96.0000023437501,10|0,0:0|0:0,0:0:0:0:
333,148,162923,2,0,L|428:145,1,96.0000023437501,2|0,0:0|0:0,0:0:0:0:
204,236,163149,1,10,0:0:0:0:
308,236,163262,1,0,0:0:0:0:
47,351,163375,6,0,L|143:355,1,96.0000023437501,2|0,0:0|0:0,0:0:0:0:
428,145,163602,2,0,L|332:147,1,96.0000023437501,10|0,0:0|0:0,0:0:0:0:
84,145,163828,2,0,L|180:147,1,96.0000023437501,2|0,0:0|0:0,0:0:0:0:
385,190,164055,1,10,0:0:0:0:
127,190,164168,1,0,0:0:0:0:
354,302,164281,6,0,P|420:265|356:201,1,192.0000046875,2|10,0:0|0:0,0:0:0:0:
160,130,164621,1,0,0:0:0:0:
208,130,164677,1,0,0:0:0:0:
256,130,164734,1,2,0:0:0:0:
61,241,164847,2,0,L|45:146,1,96.0000023437501,0|10,0:0|0:0,0:0:0:0:
351,130,165074,6,0,L|256:130,1,96.0000023437501,0|2,0:0|0:0,0:0:0:0:
450,241,165300,2,0,L|466:146,1,96.0000023437501,0|10,0:0|0:0,0:0:0:0:
246,156,165526,2,0,L|342:156,1,96.0000023437501,0|2,0:0|0:0,0:0:0:0:
121,275,165753,2,0,L|25:275,1,96.0000023437501,0|10,0:0|0:0,0:0:0:0:
256,345,165979,1,0,0:0:0:0:
41,314,166092,6,0,L|256:314,1,192.0000046875,2|10,0:0|0:0,0:0:0:0:
136,249,166432,2,0,L|74:249,1,48.000001171875
249,232,166545,2,0,L|345:232,1,96.0000023437501,2|0,0:0|0:0,0:0:0:0:
150,343,166771,2,0,L|135:248,1,96.0000023437501,10|0,0:0|0:0,0:0:0:0:
353,94,166998,6,0,L|257:94,1,96.0000023437501,2|0,0:0|0:0,0:0:0:0:
142,145,167224,2,0,L|238:145,1,96.0000023437501,10|0,0:0|0:0,0:0:0:0:
465,305,167451,2,0,L|369:305,1,96.0000023437501,2|0,0:0|0:0,0:0:0:0:
158,202,167677,1,10,0:0:0:0:
273,202,167790,1,0,0:0:0:0:
61,241,167904,6,0,L|45:146,1,96.0000023437501,2|0,0:0|0:0,0:0:0:0:
155,115,168130,2,0,L|60:130,1,96.0000023437501,10|0,0:0|0:0,0:0:0:0:
171,293,168357,2,0,L|186:198,1,96.0000023437501,2|0,0:0|0:0,0:0:0:0:
76,199,168583,1,10,0:0:0:0:
319,198,168696,6,0,L|93:183,1,192.0000046875,0|0,0:0|0:0,0:0:0:0:
356,355,169036,2,0,L|372:260,1,96.0000023437501,10|0,0:0|0:0,0:0:0:0:
150,243,169262,1,2,0:0:0:0:
361,243,169375,1,2,0:0:0:0:
150,243,169489,1,10,0:0:0:0:
256,161,169602,1,0,0:0:0:0:
41,161,169715,6,0,L|163:161,2,96.0000023437501,6|0|10,0:0|0:0|0:0,0:0:0:0:
256,253,170055,2,0,L|133:253,2,96.0000023437501,0|2|0,0:0|0:0|0:0,0:0:0:0:
41,161,170394,2,0,L|163:161,1,96.0000023437501,10|0,0:0|0:0,0:0:0:0:
409,161,170621,5,2,0:0:0:0:
205,78,170734,1,0,0:0:0:0:
306,78,170847,1,10,0:0:0:0:
102,161,170960,1,0,0:0:0:0:
306,78,171073,1,2,0:0:0:0:
205,78,171186,1,0,0:0:0:0:
385,286,171300,1,10,0:0:0:0:
126,286,171413,1,0,0:0:0:0:
470,161,171526,6,0,L|348:161,2,96.0000023437501,2|0|10,0:0|0:0|0:0,0:0:0:0:
256,253,171866,2,0,L|378:253,2,96.0000023437501,0|2|0,0:0|0:0|0:0,0:0:0:0:
470,161,172205,2,0,L|348:161,1,96.0000023437501,10|0,0:0|0:0,0:0:0:0:
102,161,172432,5,2,0:0:0:0:
306,78,172545,1,0,0:0:0:0:
205,78,172658,1,10,0:0:0:0:
409,161,172771,1,0,0:0:0:0:
205,78,172884,1,2,0:0:0:0:
306,78,172997,1,0,0:0:0:0:
126,286,173111,1,10,0:0:0:0:
385,286,173224,1,0,0:0:0:0:
41,161,173338,6,0,L|163:161,2,96.0000023437501,2|0|10,0:0|0:0|0:0,0:0:0:0:
292,240,173677,2,0,L|307:145,1,96.0000023437501,0|2,0:0|0:0,0:0:0:0:
205,145,173904,1,0,0:0:0:0:
470,161,174017,6,0,L|348:161,2,96.0000023437501,10|0|2,0:0|0:0|0:0,0:0:0:0:
219,240,174356,2,0,L|204:145,1,96.0000023437501,0|10,0:0|0:0,0:0:0:0:
306,145,174583,1,0,0:0:0:0:
121,278,174696,6,0,L|19:278,1,96.0000023437501,2|0,0:0|0:0,0:0:0:0:
256,134,174923,2,0,L|160:134,1,96.0000023437501,10|0,0:0|0:0,0:0:0:0:
389,278,175149,6,0,P|451:233|378:175,1,192.0000046875,2|10,0:0|0:0,0:0:0:0:
163,192,175489,2,0,L|286:192,1,96.0000023437501,0|2,0:0|0:0,0:0:0:0:
41,372,175715,2,0,L|25:277,1,96.0000023437501,0|10,0:0|0:0,0:0:0:0:
256,192,175941,1,0,0:0:0:0:
41,192,176055,6,0,L|194:192,1,144.000003515625,2|2,0:0|0:0,0:0:0:0:
470,192,176394,2,0,L|317:192,1,144.000003515625,2|2,0:0|0:0,0:0:0:0:
41,192,176734,2,0,L|163:192,1,96.0000023437501,2|0,0:0|0:0,0:0:0:0:
375,384,176960,6,0,B|155:378|155:378|148:148|148:148|142:370,1,660.000020141602,6|0,0:0|0:0,0:0:0:0:
348,128,177413,2,0,L|258:128,1,89.9999972534181,10|0,0:0|0:0,0:0:0:0:
367,186,177640,2,0,L|378:90,1,89.9999972534181
160,192,177866,6,0,L|221:191,1,44.999998626709
256,192,177979,1,2,0:0:0:0:
48,246,178092,2,0,L|138:246,1,89.9999972534181,0|2,0:0|0:0,0:0:0:0:
347,132,178319,2,0,L|149:129,1,179.999994506836,10|0,0:0|0:0,0:0:0:0:
282,215,178658,1,0,0:0:0:0:
79,344,178772,6,0,P|57:274|216:173,1,269.999991760254,2|0,0:0|0:0,0:0:0:0:
406,138,179224,2,0,L|283:134,1,89.9999972534181,10|0,0:0|0:0,0:0:0:0:
208,77,179451,2,0,L|331:73,1,89.9999972534181
61,183,179677,6,0,L|16:185,2,44.999998626709,0|0|2,0:0|0:0|0:0,0:0:0:0:
265,252,179904,1,0,0:0:0:0:
157,219,180017,2,0,L|146:123,1,89.9999972534181,2|10,0:0|0:0,0:0:0:0:
366,129,180243,2,0,P|404:101|314:46,1,179.999994506836,0|0,0:0|0:0,0:0:0:0:
102,314,180583,5,6,0:0:0:0:
208,310,180696,2,0,L|85:310,1,96.0000023437501,0|10,0:0|0:0,0:0:0:0:
409,314,180923,1,0,0:0:0:0:
303,310,181036,2,0,L|426:310,1,96.0000023437501,2|0,0:0|0:0,0:0:0:0:
202,130,181262,1,10,0:0:0:0:
309,130,181375,1,0,0:0:0:0:
102,314,181489,5,2,0:0:0:0:
303,203,181602,2,0,L|208:203,1,96.0000023437501,0|10,0:0|0:0,0:0:0:0:
409,314,181828,2,0,L|424:219,1,96.0000023437501,0|2,0:0|0:0,0:0:0:0:
208,203,182055,2,0,L|303:203,1,96.0000023437501,0|10,0:0|0:0,0:0:0:0:
102,314,182281,2,0,L|27:314,1,48.000001171875,0|0,0:0|0:0,0:0:0:0:
225,313,182394,6,0,P|291:272|227:213,1,192.0000046875,2|10,0:0|0:0,0:0:0:0:
30,209,182734,2,0,L|250:210,1,192.0000046875,2|2,0:0|0:0,0:0:0:0:
115,145,183074,1,0,0:0:0:0:
351,142,183187,6,0,P|417:91|350:41,1,192.0000046875,2|2,0:0|0:0,0:0:0:0:
102,314,183526,2,0,L|87:219,1,96.0000023437501,10|0,0:0|0:0,0:0:0:0:
309,192,183753,1,2,0:0:0:0:
202,192,183866,1,2,0:0:0:0:
409,314,183979,2,0,L|424:219,1,96.0000023437501,10|0,0:0|0:0,0:0:0:0:
137,384,184206,6,0,B|357:378|357:378|364:148|364:148|370:370,1,660.000020141602,6|0,0:0|0:0,0:0:0:0:
121,110,184658,1,10,0:0:0:0:
211,105,184771,1,0,0:0:0:0:
301,101,184884,1,0,0:0:0:0:
391,96,184997,1,0,0:0:0:0:
183,264,185111,6,0,L|102:268,1,44.999998626709,0|0,0:0|0:0,0:0:0:0:
288,288,185224,2,0,P|342:243|282:172,1,179.999994506836,2|2,0:0|0:0,0:0:0:0:
102,120,185564,2,0,L|208:119,1,89.9999972534181,10|0,0:0|0:0,0:0:0:0:
410,120,185790,2,0,L|304:119,1,89.9999972534181,0|0,0:0|0:0,0:0:0:0:
96,320,186017,5,2,0:0:0:0:
196,261,186130,1,0,0:0:0:0:
106,218,186243,1,0,0:0:0:0:
301,167,186357,2,0,L|212:158,1,89.9999972534181,0|10,0:0|0:0,0:0:0:0:
406,218,186583,2,0,L|417:122,1,89.9999972534181,0|0,0:0|0:0,0:0:0:0:
224,96,186809,6,0,L|160:96,2,44.999998626709,0|0|0,0:0|0:0|0:0,0:0:0:0:
425,106,187036,2,0,L|233:106,1,179.999994506836,2|2,0:0|0:0,0:0:0:0:
445,297,187375,2,0,P|467:223|373:180,1,179.999994506836,10|0,0:0|0:0,0:0:0:0:
291,171,187715,1,0,0:0:0:0:
73,328,187828,5,6,0:0:0:0:
256,192,187941,2,0,L|133:192,1,96.0000023437501,0|10,0:0|0:0,0:0:0:0:
438,328,188168,1,0,0:0:0:0:
256,192,188281,2,0,L|378:192,1,96.0000023437501,2|0,0:0|0:0,0:0:0:0:
160,192,188507,2,0,L|256:192,1,96.0000023437501,10|0,0:0|0:0,0:0:0:0:
41,192,188734,5,2,0:0:0:0:
147,153,188847,1,0,0:0:0:0:
60,98,188960,1,10,0:0:0:0:
256,69,189074,1,0,0:0:0:0:
470,192,189187,1,2,0:0:0:0:
364,153,189300,1,0,0:0:0:0:
451,98,189413,1,10,0:0:0:0:
256,69,189527,1,0,0:0:0:0:
60,276,189640,6,0,P|41:207|155:158,1,192.0000046875,6|0,0:0|0:0,0:0:0:0:
399,97,189979,2,0,L|273:90,1,96.0000023437501,6|0,0:0|0:0,0:0:0:0:
112,97,190206,2,0,L|238:90,1,96.0000023437501,0|0,0:0|0:0,0:0:0:0:
440,284,190432,1,6,0:0:0:0:
197,307,190545,5,0,0:0:0:0:
80,279,190658,1,0,0:0:0:0:
256,192,190772,1,0,0:0:0:0:
80,279,190885,1,0,0:0:0:0:
313,307,190998,1,0,0:0:0:0:
80,279,191111,1,0,0:0:0:0:
371,192,191224,1,0,0:0:0:0:
80,279,191338,1,0,0:0:0:0:
430,279,191451,5,6,0:0:0:0:
256,192,191564,12,0,198696,0:0:0:0:
448,192,205941,5,0,0:0:0:0:
256,192,206055,12,0,209338,0:0:0:0:
180,287,209564,5,14,0:0:0:0:
173,206,209790,1,2,0:0:0:0:
281,183,210017,1,10,0:0:0:0:
288,102,210243,1,2,0:0:0:0:
173,206,210470,2,0,P|125:170|174:102,1,160,10|10,0:0|0:0,0:0:0:0:
281,88,211149,1,2,0:0:0:0:
389,289,211375,5,14,0:0:0:0:
396,208,211601,1,2,0:0:0:0:
288,185,211828,1,10,0:0:0:0:
281,104,212054,1,2,0:0:0:0:
396,208,212281,2,0,P|444:172|395:104,1,160,10|10,0:0|0:0,0:0:0:0:
288,90,212960,1,2,0:0:0:0:
180,287,213187,5,14,0:0:0:0:
173,206,213413,1,2,0:0:0:0:
281,183,213640,1,10,0:0:0:0:
288,102,213866,1,2,0:0:0:0:
173,206,214092,2,0,L|11:201,1,160,10|10,0:0|0:0,0:0:0:0:
212,223,214772,1,2,0:0:0:0:
409,253,214998,6,0,P|475:221|401:108,1,240,14|2,0:0|0:0,0:0:0:0:
296,113,215904,2,0,L|456:113,1,160,10|10,0:0|0:0,0:0:0:0:
270,125,216583,1,2,0:0:0:0:
84,95,216809,5,14,0:0:0:0:
211,147,217036,1,2,0:0:0:0:
79,131,217262,1,10,0:0:0:0:
206,183,217489,1,2,0:0:0:0:
74,167,217715,2,0,P|13:212|64:259,1,160,10|10,0:0|0:0,0:0:0:0:
237,255,218394,1,2,0:0:0:0:
416,96,218621,5,14,0:0:0:0:
289,148,218848,1,2,0:0:0:0:
421,132,219074,1,10,0:0:0:0:
294,184,219301,1,2,0:0:0:0:
426,168,219527,2,0,P|487:213|436:260,1,160,10|10,0:0|0:0,0:0:0:0:
256,256,220206,1,2,0:0:0:0:
70,260,220432,6,0,P|25:205|86:168,1,160,14|8,0:0|0:0,0:0:0:0:
224,192,221111,1,2,0:0:0:0:
416,192,221338,2,0,L|320:192,2,80,10|2|10,0:0|0:0|0:0,0:0:0:0:
134,99,222130,1,2,0:0:0:0:
214,106,222243,6,0,B|250:173|252:184|250:227|246:259|232:281|201:304|154:329|97:327|97:327|417:320|417:320|363:322|332:309|300:289|280:260|278:219|263:182|249:144|295:92,1,960,14|0,0:0|0:0,0:0:0:0:
480,96,225413,1,10,0:0:0:0:
352,64,225640,1,2,0:0:0:0:
160,64,225866,6,0,P|110:113|159:170,1,160,14|8,0:0|0:0,0:0:0:0:
256,192,226545,1,2,0:0:0:0:
391,233,226772,2,0,L|298:233,1,80,10|2,0:0|0:0,0:0:0:0:
121,233,227224,2,0,P|81:217|125:168,1,120,10|2,0:0|0:0,0:0:0:0:
400,165,227677,6,0,P|431:140|352:49,1,200,6|2,0:0|0:0,0:0:0:0:
256,64,228357,1,2,0:0:0:0:
158,48,228583,2,0,P|75:82|112:165,1,200,2|2,0:0|0:0,0:0:0:0:
355,277,229489,6,0,L|149:279,1,200,6|2,0:0|0:0,0:0:0:0:
368,369,230394,2,0,P|433:350|354:194,1,300,2|0,0:0|0:0,0:0:0:0:
139,292,231300,6,0,P|77:258|129:157,1,200,6|2,0:0|0:0,0:0:0:0:
256,128,231979,1,2,0:0:0:0:
373,292,232206,2,0,P|435:258|383:157,1,200,2|2,0:0|0:0,0:0:0:0:
156,139,233111,6,0,L|363:126,1,200,6|2,0:0|0:0,0:0:0:0:
102,375,234017,2,0,P|11:323|115:217,1,300,2|0,0:0|0:0,0:0:0:0:
422,149,234923,6,0,L|447:404,1,239.999992675781,6|2,1:2|1:2,0:0:0:0:
256,160,235602,1,2,0:0:0:0:
90,149,235828,2,0,L|66:387,1,239.999992675781,2|2,1:2|1:2,0:0:0:0:
376,118,236734,6,0,L|120:118,1,239.999992675781,6|2,1:2|1:2,0:0:0:0:
422,149,237640,2,0,L|445:387,1,239.999992675781,2|0,1:2|1:2,0:0:0:0:
160,256,238545,5,10,0:0:0:0:
352,256,238772,1,8,0:0:0:0:
128,160,238998,1,10,0:0:0:0:
384,160,239224,1,10,0:0:0:0:
96,96,239451,1,10,0:0:0:0:
416,96,239677,1,8,0:0:0:0:
64,32,239904,1,10,0:0:0:0:
448,32,240130,1,8,0:0:0:0:
96,128,240357,6,0,L|0:128,2,66.6666666666667,10|0|0,0:0|0:0|0:0,0:0:0:0:
326,128,240583,1,8,0:0:0:0:
256,128,240658,1,0,0:0:0:0:
186,128,240734,1,0,0:0:0:0:
416,128,240809,6,0,L|512:128,2,66.6666666666667,10|0|0,0:0|0:0|0:0,0:0:0:0:
106,128,241036,1,8,0:0:0:0:
256,128,241111,1,0,0:0:0:0:
406,128,241187,1,0,0:0:0:0:
96,128,241262,6,0,P|29:71|97:15,1,200,2|10,0:2|1:0,0:0:0:0:
374,269,242168,5,6,0:0:0:0:
447,269,242243,1,0,0:0:0:0:
374,269,242319,1,0,0:0:0:0:
447,269,242394,1,2,0:0:0:0:
137,269,242621,1,6,0:0:0:0:
64,269,242696,1,0,0:0:0:0:
137,269,242772,1,0,0:0:0:0:
64,269,242847,1,2,0:0:0:0:
374,269,243074,6,0,P|421:220|365:122,1,192.0000046875,14|0,0:0|0:0,0:0:0:0:
141,123,243526,1,6,0:0:0:0:
303,70,243753,2,0,L|208:70,1,96.0000023437501,2|0,0:0|0:0,0:0:0:0:
447,269,243979,5,6,0:0:0:0:
374,269,244054,1,0,0:0:0:0:
447,269,244130,1,0,0:0:0:0:
374,269,244205,1,2,0:0:0:0:
64,269,244432,1,6,0:0:0:0:
137,269,244507,1,0,0:0:0:0:
64,269,244583,1,0,0:0:0:0:
137,269,244658,1,2,0:0:0:0:
40,261,244772,1,0,0:0:0:0:
325,150,244885,6,0,L|201:150,2,96.0000023437501,14|0|0,0:0|0:0|0:0,0:0:0:0:
103,124,245338,2,0,L|88:244,1,96.0000023437501,6|0,0:0|0:0,0:0:0:0:
283,229,245564,2,0,L|162:230,1,96.0000023437501,2|0,0:0|0:0,0:0:0:0:
402,270,245790,5,6,0:0:0:0:
329,270,245865,1,0,0:0:0:0:
402,270,245941,1,0,0:0:0:0:
329,270,246016,1,2,0:0:0:0:
232,268,246130,1,0,0:0:0:0:
447,259,246243,2,0,L|256:259,1,192.0000046875,6|2,0:0|0:0,0:0:0:0:
352,211,246583,1,0,0:0:0:0:
159,211,246696,5,14,0:0:0:0:
256,259,246810,2,0,L|64:259,1,192.0000046875,0|0,0:0|0:0,0:0:0:0:
256,259,247149,2,0,L|375:259,1,96.0000023437501,6|0,0:0|0:0,0:0:0:0:
160,259,247375,1,2,0:0:0:0:
463,340,247602,6,0,L|484:224,1,96.0000023437501,6|0,0:0|0:0,0:0:0:0:
256,259,247828,2,0,L|375:259,1,96.0000023437501,8|0,0:0|0:0,0:0:0:0:
256,259,248055,2,0,L|136:259,1,96.0000023437501,4|0,0:0|0:0,0:0:0:0:
384,170,248281,2,0,L|264:170,1,96.0000023437501,2|0,0:0|0:0,0:0:0:0:
119,211,248507,6,0,L|29:212,2,64.0000015625,14|0|0,0:0|0:0|0:0,0:0:0:0:
392,211,248734,2,0,L|482:212,2,64.0000015625
163,253,248960,1,14,0:0:0:0:
348,253,249074,1,8,0:0:0:0:
163,253,249187,1,10,0:0:0:0:
348,253,249301,1,8,0:0:0:0:
121,313,249413,5,6,0:0:0:0:
48,313,249488,1,0,0:0:0:0:
121,313,249564,1,0,0:0:0:0:
48,313,249639,1,2,0:0:0:0:
463,313,249866,1,6,0:0:0:0:
390,313,249941,1,0,0:0:0:0:
463,313,250017,1,0,0:0:0:0:
390,313,250092,1,2,0:0:0:0:
48,313,250319,6,0,P|41:262|150:172,1,192.0000046875,14|0,0:0|0:0,0:0:0:0:
315,192,250772,1,6,0:0:0:0:
102,223,250998,2,0,L|223:223,1,96.0000023437501,2|0,0:0|0:0,0:0:0:0:
390,313,251224,5,6,0:0:0:0:
463,313,251299,1,0,0:0:0:0:
390,313,251375,1,0,0:0:0:0:
463,313,251450,1,2,0:0:0:0:
48,313,251677,1,6,0:0:0:0:
121,313,251752,1,0,0:0:0:0:
48,313,251828,1,0,0:0:0:0:
121,313,251903,1,2,0:0:0:0:
24,275,252017,1,0,0:0:0:0:
256,253,252130,6,0,L|140:253,2,96.0000023437501,14|0|0,0:0|0:0|0:0,0:0:0:0:
447,135,252583,2,0,L|351:135,1,96.0000023437501,6|0,0:0|0:0,0:0:0:0:
160,135,252809,2,0,L|64:135,1,96.0000023437501,2|0,0:0|0:0,0:0:0:0:
299,189,253036,5,6,0:0:0:0:
212,189,253149,1,0,0:0:0:0:
308,125,253262,1,0,0:0:0:0:
203,125,253375,1,0,0:0:0:0:
384,235,253489,2,0,P|432:202|384:100,1,192.0000046875,4|2,0:0|0:0,0:0:0:0:
337,82,253771,1,0,0:0:0:0:
288,65,253828,1,0,0:0:0:0:
240,48,253884,1,0,0:0:0:0:
63,215,253941,6,0,L|185:215,1,96.0000023437501,14|0,0:0|0:0,0:0:0:0:
351,130,254168,2,0,L|256:130,1,96.0000023437501,2|0,0:0|0:0,0:0:0:0:
446,130,254394,2,0,L|212:129,1,192.0000046875,6|0,0:0|0:0,0:0:0:0:
301,123,254677,1,0,0:0:0:0:
328,86,254734,1,2,0:0:0:0:
320,40,254790,1,0,0:0:0:0:
130,137,254847,6,0,L|260:137,1,96.0000023437501,6|0,0:0|0:0,0:0:0:0:
115,240,255074,2,0,L|93:124,1,96.0000023437501
382,137,255300,2,0,L|252:137,1,96.0000023437501,14|0,0:0|0:0,0:0:0:0:
396,240,255527,2,0,L|418:124,1,96.0000023437501,0|0,0:0|0:0,0:0:0:0:
210,240,255753,6,0,L|81:240,3,96.0000023437501,4|0|0|0,0:0|0:0|0:0|0:0,0:0:0:0:
301,240,256206,2,0,L|430:240,1,96.0000023437501,12|0,0:0|0:0,0:0:0:0:
287,213,256432,2,0,L|157:213,1,96.0000023437501
429,341,256658,6,0,L|450:225,1,96.0000023437501,4|0,0:0|0:0,0:0:0:0:
335,276,256885,2,0,L|356:160,1,96.0000023437501
153,111,257111,2,0,L|283:111,1,96.0000023437501,12|0,0:0|0:0,0:0:0:0:
359,111,257338,2,0,L|229:111,1,96.0000023437501
76,125,257564,5,12,0:0:0:0:
256,192,257640,1,0,0:0:0:0:
435,125,257715,1,0,0:0:0:0:
425,156,257790,1,0,0:0:0:0:
256,192,257866,1,0,0:0:0:0:
86,156,257941,1,0,0:0:0:0:
95,197,258017,5,2,0:0:0:0:
256,192,258092,1,0,0:0:0:0:
416,197,258168,1,0,0:0:0:0:
406,240,258243,1,2,0:0:0:0:
256,192,258319,1,0,0:0:0:0:
105,240,258394,1,0,0:0:0:0:
403,288,258470,6,0,P|453:253|403:109,1,239.999992675781,6|0,0:0|0:0,0:0:0:0:
256,128,259149,1,2,0:0:0:0:
108,109,259375,2,0,L|250:110,1,119.999996337891,2|2,0:0|0:0,0:0:0:0:
403,109,259828,2,0,P|395:162|288:226,1,179.999994506836,2|2,0:0|0:0,0:0:0:0:
165,282,260281,6,0,P|255:110|337:286,1,479.999985351563,6|0,0:0|0:0,0:0:0:0:
128,320,261640,1,2,0:0:0:0:
256,288,261866,1,2,0:0:0:0:
109,288,262092,6,0,P|59:253|109:109,1,239.999992675781,6|0,0:0|0:0,0:0:0:0:
256,128,262771,1,2,0:0:0:0:
404,109,262997,2,0,L|262:110,1,119.999996337891,2|2,0:0|0:0,0:0:0:0:
109,109,263450,2,0,P|117:162|224:226,1,179.999994506836,2|2,0:0|0:0,0:0:0:0:
480,224,263904,5,4,0:0:0:0:
256,192,264017,12,0,267526,0:0:0:0:
128,352,271149,5,2,0:0:0:0:
256,288,271375,2,0,L|263:216,1,59.9999981689454,0|0,0:0|0:0,0:0:0:0:
128,352,271715,2,0,L|121:280,1,59.9999981689454,2|0,0:0|0:0,0:0:0:0:
331,285,272055,5,2,0:0:0:0:
259,307,272168,2,0,L|253:247,1,59.9999981689454
181,285,272394,1,0,0:0:0:0:
259,307,272507,2,0,L|253:247,1,59.9999981689454,0|2,0:0|0:0,0:0:0:0:
331,285,272734,1,0,0:0:0:0:
116,357,272960,5,2,0:0:0:0:
256,288,273186,2,0,L|263:216,1,59.9999981689454
116,357,273526,2,0,L|109:285,1,59.9999981689454,2|0,0:0|0:0,0:0:0:0:
343,283,273866,5,2,0:0:0:0:
259,307,273979,2,0,L|253:247,1,59.9999981689454,0|0,0:0|0:0,0:0:0:0:
169,283,274205,1,0,0:0:0:0:
259,307,274318,2,0,L|253:247,1,59.9999981689454,0|2,0:0|0:0,0:0:0:0:
343,283,274545,1,0,0:0:0:0:
19,283,274772,5,2,0:0:0:0:
189,228,274998,2,0,L|196:156,1,59.9999981689454
24,281,275338,2,0,L|17:209,1,59.9999981689454,2|0,0:0|0:0,0:0:0:0:
352,283,275677,5,2,0:0:0:0:
259,307,275790,2,0,L|254:247,1,59.9999981689454,0|0,0:0|0:0,0:0:0:0:
160,283,276016,1,0,0:0:0:0:
259,307,276129,2,0,L|254:247,1,59.9999981689454,0|2,0:0|0:0,0:0:0:0:
352,283,276356,1,0,0:0:0:0:
160,320,276583,6,0,P|122:291|169:246,1,119.999996337891,2|2,0:0|0:0,0:0:0:0:
256,160,276923,2,0,L|115:161,1,119.999996337891,0|2,0:0|0:0,0:0:0:0:
211,100,277262,1,2,0:0:0:0:
416,160,277375,2,0,L|480:160,1,44.999998626709,2|2,0:0|0:0,0:0:0:0:
256,256,277489,6,0,L|160:256,1,89.9999972534181,2|2,0:0|0:0,0:0:0:0:
416,160,277715,2,0,L|326:160,1,89.9999972534181,2|2,0:0|0:0,0:0:0:0:
96,160,277941,6,0,L|32:160,1,44.999998626709,2|2,0:0|0:0,0:0:0:0:
265,52,278055,2,0,L|329:52,1,44.999998626709,2|2,0:0|0:0,0:0:0:0:
247,52,278168,2,0,L|183:52,1,44.999998626709,2|2,0:0|0:0,0:0:0:0:
416,160,278281,2,0,L|480:160,1,44.999998626709,2|2,0:0|0:0,0:0:0:0:
256,256,278394,6,0,P|205:211|257:155,1,160,4|2,0:0|0:0,0:0:0:0:
347,146,278734,2,0,L|429:138,2,80,0|0|0,0:0|0:0|0:0,0:0:0:0:
246,155,279074,6,0,L|435:136,1,160,2|0,0:0|0:0,0:0:0:0:
294,229,279413,2,0,L|212:221,1,80,2|0,0:0|0:0,0:0:0:0:
106,315,279640,2,0,L|188:307,1,80,2|0,0:0|0:0,0:0:0:0:
74,278,279866,2,0,P|22:258|77:193,1,160,2|0,0:0|0:0,0:0:0:0:
176,204,280206,6,0,P|236:195|147:-66,1,480,2|0,0:0|0:0,0:0:0:0:
375,274,280998,6,0,L|215:259,1,160,2|2,0:0|0:0,0:0:0:0:
337,371,281338,2,0,L|350:292,1,80,2|0,0:0|0:0,0:0:0:0:
238,232,281564,2,0,L|225:153,1,80,2|0,0:0|0:0,0:0:0:0:
113,283,281790,2,0,L|126:362,1,80,2|0,0:0|0:0,0:0:0:0:
349,366,282017,6,0,P|299:248|241:362,1,320,2|0,0:0|0:0,0:0:0:0:
435,326,282583,2,0,L|329:325,1,80,2|0,0:0|0:0,0:0:0:0:
165,231,282809,6,0,L|325:231,1,160,2|0,0:0|0:0,0:0:0:0:
235,193,283149,2,0,L|226:92,1,80,2|0,0:0|0:0,0:0:0:0:
335,132,283375,2,0,L|344:31,1,80,2|0,0:0|0:0,0:0:0:0:
227,113,283602,1,2,0:0:0:0:
335,132,283715,1,0,0:0:0:0:
119,366,283828,6,0,P|50:326|127:265,1,200,6|0,0:0|0:0,0:0:0:0:
329,182,284168,2,0,L|157:184,1,150,6|0,0:0|0:0,0:0:0:0:
372,317,284394,2,0,P|424:274|357:231,1,150,2|0,0:0|0:0,0:0:0:0:
158,331,284621,6,0,P|253:41|358:328,1,800,6|0,0:0|0:0,0:0:0:0:
96,192,285640,5,6,0:0:0:0:
194,190,285753,1,2,0:0:0:0:
91,213,285866,1,2,0:0:0:0:
189,211,285979,1,2,0:0:0:0:
86,252,286092,1,2,0:0:0:0:
184,250,286206,1,2,0:0:0:0:
81,335,286319,1,0,0:0:0:0:
70,307,286356,1,0,0:0:0:0:
73,277,286394,1,0,0:0:0:0:
89,252,286432,1,0,0:0:0:0:
115,238,286469,1,0,0:0:0:0:
145,237,286507,1,0,0:0:0:0:
307,86,286545,5,6,0:0:0:0:
209,84,286658,1,2,0:0:0:0:
312,107,286771,1,2,0:0:0:0:
214,105,286884,1,2,0:0:0:0:
317,146,286997,1,2,0:0:0:0:
219,144,287111,1,2,0:0:0:0:
322,199,287224,2,0,L|174:193,1,134.999995880127,0|0,0:0|0:0,0:0:0:0:
363,344,287451,5,6,0:0:0:0:
461,346,287564,1,2,0:0:0:0:
358,323,287677,1,2,0:0:0:0:
456,325,287790,1,2,0:0:0:0:
241,331,287904,1,2,0:0:0:0:
339,333,288017,1,2,0:0:0:0:
139,315,288130,2,0,L|59:312,2,67.4999979400635
326,78,288357,6,0,L|336:154,1,44.999998626709,6|2,0:0|0:0,0:0:0:0:
186,78,288470,2,0,L|176:154,1,44.999998626709,2|2,0:0|0:0,0:0:0:0:
334,179,288583,2,0,L|372:233,1,44.999998626709,2|2,0:0|0:0,0:0:0:0:
178,179,288696,2,0,L|140:233,1,44.999998626709,2|2,0:0|0:0,0:0:0:0:
373,297,288809,2,0,L|429:317,1,44.999998626709,2|2,0:0|0:0,0:0:0:0:
139,297,288923,2,0,L|83:317,1,44.999998626709,2|2,0:0|0:0,0:0:0:0:
256,320,289036,1,0,0:0:0:0:
448,352,289149,1,0,0:0:0:0:
151,352,289262,5,6,0:0:0:0:
53,332,289375,1,2,0:0:0:0:
165,302,289489,1,2,0:0:0:0:
67,282,289602,1,2,0:0:0:0:
178,235,289715,1,2,0:0:0:0:
80,215,289828,1,2,0:0:0:0:
311,167,289941,2,0,L|186:139,1,89.9999972534181
456,353,290168,5,6,0:0:0:0:
358,327,290281,1,2,0:0:0:0:
470,303,290395,1,2,0:0:0:0:
372,277,290508,1,2,0:0:0:0:
483,236,290621,1,2,0:0:0:0:
385,210,290734,1,2,0:0:0:0:
496,177,290847,2,0,L|503:144,6,22.4999993133545
215,264,291074,5,6,0:0:0:0:
313,238,291187,1,2,0:0:0:0:
201,214,291301,1,2,0:0:0:0:
299,188,291414,1,2,0:0:0:0:
188,147,291527,1,2,0:0:0:0:
286,121,291640,1,2,0:0:0:0:
175,103,291753,1,0,0:0:0:0:
155,95,291781,1,0,0:0:0:0:
141,77,291809,1,0,0:0:0:0:
137,56,291837,1,0,0:0:0:0:
144,35,291866,1,0,0:0:0:0:
161,20,291894,1,0,0:0:0:0:
183,16,291922,1,0,0:0:0:0:
346,36,291979,6,0,P|374:85|309:117,1,134.999995880127,6|0,0:0|0:0,0:0:0:0:
166,36,292206,2,0,P|138:85|203:117,1,134.999995880127,2|0,0:0|0:0,0:0:0:0:
367,227,292432,2,0,L|232:227,1,134.999995880127,2|0,0:0|0:0,0:0:0:0:
407,302,292658,2,0,L|496:301,1,89.9999972534181,2|0,0:0|0:0,0:0:0:0:
256,314,292885,6,0,L|194:284,1,48.000001171875,6|2,0:0|0:0,0:0:0:0:
92,199,292998,2,0,L|153:168,1,48.000001171875,2|2,0:0|0:0,0:0:0:0:
256,314,293111,2,0,L|317:284,1,48.000001171875,2|2,0:0|0:0,0:0:0:0:
419,199,293224,2,0,L|358:168,1,48.000001171875,2|2,0:0|0:0,0:0:0:0:
256,314,293338,6,0,L|194:284,1,48.000001171875,2|2,0:0|0:0,0:0:0:0:
79,221,293451,2,0,L|140:191,1,48.000001171875,2|2,0:0|0:0,0:0:0:0:
256,314,293564,2,0,L|317:284,1,48.000001171875,2|2,0:0|0:0,0:0:0:0:
432,221,293677,2,0,L|371:191,1,48.000001171875,2|2,0:0|0:0,0:0:0:0:
256,314,293790,6,0,L|194:284,1,48.000001171875,2|2,0:0|0:0,0:0:0:0:
67,243,293904,2,0,L|128:213,1,48.000001171875,2|2,0:0|0:0,0:0:0:0:
256,314,294017,2,0,L|317:284,1,48.000001171875,2|2,0:0|0:0,0:0:0:0:
444,243,294131,2,0,L|383:213,1,48.000001171875,2|2,0:0|0:0,0:0:0:0:
256,314,294243,6,0,L|194:284,1,48.000001171875,2|2,0:0|0:0,0:0:0:0:
54,265,294357,2,0,L|115:235,1,48.000001171875,2|2,0:0|0:0,0:0:0:0:
256,192,294470,1,2,0:0:0:0:
457,265,294583,1,2,0:0:0:0:
173,133,294696,6,0,L|173:72,1,48.000001171875,6|2,0:0|0:0,0:0:0:0:
338,133,294809,2,0,L|338:72,1,48.000001171875,2|2,0:0|0:0,0:0:0:0:
162,133,294923,2,0,L|149:73,1,48.000001171875,2|2,0:0|0:0,0:0:0:0:
349,133,295036,2,0,L|361:73,1,48.000001171875,2|2,0:0|0:0,0:0:0:0:
150,133,295149,6,0,L|125:76,1,48.000001171875,2|2,0:0|0:0,0:0:0:0:
361,133,295262,2,0,L|385:76,1,48.000001171875,2|2,0:0|0:0,0:0:0:0:
139,133,295375,2,0,L|104:81,1,48.000001171875,2|2,0:0|0:0,0:0:0:0:
372,133,295488,2,0,L|406:81,1,48.000001171875,2|2,0:0|0:0,0:0:0:0:
127,133,295602,6,0,L|82:90,1,48.000001171875,2|2,0:0|0:0,0:0:0:0:
384,133,295715,2,0,L|428:90,1,48.000001171875,2|2,0:0|0:0,0:0:0:0:
115,133,295828,2,0,L|64:99,1,48.000001171875,2|2,0:0|0:0,0:0:0:0:
396,133,295941,2,0,L|446:99,1,48.000001171875,2|2,0:0|0:0,0:0:0:0:
104,133,296055,6,0,L|46:111,1,48.000001171875,2|2,0:0|0:0,0:0:0:0:
407,133,296168,2,0,L|464:111,1,48.000001171875,2|2,0:0|0:0,0:0:0:0:
256,235,296281,1,2,0:0:0:0:
59,116,296394,1,2,0:0:0:0:
256,128,296507,5,6,0:0:0:0:
379,160,296536,2,0,L|411:160,2,24.0000005859375
256,128,296621,1,0,0:0:0:0:
133,160,296649,2,0,L|101:160,2,24.0000005859375
256,128,296734,5,2,0:0:0:0:
385,160,296762,2,0,L|417:160,2,24.0000005859375
256,128,296848,1,0,0:0:0:0:
127,160,296875,2,0,L|95:160,2,24.0000005859375
256,128,296960,5,2,0:0:0:0:
391,160,296989,2,0,L|423:160,2,24.0000005859375
256,128,297074,1,0,0:0:0:0:
121,160,297102,2,0,L|89:160,2,24.0000005859375
256,128,297187,5,2,0:0:0:0:
397,160,297216,2,0,L|429:160,2,24.0000005859375
256,128,297301,1,0,0:0:0:0:
115,160,297329,2,0,L|83:160,2,24.0000005859375
256,242,297413,5,2,0:0:0:0:
409,160,297441,2,0,L|441:160,2,24.0000005859375
291,227,297526,1,0,0:0:0:0:
103,160,297554,2,0,L|71:160,2,24.0000005859375
306,192,297640,5,2,0:0:0:0:
421,160,297668,2,0,L|453:160,2,24.0000005859375
291,155,297753,1,0,0:0:0:0:
91,160,297781,2,0,L|59:160,2,24.0000005859375
256,141,297866,5,2,0:0:0:0:
433,160,297894,2,0,L|465:160,2,24.0000005859375
219,155,297979,1,0,0:0:0:0:
79,160,298007,2,0,L|47:160,2,24.0000005859375
205,192,298092,5,2,0:0:0:0:
445,160,298121,2,0,L|477:160,2,24.0000005859375
219,227,298206,1,0,0:0:0:0:
67,160,298234,2,0,L|35:160,2,24.0000005859375
256,319,298319,6,0,P|325:268|256:218,1,200,0|2,0:0|0:0,0:0:0:0:
160,192,298658,1,0,0:0:0:0:
160,142,298714,1,0,0:0:0:0:
160,92,298771,1,0,0:0:0:0:
64,192,298885,2,0,L|64:64,1,100,2|0,0:0|0:0,0:0:0:0:
160,192,299111,6,0,P|217:118|161:44,1,200,0|2,0:0|0:0,0:0:0:0:
64,192,299451,2,0,L|64:64,1,100,0|0,0:0|0:0,0:0:0:0:
256,96,299677,2,0,L|256:224,1,100,2|0,0:0|0:0,0:0:0:0:
207,167,299847,1,0,0:0:0:0:
64,192,299904,2,0,L|192:192,1,100,2|0,0:0|0:0,0:0:0:0:
376,368,300130,6,0,P|257:-61|136:367,1,1200,6|2,0:0|0:0,0:0:0:0:
187,364,301885,1,2,0:0:0:0:
357,258,301941,5,14,0:0:0:0:
256,222,302055,1,2,0:0:0:0:
459,293,302168,1,14,0:0:0:0:
357,258,302282,1,2,0:0:0:0:
154,258,302394,5,14,0:0:0:0:
256,222,302508,1,2,0:0:0:0:
52,293,302621,1,14,0:0:0:0:
154,258,302735,1,2,0:0:0:0:
357,258,302847,6,0,L|417:255,1,48.000001171875,14|2,0:0|0:0,0:0:0:0:
154,258,302960,2,0,L|94:255,1,48.000001171875,2|2,0:0|0:0,0:0:0:0:
382,314,303074,6,0,L|442:311,1,48.000001171875,14|2,0:0|0:0,0:0:0:0:
129,314,303187,2,0,L|69:311,1,48.000001171875,2|2,0:0|0:0,0:0:0:0:
256,192,303300,5,2,0:0:0:0:
304,173,303357,1,2,0:0:0:0:
256,192,303413,1,2,0:0:0:0:
207,173,303470,1,2,0:0:0:0:
256,192,303526,1,2,0:0:0:0:
314,214,303583,1,2,0:0:0:0:
256,192,303640,1,2,0:0:0:0:
197,214,303697,1,2,0:0:0:0:
348,314,303753,5,6,0:0:0:0:
449,303,303866,1,2,0:0:0:0:
256,253,303979,1,2,0:0:0:0:
449,303,304092,1,2,0:0:0:0:
163,314,304206,1,2,0:0:0:0:
62,303,304319,1,2,0:0:0:0:
256,253,304432,1,2,0:0:0:0:
62,303,304545,2,2,L|125:297,1,48.000001171875,2|2,0:0|0:0,0:0:0:0:
256,253,304658,6,2,L|144:251,1,96.0000023437501,2|2,0:0|0:0,0:0:0:0:
348,130,304885,2,2,L|409:130,1,48.000001171875,2|2,0:0|0:0,0:0:0:0:
163,130,304998,2,2,L|102:130,1,48.000001171875,2|2,0:0|0:0,0:0:0:0:
256,253,305111,2,2,L|367:251,1,96.0000023437501,2|2,0:0|0:0,0:0:0:0:
161,251,305338,1,2,0:0:0:0:
351,251,305451,2,2,L|279:250,1,48.000001171875
102,253,305564,5,2,0:0:0:0:
427,284,305677,2,2,L|455:283,2,24.0000005859375,2|2|2,0:0|0:0|0:0,0:0:0:0:
302,284,305762,1,2,0:0:0:0:
182,284,305790,1,2,0:0:0:0:
84,284,305904,2,2,L|56:283,2,24.0000005859375,2|2|2,0:0|0:0|0:0,0:0:0:0:
209,284,305989,1,2,0:0:0:0:
329,284,306017,5,2,0:0:0:0:
430,284,306130,2,2,L|342:285,1,48.000001171875,2|2,0:0|0:0,0:0:0:0:
196,124,306243,2,2,L|108:125,1,48.000001171875,2|2,0:0|0:0,0:0:0:0:
315,124,306357,2,2,L|363:124,1,48.000001171875,2|2,0:0|0:0,0:0:0:0:
185,284,306470,5,2,0:0:0:0:
81,284,306583,2,2,L|53:283,2,24.0000005859375,2|2|2,0:0|0:0|0:0,0:0:0:0:
206,284,306668,1,2,0:0:0:0:
326,284,306696,2,2,L|396:283,1,48.000001171875,2|2,0:0|0:0,0:0:0:0:
185,284,306809,2,2,L|115:283,1,48.000001171875,2|2,0:0|0:0,0:0:0:0:
396,213,306923,5,2,0:0:0:0:
398,189,306951,1,2,0:0:0:0:
400,165,306979,1,2,0:0:0:0:
148,71,307036,2,2,L|140:8,1,48.000001171875,2|2,0:0|0:0,0:0:0:0:
363,71,307149,1,2,0:0:0:0:
367,47,307177,1,2,0:0:0:0:
370,23,307205,1,2,0:0:0:0:
115,213,307262,2,2,L|108:150,1,48.000001171875,2|2,0:0|0:0,0:0:0:0:
256,161,307375,5,6,0:0:0:0:
353,232,307489,1,0,0:0:0:0:
158,232,307602,1,10,0:0:0:0:
353,232,307715,1,0,0:0:0:0:
158,232,307828,2,0,L|265:232,1,96.0000023437501,2|0,0:0|0:0,0:0:0:0:
57,230,308055,1,10,0:0:0:0:
254,232,308168,6,0,L|16:231,1,192.0000046875
303,107,308507,2,0,L|208:107,1,96.0000023437501,10|0,0:0|0:0,0:0:0:0:
379,293,308734,2,0,L|475:293,1,96.0000023437501,2|0,0:0|0:0,0:0:0:0:
132,293,308960,2,0,L|36:293,1,96.0000023437501,10|0,0:0|0:0,0:0:0:0:
351,165,309187,6,0,L|152:164,1,192.0000046875,2|10,0:0|0:0,0:0:0:0:
367,302,309526,2,0,P|431:257|349:212,1,192.0000046875,0|0,0:0|0:0,0:0:0:0:
149,203,309866,1,10,0:0:0:0:
434,356,309979,6,0,L|447:259,1,96.0000023437501,0|2,0:0|0:0,0:0:0:0:
256,99,310206,1,0,0:0:0:0:
65,261,310319,2,0,L|77:356,1,96.0000023437501,10|0,0:0|0:0,0:0:0:0:
362,174,310545,1,2,0:0:0:0:
149,174,310658,1,2,0:0:0:0:
434,356,310772,2,0,L|447:261,1,96.0000023437501,10|0,0:0|0:0,0:0:0:0:
133,130,310998,6,2,L|194:130,1,48.000001171875,6|2,0:0|0:0,0:0:0:0:
330,130,311111,2,2,L|378:130,1,48.000001171875,2|2,0:0|0:0,0:0:0:0:
214,178,311224,1,2,0:0:0:0:
297,178,311338,1,2,0:0:0:0:
102,345,311451,1,2,0:0:0:0:
303,222,311564,1,2,0:0:0:0:
256,222,311620,1,2,0:0:0:0:
208,222,311677,1,2,0:0:0:0:
409,345,311790,2,2,L|465:344,1,48.000001171875,2|2,0:0|0:0,0:0:0:0:
256,284,311904,5,2,0:0:0:0:
135,276,311932,2,2,L|100:279,2,24.0000005859375,2|2|2,0:0|0:0|0:0,0:0:0:0:
256,284,312017,1,2,0:0:0:0:
376,276,312045,2,2,L|411:279,2,24.0000005859375,2|2|2,0:0|0:0|0:0,0:0:0:0:
194,312,312130,6,2,L|133:312,1,48.000001171875,2|2,0:0|0:0,0:0:0:0:
317,312,312243,2,2,L|365:312,1,48.000001171875,2|2,0:0|0:0,0:0:0:0:
194,312,312357,1,2,0:0:0:0:
98,271,312470,2,2,L|146:271,1,48.000001171875,2|2,0:0|0:0,0:0:0:0:
365,271,312583,2,2,L|413:271,2,48.000001171875,2|2|2,0:0|0:0|0:0,0:0:0:0:
150,158,312809,5,2,0:0:0:0:
361,158,312923,2,2,L|422:158,1,48.000001171875,2|2,0:0|0:0,0:0:0:0:
256,192,313036,1,2,0:0:0:0:
150,158,313064,2,2,L|115:158,2,24.0000005859375,2|2|2,0:0|0:0|0:0,0:0:0:0:
256,192,313149,2,2,L|358:192,1,96.0000023437501,2|2,0:0|0:0,0:0:0:0:
150,158,313375,6,2,L|115:161,2,24.0000005859375
256,192,313460,1,2,0:0:0:0:
361,158,313489,2,2,L|434:158,1,48.000001171875
256,192,313602,1,2,0:0:0:0:
150,158,313630,2,2,L|115:161,2,24.0000005859375,2|2|2,0:0|0:0|0:0,0:0:0:0:
330,250,313715,6,2,L|393:246,1,48.000001171875,2|2,0:0|0:0,0:0:0:0:
181,250,313828,2,2,L|118:246,1,48.000001171875,2|2,0:0|0:0,0:0:0:0:
352,331,313941,2,2,L|415:327,1,48.000001171875,2|2,0:0|0:0,0:0:0:0:
159,331,314055,2,2,L|96:327,1,48.000001171875,2|2,0:0|0:0,0:0:0:0:
311,303,314168,6,0,L|434:292,1,96.0000023437501,2|0,0:0|0:0,0:0:0:0:
200,303,314338,2,0,L|77:292,1,96.0000023437501,2|0,0:0|0:0,0:0:0:0:
352,331,314507,2,0,L|415:327,1,48.000001171875,2|0,0:0|0:0,0:0:0:0:
256,345,314621,5,6,0:0:0:0:
160,345,314734,1,0,0:0:0:0:
351,345,314847,1,10,0:0:0:0:
160,345,314960,1,0,0:0:0:0:
351,345,315074,2,0,L|470:345,1,96.0000023437501,2|0,0:0|0:0,0:0:0:0:
256,192,315300,1,10,0:0:0:0:
447,345,315413,1,0,0:0:0:0:
208,139,315526,6,0,L|303:139,1,96.0000023437501,2|0,0:0|0:0,0:0:0:0:
102,253,315753,2,0,L|88:140,1,96.0000023437501,10|0,0:0|0:0,0:0:0:0:
310,93,315979,1,2,0:0:0:0:
202,93,316092,1,0,0:0:0:0:
304,205,316206,1,10,0:0:0:0:
207,205,316319,1,0,0:0:0:0:
400,337,316432,6,0,P|468:303|394:225,1,192.0000046875,2|0,0:0|0:0,0:0:0:0:
176,199,316772,2,0,P|123:167|181:119,1,144.000003515625,2|0,0:0|0:0,0:0:0:0:
335,199,316998,2,0,P|388:167|330:119,1,144.000003515625,0|0,0:0|0:0,0:0:0:0:
111,337,317224,6,0,P|43:303|117:225,1,192.0000046875,2|2,0:0|0:0,0:0:0:0:
317,289,317564,2,0,P|256:116|195:289,1,480.00001171875,2|0,0:0|0:0,0:0:0:0:
449,350,318243,6,0,L|332:346,2,96.0000023437501,6|0|10,0:0|0:0|0:0,0:0:0:0:
239,343,318583,2,0,L|183:339,1,48.000001171875,0|0,0:0|0:0,0:0:0:0:
45,220,318696,6,0,L|101:216,1,48.000001171875,2|0,0:0|0:0,0:0:0:0:
239,343,318809,2,0,L|296:339,1,48.000001171875,0|0,0:0|0:0,0:0:0:0:
140,214,318923,2,0,L|93:216,1,48.000001171875,10|0,0:0|0:0,0:0:0:0:
155,267,319036,2,0,L|203:270,1,48.000001171875
377,182,319149,6,0,L|321:178,1,48.000001171875,2|0,0:0|0:0,0:0:0:0:
140,214,319262,2,0,L|93:216,1,48.000001171875,0|0,0:0|0:0,0:0:0:0:
264,91,319375,2,0,L|321:87,1,48.000001171875,10|0,0:0|0:0,0:0:0:0:
248,91,319489,2,0,L|191:87,1,48.000001171875,0|0,0:0|0:0,0:0:0:0:
355,286,319602,6,0,L|453:277,1,96.0000023437501,2|0,0:0|0:0,0:0:0:0:
154,126,319828,1,10,0:0:0:0:
357,126,319941,1,0,0:0:0:0:
112,331,320055,6,0,P|55:305|125:222,1,192.0000046875,2|10,0:0|0:0,0:0:0:0:
211,220,320394,1,0,0:0:0:0:
396,314,320507,2,0,L|274:314,1,96.0000023437501,2|0,0:0|0:0,0:0:0:0:
486,188,320734,2,0,L|363:188,1,96.0000023437501,10|0,0:0|0:0,0:0:0:0:
159,151,320960,5,2,0:0:0:0:
256,99,321074,1,0,0:0:0:0:
352,151,321187,1,10,0:0:0:0:
256,99,321300,1,0,0:0:0:0:
444,332,321413,2,0,L|337:320,1,96.0000023437501,2|0,0:0|0:0,0:0:0:0:
148,287,321640,1,10,0:0:0:0:
363,287,321753,2,0,L|289:287,1,48.000001171875
160,314,321866,6,0,L|256:314,1,96.0000023437501,2|0,0:0|0:0,0:0:0:0:
64,206,322092,2,0,L|49:93,1,96.0000023437501,10|0,0:0|0:0,0:0:0:0:
316,186,322319,1,2,0:0:0:0:
207,103,322432,1,0,0:0:0:0:
304,103,322545,1,10,0:0:0:0:
195,186,322658,1,0,0:0:0:0:
367,329,322772,6,0,L|470:322,1,96.0000023437501,2|0,0:0|0:0,0:0:0:0:
144,329,322998,2,0,L|41:322,1,96.0000023437501,10|0,0:0|0:0,0:0:0:0:
304,103,323224,1,2,0:0:0:0:
207,103,323337,1,0,0:0:0:0:
393,343,323451,1,10,0:0:0:0:
118,343,323564,1,0,0:0:0:0:
336,218,323677,6,0,L|451:214,1,96.0000023437501,2|0,0:0|0:0,0:0:0:0:
381,178,323847,1,0,0:0:0:0:
227,142,323904,2,0,L|175:130,1,48.000001171875,10|0,0:0|0:0,0:0:0:0:
381,178,324017,2,0,L|433:167,1,48.000001171875,2|0,0:0|0:0,0:0:0:0:
302,78,324130,2,0,L|256:69,1,48.000001171875
130,178,324243,2,0,L|78:167,1,48.000001171875,2|0,0:0|0:0,0:0:0:0:
209,78,324356,2,0,L|256:69,1,48.000001171875
428,188,324470,2,0,L|376:176,1,48.000001171875,2|0,0:0|0:0,0:0:0:0:
174,303,324583,6,0,L|58:294,1,96.0000023437501,0|10,0:0|0:0,0:0:0:0:
359,218,324809,1,2,0:0:0:0:
152,218,324923,2,0,L|217:208,1,48.000001171875,2|2,0:0|0:0,0:0:0:0:
337,303,325036,2,0,L|453:294,1,96.0000023437501,2|10,0:0|0:0,0:0:0:0:
175,303,325262,2,0,P|120:260|174:239,1,144.000003515625,2|0,0:0|0:0,0:0:0:0:
350,168,325489,6,0,L|119:136,1,192.0000046875,6|10,0:0|0:0,0:0:0:0:
350,168,325828,1,0,0:0:0:0:
150,278,325941,2,0,L|276:262,1,96.0000023437501,2|0,0:0|0:0,0:0:0:0:
44,298,326168,2,0,L|29:185,1,96.0000023437501,10|0,0:0|0:0,0:0:0:0:
267,168,326394,6,0,L|185:158,1,48.000001171875,2|0,0:0|0:0,0:0:0:0:
66,133,326507,1,0,0:0:0:0:
165,99,326621,1,10,0:0:0:0:
346,99,326734,1,0,0:0:0:0:
256,192,326847,2,0,L|303:197,1,48.000001171875,2|0,0:0|0:0,0:0:0:0:
470,253,326960,1,0,0:0:0:0:
256,314,327074,1,10,0:0:0:0:
41,253,327187,1,0,0:0:0:0:
256,314,327300,6,0,P|315:287|248:205,1,192.0000046875,2|10,0:0|0:0,0:0:0:0:
212,204,327583,1,0,0:0:0:0:
65,150,327640,2,0,L|120:150,1,48.000001171875,0|0,0:0|0:0,0:0:0:0:
342,89,327753,6,0,L|286:89,1,48.000001171875,2|0,0:0|0:0,0:0:0:0:
169,89,327866,2,0,L|225:89,1,48.000001171875,0|0,0:0|0:0,0:0:0:0:
355,323,327979,2,0,L|411:323,1,48.000001171875,10|0,0:0|0:0,0:0:0:0:
156,323,328092,2,0,L|100:323,1,48.000001171875,0|0,0:0|0:0,0:0:0:0:
364,232,328206,6,0,L|453:232,2,64.0000015625,2|0|0,0:0|0:0|0:0,0:0:0:0:
110,192,328432,1,10,0:0:0:0:
256,192,328507,1,0,0:0:0:0:
402,192,328583,1,0,0:0:0:0:
148,232,328658,6,0,L|59:232,2,64.0000015625,2|0|0,0:0|0:0|0:0,0:0:0:0:
314,340,328885,2,0,L|250:340,2,64.0000015625,10|0|0,0:0|0:0|0:0,0:0:0:0:
479,349,329111,6,0,P|492:293|383:240,1,192.0000046875,14|10,0:0|0:0,0:0:0:0:
138,263,329451,1,0,0:0:0:0:
321,165,329564,1,10,0:0:0:0:
215,122,329677,1,0,0:0:0:0:
398,43,329790,1,10,0:0:0:0:
113,43,329904,1,0,0:0:0:0:
373,325,330017,6,0,L|497:315,1,96.0000023437501,10|0,0:0|0:0,0:0:0:0:
150,130,330243,1,10,0:0:0:0:
361,130,330357,1,0,0:0:0:0:
138,325,330470,2,0,L|14:315,1,96.0000023437501,10|0,0:0|0:0,0:0:0:0:
398,43,330696,1,10,0:0:0:0:
113,43,330810,1,0,0:0:0:0:
469,317,330923,6,0,L|273:302,1,192.0000046875,14|0,0:0|0:0,0:0:0:0:
42,317,331262,2,0,L|238:302,1,192.0000046875,14|0,0:0|0:0,0:0:0:0:
128,355,331602,1,0,0:0:0:0:
384,355,331715,1,14,0:0:0:0:
256,192,331828,12,2,332507,0:0:0:0:
272,302,332734,6,0,L|400:302,1,89.9999972534181,6|0,0:0|0:0,0:0:0:0:
240,302,332960,2,0,L|112:302,1,89.9999972534181,10|0,0:0|0:0,0:0:0:0:
383,351,333187,6,0,L|422:353,1,22.4999993133545,2|0,0:0|0:0,0:0:0:0:
225,162,333300,2,0,L|186:164,1,22.4999993133545
287,162,333413,2,0,L|326:164,1,22.4999993133545,10|0,0:0|0:0,0:0:0:0:
129,351,333526,2,0,L|90:353,1,22.4999993133545,0|0,0:0|0:0,0:0:0:0:
256,192,333640,6,0,L|266:129,3,44.999998626709,2|0|0|0,0:0|0:0|0:0|0:0,0:0:0:0:
423,359,333867,2,0,L|444:269,1,89.9999972534181,10|0,0:0|0:0,0:0:0:0:
256,192,334092,6,0,L|246:129,3,44.999998626709,2|0|0|0,0:0|0:0|0:0|0:0,0:0:0:0:
89,359,334319,2,0,L|68:269,1,89.9999972534181,10|0,0:0|0:0,0:0:0:0:
256,160,334545,6,0,L|416:128,1,134.999995880127,2|0,0:0|0:0,0:0:0:0:
225,162,334772,2,0,L|186:164,1,22.4999993133545,10|0,0:0|0:0,0:0:0:0:
287,162,334885,2,0,L|326:164,1,22.4999993133545
126,355,334998,2,0,L|16:347,1,89.9999972534181,2|0,0:0|0:0,0:0:0:0:
256,192,335224,2,0,L|146:184,1,89.9999972534181,10|0,0:0|0:0,0:0:0:0:
386,355,335451,6,0,L|496:347,1,89.9999972534181,2|0,0:0|0:0,0:0:0:0:
256,192,335677,2,0,L|366:184,1,89.9999972534181,10|0,0:0|0:0,0:0:0:0:
126,355,335904,2,0,L|16:347,1,89.9999972534181,2|0,0:0|0:0,0:0:0:0:
256,192,336130,2,0,L|146:184,1,89.9999972534181,10|0,0:0|0:0,0:0:0:0:
438,362,336357,6,0,L|246:330,1,179.999994506836,14|10,0:0|0:0,0:0:0:0:
359,264,336696,1,0,0:0:0:0:
167,83,336809,6,0,L|135:83,1,22.4999993133545,10|0,0:0|0:0,0:0:0:0:
345,83,336923,2,0,L|377:83,1,22.4999993133545,0|0,0:0|0:0,0:0:0:0:
160,256,337036,2,0,L|96:256,1,44.999998626709,10|2,0:0|0:0,0:0:0:0:
256,320,337149,2,0,L|320:320,1,44.999998626709,2|2,0:0|0:0,0:0:0:0:
128,320,337262,6,0,L|0:320,1,89.9999972534181,10|0,0:0|0:0,0:0:0:0:
384,320,337489,2,0,L|512:320,1,89.9999972534181,10|0,0:0|0:0,0:0:0:0:
128,128,337715,6,0,L|64:128,1,44.999998626709,10|2,0:0|0:0,0:0:0:0:
332,62,337828,2,0,L|396:62,1,44.999998626709,2|2,0:0|0:0,0:0:0:0:
180,62,337941,2,0,L|116:62,1,44.999998626709,10|2,0:0|0:0,0:0:0:0:
384,128,338055,2,0,L|448:128,1,44.999998626709,2|2,0:0|0:0,0:0:0:0:
255,287,338168,6,0,P|220:196|254:105,1,200,0|2,0:0|0:0,0:0:0:0:
352,96,338507,2,0,L|352:224,1,100,0|0,0:0|0:0,0:0:0:0:
254,105,338734,2,0,L|254:233,1,100,2|0,0:0|0:0,0:0:0:0:
352,96,338960,6,0,P|387:187|353:278,1,200,0|2,0:0|0:0,0:0:0:0:
456,224,339300,2,0,L|456:352,1,100,0|0,0:0|0:0,0:0:0:0:
256,224,339526,2,0,L|256:96,1,100,2|0,0:0|0:0,0:0:0:0:
305,178,339696,1,0,0:0:0:0:
456,224,339753,2,0,L|456:352,1,100,2|0,0:0|0:0,0:0:0:0:
220,313,339979,6,0,L|10:292,1,200,6|0,0:0|0:0,0:0:0:0:
292,313,340319,2,0,L|502:292,1,200,6|0,0:0|0:0,0:0:0:0:
147,259,340658,1,2,0:0:0:0:
365,259,340772,1,2,0:0:0:0:
113,373,340885,6,0,P|48:308|121:255,1,200,6|0,0:0|0:0,0:0:0:0:
399,373,341224,2,0,P|464:308|391:255,1,200,6|0,0:0|0:0,0:0:0:0:
137,135,341564,2,0,L|210:127,1,50,2|2,0:0|0:0,0:0:0:0:
375,135,341677,2,0,L|302:127,1,50,2|2,0:0|0:0,0:0:0:0:
32,323,341790,6,0,L|241:293,1,200,6|0,0:0|0:0,0:0:0:0:
480,323,342130,2,0,L|271:293,1,200,6|0,0:0|0:0,0:0:0:0:
387,224,342470,1,2,0:0:0:0:
50,383,342583,6,0,B|350:383|350:383|370:311|370:311|382:385|382:385|395:311|395:311|408:389|408:389|415:315|415:315|427:388|427:388|436:315|436:315|447:241|447:241|452:315|452:315|459:236|459:236|465:311|465:311|470:229|470:229|474:293|474:293|477:218|477:218|479:144|479:144|479:222|479:222|479:148|479:148|479:227|479:227|477:155|477:155|472:78|472:78|472:159|472:159|465:91|465:91|461:164|461:164|452:89|452:89|443:17|443:17|436:91|436:91|425:17|425:17|418:98|418:98|406:29|406:29|393:-45|393:-45|381:31|381:31|368:-41|368:-41|355:35|355:35|343:-41|343:-41|328:29|328:29|314:-47|314:-47|298:28|298:28|285:-43|285:-43|269:29|269:29|255:-48|255:-48|239:24|239:24|224:-45|224:-45|210:35|210:35|196:-36|196:-36|181:37|181:37|167:-36|167:-36|154:40|154:40|140:-30|140:-30|126:47|126:47|115:-30|115:-30|104:37|104:37|93:-41|93:-41|83:35|83:35|74:105|74:105|66:28|66:28|59:100|59:100|52:26|52:26|45:101|45:101|41:177|41:177|38:97|38:97|34:166|34:166|32:243|32:243|32:169|32:169|32:245|32:245|34:162|34:162|36:229|36:229|38:306|38:306|43:234|43:234|45:308|45:308|54:232|54:232|59:311|59:311|68:241|68:241|77:317|77:317|88:241|88:241|97:311|97:311|106:385|106:385|123:313|123:313|134:400|134:400,1,6150.00023460389,6|2,0:0|0:0,0:0:0:0:
183,359,344960,1,2,0:0:0:0:
413,294,345017,6,0,L|334:294,1,50,2|2,0:0|0:0,0:0:0:0:
149,294,345130,2,0,L|99:294,1,50,10|2,0:0|0:0,0:0:0:0:
347,199,345243,2,0,L|411:199,1,50,2|2,0:0|0:0,0:0:0:0:
165,199,345357,2,0,L|101:199,1,50,2|2,0:0|0:0,0:0:0:0:
256,96,345470,1,6,0:0:0:0:
