osu file format v14

[General]
AudioFilename: audio.mp3
AudioLeadIn: 0
PreviewTime: 128
Countdown: 1
SampleSet: Normal
StackLeniency: 0.7
Mode: 3
LetterboxInBreaks: 0
SpecialStyle: 0
WidescreenStoryboard: 1

[Editor]
DistanceSpacing: 0.8
BeatDivisor: 4
GridSize: 8
TimelineZoom: 1.8

[Metadata]
Title:Power of "NEO"
TitleUnicode:Power of "NEO"
Artist:toby fox
ArtistUnicode:toby fox
Creator:anicositini
Version:NM
Source:UNDERTALE
Tags:UNDERTALE toby fox Mettaton Mettaton NEO
BeatmapID:1397247
BeatmapSetID:659811

[Difficulty]
HPDrainRate:6.5
CircleSize:4
OverallDifficulty:6.5
ApproachRate:5
SliderMultiplier:1.4
SliderTickRate:1

[Events]
//Background and Video events
0,0,"731372.jpg",0,0
//Break Periods
//Storyboard Layer 0 (Background)
//Storyboard Layer 1 (Fail)
//Storyboard Layer 2 (Pass)
//Storyboard Layer 3 (Foreground)
//Storyboard Sound Samples

[TimingPoints]
128,413.793103448276,4,1,0,50,1,0
26610,-100,4,1,0,30,0,0
28265,-100,4,1,0,10,0,0
29507,-100,4,2,0,5,0,0

[HitObjects]
64,192,128,5,0,0:0:0:0:
320,192,128,1,0,0:0:0:0:
448,192,438,1,0,0:0:0:0:
192,192,438,1,0,0:0:0:0:
320,192,748,1,0,0:0:0:0:
192,192,748,1,0,0:0:0:0:
320,192,1059,1,0,0:0:0:0:
64,192,1059,1,0,0:0:0:0:
448,192,1369,128,0,1576:0:0:0:0:
64,192,1369,1,0,0:0:0:0:
320,192,1576,128,0,1783:0:0:0:0:
192,192,1783,1,0,0:0:0:0:
64,192,1783,1,0,0:0:0:0:
320,192,2093,1,0,0:0:0:0:
64,192,2093,1,0,0:0:0:0:
448,192,2403,1,0,0:0:0:0:
192,192,2403,1,0,0:0:0:0:
320,192,2714,1,0,0:0:0:0:
192,192,2714,1,0,0:0:0:0:
64,192,3024,128,0,3231:0:0:0:0:
448,192,3024,1,0,0:0:0:0:
320,192,3231,128,0,3438:0:0:0:0:
192,192,3438,1,0,0:0:0:0:
448,192,3438,1,0,0:0:0:0:
64,192,3748,1,0,0:0:0:0:
448,192,3748,1,0,0:0:0:0:
192,192,4059,1,0,0:0:0:0:
448,192,4059,1,0,0:0:0:0:
320,192,4369,1,0,0:0:0:0:
192,192,4369,1,0,0:0:0:0:
320,192,4679,1,0,0:0:0:0:
64,192,4679,128,0,4886:0:0:0:0:
192,192,4886,128,0,5093:0:0:0:0:
448,192,5093,1,0,0:0:0:0:
320,192,5093,1,0,0:0:0:0:
320,192,5403,1,0,0:0:0:0:
192,192,5403,1,0,0:0:0:0:
320,192,5714,1,0,0:0:0:0:
64,192,5714,1,0,0:0:0:0:
448,192,6024,1,0,0:0:0:0:
192,192,6024,1,0,0:0:0:0:
320,192,6334,128,0,6748:0:0:0:0:
64,192,6334,1,0,0:0:0:0:
192,192,6541,1,0,0:0:0:0:
448,192,6748,1,0,0:0:0:0:
64,192,6748,1,0,0:0:0:0:
448,192,7059,1,0,0:0:0:0:
192,192,7059,1,0,0:0:0:0:
320,192,7369,1,0,0:0:0:0:
64,192,7369,1,0,0:0:0:0:
192,192,7679,1,0,0:0:0:0:
320,192,7679,1,0,0:0:0:0:
192,192,7990,1,0,0:0:0:0:
448,192,7990,128,0,8196:0:0:0:0:
64,192,8196,128,0,8403:0:0:0:0:
192,192,8403,1,0,0:0:0:0:
448,192,8403,1,0,0:0:0:0:
192,192,8714,1,0,0:0:0:0:
320,192,8714,1,0,0:0:0:0:
192,192,9024,1,0,0:0:0:0:
448,192,9024,1,0,0:0:0:0:
320,192,9334,1,0,0:0:0:0:
64,192,9334,1,0,0:0:0:0:
192,192,9645,128,0,9852:0:0:0:0:
448,192,9645,1,0,0:0:0:0:
320,192,9852,128,0,10059:0:0:0:0:
64,192,10059,1,0,0:0:0:0:
448,192,10059,1,0,0:0:0:0:
64,192,10369,1,0,0:0:0:0:
320,192,10369,1,0,0:0:0:0:
192,192,10679,1,0,0:0:0:0:
448,192,10679,1,0,0:0:0:0:
320,192,10990,1,0,0:0:0:0:
192,192,10990,1,0,0:0:0:0:
320,192,11300,1,0,0:0:0:0:
64,192,11300,128,0,11507:0:0:0:0:
192,192,11507,128,0,11714:0:0:0:0:
448,192,11714,1,0,0:0:0:0:
320,192,11714,1,0,0:0:0:0:
320,192,12024,1,0,0:0:0:0:
192,192,12024,1,0,0:0:0:0:
320,192,12334,1,0,0:0:0:0:
64,192,12334,1,0,0:0:0:0:
64,192,12645,1,0,0:0:0:0:
448,192,12645,1,0,0:0:0:0:
320,192,12955,1,0,0:0:0:0:
192,192,12955,128,0,13369:0:0:0:0:
64,192,13162,1,0,0:0:0:0:
448,192,13369,1,0,0:0:0:0:
320,192,13369,1,0,0:0:0:0:
320,192,13679,1,0,0:0:0:0:
64,192,13679,1,0,0:0:0:0:
192,192,13990,1,0,0:0:0:0:
320,192,13990,1,0,0:0:0:0:
192,192,14300,1,0,0:0:0:0:
448,192,14300,1,0,0:0:0:0:
64,192,14610,128,0,14817:0:0:0:0:
320,192,14610,1,0,0:0:0:0:
448,192,14817,128,0,15024:0:0:0:0:
192,192,15024,1,0,0:0:0:0:
320,192,15024,1,0,0:0:0:0:
64,192,15334,1,0,0:0:0:0:
320,192,15334,1,0,0:0:0:0:
192,192,15645,1,0,0:0:0:0:
320,192,15645,1,0,0:0:0:0:
192,192,15955,1,0,0:0:0:0:
448,192,15955,1,0,0:0:0:0:
448,192,16265,1,0,0:0:0:0:
64,192,16265,128,0,16472:0:0:0:0:
320,192,16472,128,0,16679:0:0:0:0:
192,192,16679,1,0,0:0:0:0:
448,192,16679,1,0,0:0:0:0:
64,192,16990,1,0,0:0:0:0:
448,192,16990,1,0,0:0:0:0:
192,192,17300,1,0,0:0:0:0:
448,192,17300,1,0,0:0:0:0:
320,192,17610,1,0,0:0:0:0:
192,192,17610,1,0,0:0:0:0:
320,192,17921,1,0,0:0:0:0:
64,192,17921,128,0,18128:0:0:0:0:
448,192,18128,128,0,18334:0:0:0:0:
192,192,18334,1,0,0:0:0:0:
64,192,18334,1,0,0:0:0:0:
320,192,18645,1,0,0:0:0:0:
192,192,18645,1,0,0:0:0:0:
320,192,18955,1,0,0:0:0:0:
64,192,18955,1,0,0:0:0:0:
64,192,19265,1,0,0:0:0:0:
448,192,19265,1,0,0:0:0:0:
320,192,19576,128,0,19990:0:0:0:0:
192,192,19576,1,0,0:0:0:0:
64,192,19783,1,0,0:0:0:0:
448,192,19990,1,0,0:0:0:0:
192,192,19990,1,0,0:0:0:0:
192,192,20300,1,0,0:0:0:0:
448,192,20300,1,0,0:0:0:0:
320,192,20610,1,0,0:0:0:0:
192,192,20610,1,0,0:0:0:0:
320,192,20921,1,0,0:0:0:0:
64,192,20921,1,0,0:0:0:0:
320,192,21231,1,0,0:0:0:0:
192,192,21231,128,0,21438:0:0:0:0:
448,192,21438,128,0,21645:0:0:0:0:
64,192,21645,1,0,0:0:0:0:
320,192,21645,1,0,0:0:0:0:
320,192,21955,1,0,0:0:0:0:
192,192,21955,1,0,0:0:0:0:
192,192,22265,1,0,0:0:0:0:
448,192,22265,1,0,0:0:0:0:
320,192,22576,1,0,0:0:0:0:
64,192,22576,1,0,0:0:0:0:
320,192,22886,1,0,0:0:0:0:
192,192,22886,128,0,23093:0:0:0:0:
448,192,23093,128,0,23300:0:0:0:0:
64,192,23300,1,0,0:0:0:0:
320,192,23300,1,0,0:0:0:0:
192,192,23610,1,0,0:0:0:0:
448,192,23610,1,0,0:0:0:0:
320,192,23921,1,0,0:0:0:0:
192,192,23921,1,0,0:0:0:0:
320,192,24231,1,0,0:0:0:0:
64,192,24231,1,0,0:0:0:0:
192,192,24541,1,0,0:0:0:0:
448,192,24541,128,0,24748:0:0:0:0:
320,192,24748,128,0,24955:0:0:0:0:
64,192,24955,1,0,0:0:0:0:
192,192,24955,1,0,0:0:0:0:
192,192,25265,1,0,0:0:0:0:
320,192,25265,1,0,0:0:0:0:
192,192,25576,1,0,0:0:0:0:
448,192,25576,1,0,0:0:0:0:
64,192,25886,1,0,0:0:0:0:
448,192,25886,1,0,0:0:0:0:
64,192,26196,1,0,0:0:0:0:
320,192,26196,128,0,26610:0:0:0:0:
192,192,26403,1,0,0:0:0:0:
448,192,26610,1,0,0:0:0:0:
64,192,26610,1,0,0:0:0:0:
192,192,26921,1,0,0:0:0:0:
448,192,26921,1,0,0:0:0:0:
320,192,27231,1,0,0:0:0:0:
192,192,27231,1,0,0:0:0:0:
320,192,27541,1,0,0:0:0:0:
64,192,27541,1,0,0:0:0:0:
192,192,27852,1,0,0:0:0:0:
448,192,27852,128,0,28059:0:0:0:0:
64,192,28059,128,0,28265:0:0:0:0:
320,192,28265,1,0,0:0:0:0:
448,192,28265,1,0,0:0:0:0:
192,192,28576,1,0,0:0:0:0:
448,192,28886,1,0,0:0:0:0:
64,192,29196,1,0,0:0:0:0:
320,192,29507,128,0,29714:0:0:0:0:
192,192,29714,128,0,29921:0:0:0:0:
448,192,29921,1,0,0:0:0:0:
64,192,29921,1,0,0:0:0:0:
