osu file format v14

[General]
AudioFilename: audio.mp3
AudioLeadIn: 0
PreviewTime: 0
Countdown: 0
SampleSet: Soft
StackLeniency: 0.4
Mode: 0
LetterboxInBreaks: 0
WidescreenStoryboard: 0

[Editor]
DistanceSpacing: 1.6
BeatDivisor: 4
GridSize: 4
TimelineZoom: 0.5999999

[Metadata]
Title:Pathetic House
TitleUnicode:Pathetic House
Artist:toby fox
ArtistUnicode:toby fox
Creator:SuperCSGO
Version:hard.
Source:UNDERTALE
Tags:chiptune short slow radiation soundtrack ost napstablook mettaton blooky realy0_
BeatmapID:1552441
BeatmapSetID:735106

[Difficulty]
HPDrainRate:5
CircleSize:3.2
OverallDifficulty:6
ApproachRate:7.5
SliderMultiplier:1.5
SliderTickRate:1

[Events]
//Background and Video events
0,0,"temp.png",0,0
//Break Periods
//Storyboard Layer 0 (Background)
//Storyboard Layer 1 (Fail)
//Storyboard Layer 2 (Pass)
//Storyboard Layer 3 (Foreground)
//Storyboard Sound Samples

[TimingPoints]
693,461.538461538462,4,2,0,40,1,0

[Colours]
Combo1 : 59,59,59
Combo2 : 192,192,192
Combo3 : 128,128,128
Combo4 : 92,96,89

[HitObjects]
144,41,1,5,2,0:0:0:0:
144,41,231,1,0,0:0:0:0:
131,237,462,1,2,0:0:0:0:
131,237,693,1,0,0:0:0:0:
16,225,1154,1,0,0:0:0:0:
63,326,1616,1,0,0:0:0:0:
174,335,2077,1,0,0:0:0:0:
127,234,2539,5,2,0:0:0:0:
80,133,3001,1,0,0:0:0:0:
238,243,3231,1,2,0:0:0:0:
238,243,4385,5,2,0:0:0:0:
191,142,4847,1,0,0:0:0:0:
349,252,5077,1,2,0:0:0:0:
349,252,6231,5,2,0:0:0:0:
302,151,6693,1,0,0:0:0:0:
460,261,6923,1,2,0:0:0:0:
33,32,9231,5,2,0:0:0:0:
33,32,9462,1,0,0:0:0:0:
191,142,9693,1,2,0:0:0:0:
191,142,9924,1,0,0:0:0:0:
238,243,10385,1,0,0:0:0:0:
285,344,10847,1,0,0:0:0:0:
396,353,11308,1,0,0:0:0:0:
349,252,11770,5,2,0:0:0:0:
413,160,12231,1,0,0:0:0:0:
238,243,12462,1,2,0:0:0:0:
238,243,13616,5,2,0:0:0:0:
302,151,14077,1,0,0:0:0:0:
127,234,14308,1,2,0:0:0:0:
127,234,15462,5,2,0:0:0:0:
191,142,15923,1,0,0:0:0:0:
16,225,16154,1,2,0:0:0:0:
366,59,18462,5,2,0:0:0:0:
366,59,18693,1,0,0:0:0:0:
191,142,18924,1,2,0:0:0:0:
191,142,19154,1,0,0:0:0:0:
127,234,19616,1,0,0:0:0:0:
174,335,20077,1,0,0:0:0:0:
285,344,20539,1,0,0:0:0:0:
349,252,21001,5,2,0:0:0:0:
396,353,21462,1,0,0:0:0:0:
413,160,21693,1,2,0:0:0:0:
238,243,22847,5,2,0:0:0:0:
285,344,23308,1,0,0:0:0:0:
302,151,23539,1,2,0:0:0:0:
127,234,24693,5,2,0:0:0:0:
174,335,25154,1,0,0:0:0:0:
191,142,25385,1,2,0:0:0:0:
365,59,27693,5,2,0:0:0:0:
365,59,27924,1,0,0:0:0:0:
353,256,28154,1,2,0:0:0:0:
353,256,28385,1,0,0:0:0:0:
302,151,28847,5,2,0:0:0:0:
238,243,29308,1,0,0:0:0:0:
174,335,29770,1,2,0:0:0:0:
127,234,30231,1,0,0:0:0:0:
285,344,30462,1,2,0:0:0:0:
349,252,30924,1,0,0:0:0:0:
255,50,31616,5,2,0:0:0:0:
255,50,31847,1,0,0:0:0:0:
238,243,32077,1,2,0:0:0:0:
238,243,32308,1,0,0:0:0:0:
413,160,32539,1,2,0:0:0:0:
349,252,33001,1,0,0:0:0:0:
396,353,33462,1,0,0:0:0:0:
349,252,33924,5,2,0:0:0:0:
174,335,34154,1,0,0:0:0:0:
238,243,34616,1,2,0:0:0:0:
