osu file format v14

[General]
AudioFilename: audio.mp3
AudioLeadIn: 0
PreviewTime: 29135
Countdown: 0
SampleSet: Soft
StackLeniency: 0.7
Mode: 3
LetterboxInBreaks: 0
SpecialStyle: 0
WidescreenStoryboard: 1

[Editor]
DistanceSpacing: 4.6
BeatDivisor: 4
GridSize: 4
TimelineZoom: 1

[Metadata]
Title:Once Upon A Time
TitleUnicode:Once Upon A Time
Artist:toby fox
ArtistUnicode:toby fox
Creator:Matthewwwwww
Version:Easy
Source:UNDERTALE
Tags:Instrumental video game slow easy 9k keysound chiptune 8bit 8-Bit radiation
BeatmapID:3031425
BeatmapSetID:1477536

[Difficulty]
HPDrainRate:6
CircleSize:9
OverallDifficulty:6
ApproachRate:5
SliderMultiplier:1.4
SliderTickRate:1

[Events]
//Background and Video events
0,0,"stretched-1920-1080-772024.png",0,0
//Break Periods
//Storyboard Layer 0 (Background)
//Storyboard Layer 1 (Fail)
//Storyboard Layer 2 (Pass)
//Storyboard Layer 3 (Foreground)
//Storyboard Layer 4 (Overlay)
//Storyboard Sound Samples
Sample,29135,0,"A#4S_Bb4S_s.wav",70
Sample,29249,0,"B4S_s.wav",70
Sample,29364,0,"C5S.wav",70
Sample,30280,0,"C6S_s.wav",70
Sample,30738,0,"A5S_s.wav",70
Sample,31196,0,"G5S_s.wav",70
Sample,31654,0,"F5S_s.wav",70
Sample,32112,0,"E5S_s.wav",70
Sample,32570,0,"F5S_s.wav",70
Sample,33028,0,"G5S.wav",70
Sample,33486,0,"F4S_s.wav",70
Sample,33944,0,"E6S.wav",70
Sample,34402,0,"F4S_s.wav",70
Sample,34631,0,"D#6S_Eb6S_s.wav",70
Sample,34746,0,"D6S_s.wav",70
Sample,34860,0,"C6S.wav",70
Sample,35318,0,"F4S_s.wav",70
Sample,36234,0,"F4S_s.wav",70
Sample,36692,0,"D5S_s.wav",70
Sample,37150,0,"F4S_s.wav",70
Sample,37608,0,"C6S_s.wav",70
Sample,38066,0,"A5S_s.wav",70
Sample,38524,0,"G5S_s.wav",70
Sample,38982,0,"F5S_s.wav",70
Sample,39440,0,"G5S_s.wav",70
Sample,39898,0,"A5S_s.wav",70
Sample,40356,0,"E5S.wav",70
Sample,40814,0,"F4S_s.wav",70
Sample,41272,0,"G5S.wav",70
Sample,41730,0,"F4S_s.wav",70
Sample,42188,0,"G5S_s.wav",70
Sample,42646,0,"F5S_s.wav",70
Sample,43104,0,"E5S_s.wav",70
Sample,43562,0,"F5S_s.wav",70
Sample,44020,0,"C5S.wav",70
Sample,44478,0,"F4S_s.wav",70
Sample,44936,0,"C6S_s.wav",70
Sample,45394,0,"A5S_s.wav",70
Sample,45852,0,"G5S_s.wav",70
Sample,46310,0,"F5S_s.wav",70
Sample,46768,0,"E5S_s.wav",70
Sample,47227,0,"F5S_s.wav",70
Sample,47685,0,"G5S.wav",70
Sample,48143,0,"F4S_s.wav",70
Sample,48601,0,"E6S.wav",70
Sample,49059,0,"F4S_s.wav",70
Sample,49288,0,"D#6S_Eb6S_s.wav",70
Sample,49402,0,"D6S_s.wav",70
Sample,49517,0,"C6S.wav",70
Sample,49975,0,"F4S_s.wav",70
Sample,50891,0,"F4S_s.wav",70
Sample,51349,0,"D5S_s.wav",70
Sample,51807,0,"F4S_s.wav",70
Sample,52265,0,"C6S_s.wav",70
Sample,52723,0,"A5S_s.wav",70
Sample,53181,0,"G5S_s.wav",70
Sample,53639,0,"F5S_s.wav",70
Sample,54097,0,"G5S_s.wav",70
Sample,54555,0,"A5S_s.wav",70
Sample,55013,0,"E5S.wav",70
Sample,55471,0,"F4S_s.wav",70
Sample,55929,0,"G5S.wav",70
Sample,56387,0,"F4S_s.wav",70
Sample,56845,0,"G5S_s.wav",70
Sample,57303,0,"F5S_s.wav",70
Sample,57761,0,"E5S_s.wav",70
Sample,58219,0,"F5S_s.wav",70
Sample,58677,0,"C7S.wav",70
Sample,60280,0,"normal-hitclap.wav",0
Sample,60509,0,"B5S.wav",70
Sample,60509,0,"G5S.wav",70
Sample,62341,0,"A#5S_Bb5S.wav",70
Sample,63944,0,"normal-hitclap.wav",0
Sample,64173,0,"A6S.wav",70
Sample,64173,0,"F5S.wav",70
Sample,66005,0,"C7S.wav",70
Sample,67608,0,"normal-hitclap.wav",0
Sample,67837,0,"B5S.wav",70
Sample,67837,0,"G5S.wav",70
Sample,69669,0,"A#5S_Bb5S.wav",70
Sample,71272,0,"normal-hitclap.wav",0
Sample,71501,0,"A6S.wav",70
Sample,71501,0,"F5S.wav",70

[TimingPoints]
51,916.030534351145,4,2,1,70,1,0

[HitObjects]
142,192,51,128,0,1883:0:0:0:70:F4S.wav
369,192,51,1,0,0:0:0:70:C6S.wav
483,192,967,1,0,0:0:0:70:C7S.wav
199,192,1883,128,0,3715:0:0:0:70:A4S.wav
426,192,1883,1,0,0:0:0:70:G6S.wav
85,192,3715,128,0,5547:0:0:0:70:G#4S_Ab4S.wav
426,192,3715,1,0,0:0:0:70:F6S.wav
483,192,4631,1,0,0:0:0:70:C7S.wav
28,192,5547,128,0,7379:0:0:0:70:G4S.wav
369,192,5547,1,0,0:0:0:70:C6S.wav
142,192,7379,128,0,9211:0:0:0:70:F4S.wav
369,192,7379,1,0,0:0:0:70:C6S.wav
426,192,8295,1,0,0:0:0:70:F6S.wav
199,192,9211,128,0,11043:0:0:0:70:A4S.wav
369,192,9211,1,0,0:0:0:70:C7S.wav
483,192,10127,1,0,0:0:0:70:D7S.wav
85,192,11043,128,0,12875:0:0:0:70:G#4S_Ab4S.wav
426,192,11043,1,0,0:0:0:70:C7S.wav
369,192,11959,1,0,0:0:0:70:G6S.wav
28,192,12875,128,0,14020:0:0:0:70:G4S.wav
312,192,12875,1,0,0:0:0:70:F6S.wav
142,192,14707,128,0,16539:0:0:0:70:F4S.wav
369,192,14707,1,0,0:0:0:70:C6S.wav
483,192,15623,1,0,0:0:0:70:C7S.wav
199,192,16539,128,0,18372:0:0:0:70:A4S.wav
426,192,16539,1,0,0:0:0:70:G6S.wav
85,192,18372,128,0,20204:0:0:0:70:G#4S_Ab4S.wav
426,192,18372,1,0,0:0:0:70:F6S.wav
483,192,19288,1,0,0:0:0:70:C7S.wav
28,192,20204,128,0,22036:0:0:0:70:G4S.wav
369,192,20204,1,0,0:0:0:70:C6S.wav
142,192,22036,128,0,23868:0:0:0:70:F4S.wav
256,192,22036,1,0,0:0:0:70:C6S.wav
312,192,22952,1,0,0:0:0:70:F6S.wav
199,192,23868,128,0,25700:0:0:0:70:A4S.wav
369,192,23868,1,0,0:0:0:70:C7S.wav
483,192,24784,1,0,0:0:0:70:D7S.wav
85,192,25700,128,0,27532:0:0:0:70:G#4S_Ab4S.wav
426,192,25700,1,0,0:0:0:70:C7S.wav
369,192,26616,1,0,0:0:0:70:G6S.wav
28,192,27531,128,0,28676:0:0:0:70:G4S.wav
312,192,27532,1,0,0:0:0:70:F6S.wav
369,192,29364,1,0,0:0:0:70:A#3S_Bb3S_s.wav
142,192,29822,1,0,0:0:0:70:F4S_s.wav
483,192,30280,1,0,0:0:0:70:G4S_s.wav
426,192,30738,1,0,0:0:0:70:F4S_s.wav
312,192,31196,1,0,0:0:0:70:A#3S_Bb3S_s.wav
256,192,31654,1,0,0:0:0:70:F4S_s.wav
142,192,32112,1,0,0:0:0:70:G4S_s.wav
199,192,32570,1,0,0:0:0:70:F4S_s.wav
312,192,33028,128,0,33944:0:0:0:70:A3S_s.wav
426,192,33944,128,0,34860:0:0:0:70:G4S_s.wav
369,192,34860,128,0,36692:0:0:0:70:G#3S_Ab3S_s.wav
85,192,35776,1,0,0:0:0:70:G4S_s.wav
199,192,36692,1,0,0:0:0:70:G3S_s.wav
483,192,37608,1,0,0:0:0:70:G4S_s.wav
426,192,38066,1,0,0:0:0:70:F4S_s.wav
312,192,38524,1,0,0:0:0:70:C4S_s.wav
256,192,38982,1,0,0:0:0:70:F4S_s.wav
312,192,39440,1,0,0:0:0:70:G4S_s.wav
426,192,39898,1,0,0:0:0:70:F4S_s.wav
199,192,40356,128,0,41272:0:0:0:70:A3S_s.wav
312,192,41272,128,0,42188:0:0:0:70:G4S_s.wav
369,192,42188,1,0,0:0:0:70:D4S_s.wav
256,192,42646,1,0,0:0:0:70:F4S_s.wav
142,192,43104,1,0,0:0:0:70:E4S_s.wav
199,192,43562,1,0,0:0:0:70:C4S_s.wav
85,192,44020,1,0,0:0:0:70:A#3S_Bb3S_s.wav
483,192,44936,1,0,0:0:0:70:G4S_s.wav
369,192,45394,1,0,0:0:0:70:F4S_s.wav
199,192,45852,1,0,0:0:0:70:A#3S_Bb3S_s.wav
142,192,46310,1,0,0:0:0:70:F4S_s.wav
85,192,46768,1,0,0:0:0:70:G4S_s.wav
312,192,47227,1,0,0:0:0:70:F4S_s.wav
426,192,47685,128,0,48601:0:0:0:70:A3S_s.wav
483,192,48601,128,0,49517:0:0:0:70:G4S_s.wav
369,192,49516,128,0,51348:0:0:0:70:G#3S_Ab3S_s.wav
142,192,50433,1,0,0:0:0:70:G4S_s.wav
28,192,51349,1,0,0:0:0:70:G3S_s.wav
483,192,52265,1,0,0:0:0:70:G4S_s.wav
369,192,52723,1,0,0:0:0:70:F4S_s.wav
199,192,53181,1,0,0:0:0:70:C4S_s.wav
142,192,53639,1,0,0:0:0:70:F4S_s.wav
369,192,54097,1,0,0:0:0:70:G4S_s.wav
426,192,54555,1,0,0:0:0:70:F4S_s.wav
199,192,55013,1,0,0:0:0:70:A3S_s.wav
369,192,55929,1,0,0:0:0:70:G4S_s.wav
369,192,56845,1,0,0:0:0:70:D4S_s.wav
312,192,57303,1,0,0:0:0:70:F4S_s.wav
199,192,57761,1,0,0:0:0:70:E4S_s.wav
256,192,58219,1,0,0:0:0:70:C4S_s.wav
483,192,58677,1,0,0:0:0:70:F5S.wav
369,192,59135,1,0,0:0:0:70:F6S.wav
426,192,59593,1,0,0:0:0:70:G6S.wav
369,192,60051,1,0,0:0:0:70:F6S.wav
256,192,60509,1,8,0:0:0:0:
312,192,60967,1,0,0:0:0:70:F6S.wav
369,192,61425,1,0,0:0:0:70:G6S.wav
312,192,61883,1,0,0:0:0:70:F6S.wav
142,192,62341,1,0,0:0:0:70:A#4S_Bb4S.wav
256,192,62799,1,0,0:0:0:70:F6S.wav
199,192,63257,1,0,0:0:0:70:G6S.wav
426,192,63715,1,0,0:0:0:70:A#6S_Bb6S.wav
369,192,64173,1,8,0:0:0:0:
256,192,64631,1,0,0:0:0:70:G6S.wav
199,192,65089,1,0,0:0:0:70:F6S.wav
85,192,65547,1,0,0:0:0:70:C6S.wav
483,192,66005,1,0,0:0:0:70:F5S.wav
369,192,66463,1,0,0:0:0:70:F6S.wav
426,192,66921,1,0,0:0:0:70:G6S.wav
369,192,67379,1,0,0:0:0:70:F6S.wav
256,192,67837,1,8,0:0:0:0:
312,192,68295,1,0,0:0:0:70:F6S.wav
369,192,68753,1,0,0:0:0:70:G6S.wav
312,192,69211,1,0,0:0:0:70:F6S.wav
85,192,69669,1,0,0:0:0:70:A#4S_Bb4S.wav
199,192,70127,1,0,0:0:0:70:F6S.wav
256,192,70585,1,0,0:0:0:70:G6S.wav
426,192,71043,1,0,0:0:0:70:A#6S_Bb6S.wav
369,192,71501,1,8,0:0:0:0:
256,192,71959,1,0,0:0:0:70:G6S.wav
199,192,72417,1,0,0:0:0:70:F6S.wav
85,192,72875,1,0,0:0:0:70:C6S.wav
483,192,73333,1,0,0:0:0:50:C7S.wav
369,192,73791,1,0,0:0:0:50:F6S.wav
426,192,74249,1,0,0:0:0:50:G6S.wav
369,192,74707,1,0,0:0:0:50:F6S.wav
256,192,75165,1,0,0:0:0:30:B5S.wav
312,192,75623,1,0,0:0:0:30:F6S.wav
369,192,76081,1,0,0:0:0:30:G6S.wav
312,192,76539,1,0,0:0:0:30:F6S.wav
142,192,76997,1,0,0:0:0:20:A#5S_Bb5S.wav
256,192,77456,1,0,0:0:0:20:F6S.wav
199,192,77914,1,0,0:0:0:20:G6S.wav
426,192,78372,1,0,0:0:0:20:A#6S_Bb6S.wav
369,192,78830,1,0,0:0:0:8:A6S.wav
256,192,79288,1,0,0:0:0:8:G6S.wav
199,192,79746,1,0,0:0:0:8:F6S.wav
85,192,80204,1,0,0:0:0:8:C6S.wav
426,192,80662,1,0,0:0:0:8:C7S.wav
