osu file format v14

[General]
AudioFilename: audio.mp3
AudioLeadIn: 0
PreviewTime: 29135
Countdown: 0
SampleSet: Soft
StackLeniency: 0.7
Mode: 3
LetterboxInBreaks: 0
SpecialStyle: 0
WidescreenStoryboard: 0

[Editor]
DistanceSpacing: 4.6
BeatDivisor: 4
GridSize: 4
TimelineZoom: 1

[Metadata]
Title:Once Upon A Time
TitleUnicode:Once Upon A Time
Artist:toby fox
ArtistUnicode:toby fox
Creator:-XxbluezaperxX-
Version:Easy
Source:UNDERTALE
Tags:Video Game Demo Original Sound Track Instrumental Relaxing chiptune 8bit 8-bit FAMoss
BeatmapID:3622418
BeatmapSetID:1769569

[Difficulty]
HPDrainRate:7
CircleSize:7
OverallDifficulty:7
ApproachRate:5
SliderMultiplier:1.4
SliderTickRate:1

[Events]
//Background and Video events
0,0,"bg.jpeg",0,0
//Break Periods
//Storyboard Layer 0 (Background)
//Storyboard Layer 1 (Fail)
//Storyboard Layer 2 (Pass)
//Storyboard Layer 3 (Foreground)
//Storyboard Layer 4 (Overlay)
//Storyboard Sound Samples

[TimingPoints]
51,916.030534351145,4,2,1,40,1,0

[HitObjects]
36,192,51,5,0,0:0:0:0:
182,192,51,128,0,1883:0:0:0:0:
402,192,967,1,0,0:0:0:0:
329,192,1883,1,0,0:0:0:0:
475,192,1883,128,0,3715:0:0:0:0:
109,192,3715,128,0,5547:0:0:0:0:
402,192,3715,1,0,0:0:0:0:
329,192,4631,1,0,0:0:0:0:
182,192,5547,1,0,0:0:0:0:
329,192,5547,128,0,7379:0:0:0:0:
36,192,7379,1,0,0:0:0:0:
402,192,7379,128,0,9211:0:0:0:0:
109,192,8295,1,0,0:0:0:0:
182,192,9211,1,0,0:0:0:0:
256,192,9211,128,0,11043:0:0:0:0:
475,192,10127,1,0,0:0:0:0:
182,192,11043,1,0,0:0:0:0:
329,192,11043,128,0,12875:0:0:0:0:
109,192,11959,1,0,0:0:0:0:
36,192,12875,128,0,14020:0:0:0:0:
475,192,12875,1,0,0:0:0:0:
329,192,14707,1,0,0:0:0:0:
475,192,14707,128,0,16539:0:0:0:0:
109,192,15623,1,0,0:0:0:0:
36,192,16539,128,0,18371:0:0:0:0:
329,192,16539,1,0,0:0:0:0:
109,192,18371,1,0,0:0:0:0:
475,192,18371,128,0,20203:0:0:0:0:
182,192,19287,1,0,0:0:0:0:
329,192,20203,1,0,0:0:0:0:
36,192,20203,128,0,22035:0:0:0:0:
109,192,22035,1,0,0:0:0:0:
402,192,22035,128,0,23867:0:0:0:0:
182,192,22951,1,0,0:0:0:0:
182,192,23867,128,0,25699:0:0:0:0:
329,192,23867,1,0,0:0:0:0:
475,192,24783,1,0,0:0:0:0:
256,192,25699,1,0,0:0:0:0:
402,192,25699,128,0,27531:0:0:0:0:
109,192,26615,1,0,0:0:0:0:
36,192,27531,1,0,0:0:0:0:
329,192,27531,128,0,28676:0:0:0:0:
256,192,29363,128,2,29821:0:0:0:0:
109,192,29821,1,0,0:0:0:0:
402,192,30280,1,8,0:0:0:0:
36,192,30738,1,2,0:0:0:0:
475,192,31196,1,0,0:0:0:0:
109,192,31654,128,2,32112:0:0:0:0:
402,192,32112,128,8,32570:0:0:0:0:
329,192,32570,128,0,33028:0:0:0:0:
36,192,33028,1,2,0:0:0:0:
475,192,33028,128,0,33715:0:0:0:0:
182,192,33486,1,0,0:0:0:0:
36,192,33944,128,8,34631:0:0:0:0:
256,192,34402,1,2,0:0:0:0:
402,192,34860,128,0,36234:0:0:0:0:
329,192,35318,1,2,0:0:0:0:
182,192,35776,1,8,0:0:0:0:
109,192,36234,1,0,0:0:0:0:
256,192,36692,128,2,37150:0:0:0:0:
402,192,37150,1,0,0:0:0:0:
182,192,37608,1,8,0:0:0:0:
109,192,38066,1,2,0:0:0:0:
256,192,38524,1,0,0:0:0:0:
36,192,38982,128,0,39440:0:0:0:70:soft-hitwhistle.wav
475,192,39440,128,0,39898:0:0:0:55:soft-hitclap.wav
182,192,39898,128,0,40356:0:0:0:0:
256,192,40356,128,2,41043:0:0:0:0:
402,192,40356,1,0,0:0:0:0:
36,192,40814,1,0,0:0:0:0:
182,192,41272,1,8,0:0:0:0:
402,192,41272,128,0,41730:0:0:0:0:
109,192,41730,1,2,0:0:0:0:
256,192,42188,1,0,0:0:0:0:
109,192,42646,1,2,0:0:0:0:
329,192,43104,1,8,0:0:0:0:
109,192,43562,128,0,44020:0:0:0:0:
256,192,44020,128,2,44478:0:0:0:0:
329,192,44020,1,0,0:0:0:0:
475,192,44478,1,0,0:0:0:0:
402,192,44936,1,8,0:0:0:0:
109,192,45394,1,2,0:0:0:0:
182,192,45852,1,0,0:0:0:0:
329,192,46310,128,0,46768:0:0:0:60:soft-hitwhistle.wav
475,192,46768,128,0,47226:0:0:0:55:soft-hitclap.wav
109,192,47226,128,0,47684:0:0:0:0:
36,192,47684,1,2,0:0:0:0:
329,192,47684,128,0,48371:0:0:0:0:
182,192,48142,1,0,0:0:0:0:
256,192,48600,1,8,0:0:0:0:
475,192,48600,128,0,49287:0:0:0:0:
109,192,49058,1,2,0:0:0:0:
36,192,49516,1,0,0:0:0:0:
256,192,49516,128,0,50890:0:0:0:0:
402,192,49974,1,2,0:0:0:0:
182,192,50432,1,8,0:0:0:0:
329,192,50890,1,0,0:0:0:0:
109,192,51348,128,2,51806:0:0:0:0:
475,192,51348,1,0,0:0:0:0:
402,192,51806,1,0,0:0:0:0:
329,192,52264,1,8,0:0:0:0:
109,192,52722,1,2,0:0:0:0:
402,192,53180,1,0,0:0:0:0:
182,192,53638,1,2,0:0:0:0:
256,192,54096,1,8,0:0:0:0:
329,192,54554,1,0,0:0:0:0:
402,192,55012,128,0,55699:0:0:0:0:
36,192,55012,1,2,0:0:0:0:
256,192,55470,1,0,0:0:0:0:
109,192,55928,1,8,0:0:0:0:
329,192,55928,128,0,56386:0:0:0:0:
182,192,56386,1,2,0:0:0:0:
402,192,56844,1,0,0:0:0:0:
36,192,57302,1,2,0:0:0:0:
475,192,57760,1,8,0:0:0:0:
109,192,58218,1,0,0:0:0:0:
36,192,58676,128,2,60509:0:0:0:0:
329,192,58676,1,0,0:0:0:0:
256,192,59134,1,0,0:0:0:0:
475,192,59592,1,0,0:0:0:0:
256,192,60051,1,0,0:0:0:0:
109,192,60509,1,8,0:0:0:0:
182,192,60509,128,0,62341:0:0:0:0:
329,192,60967,1,0,0:0:0:0:
475,192,61425,1,0,0:0:0:0:
402,192,61883,1,0,0:0:0:0:
109,192,62341,1,2,0:0:0:0:
329,192,62341,128,0,64173:0:0:0:0:
36,192,62799,1,0,0:0:0:0:
182,192,63257,1,0,0:0:0:0:
256,192,63715,1,0,0:0:0:0:
402,192,64173,1,8,0:0:0:0:
475,192,64173,128,0,67837:0:0:0:0:
256,192,64631,1,0,0:0:0:0:
109,192,65089,1,0,0:0:0:0:
36,192,65547,1,0,0:0:0:0:
402,192,66005,1,2,0:0:0:0:
109,192,66463,1,0,0:0:0:0:
256,192,66921,1,0,0:0:0:0:
109,192,67379,1,0,0:0:0:0:
36,192,67837,1,8,0:0:0:0:
402,192,67837,128,0,69669:0:0:0:0:
256,192,68295,1,0,0:0:0:0:
36,192,68753,1,0,0:0:0:0:
329,192,69211,1,0,0:0:0:0:
109,192,69669,128,2,71501:0:0:0:0:
182,192,69669,1,0,0:0:0:0:
329,192,70127,1,0,0:0:0:0:
402,192,70585,1,0,0:0:0:0:
475,192,71043,1,0,0:0:0:0:
256,192,71501,128,8,73333:0:0:0:0:
329,192,71501,1,0,0:0:0:0:
182,192,71959,1,0,0:0:0:0:
109,192,72417,1,0,0:0:0:0:
402,192,72875,1,0,0:0:0:0:
36,192,73333,1,0,0:0:0:0:
182,192,73791,1,0,0:0:0:0:
329,192,74249,1,0,0:0:0:0:
475,192,74707,1,0,0:0:0:0:
182,192,75165,1,0,0:0:0:0:
329,192,75623,1,0,0:0:0:0:
109,192,76081,1,0,0:0:0:0:
256,192,76539,1,0,0:0:0:0:
36,192,76997,1,0,0:0:0:0:
109,192,77455,1,0,0:0:0:0:
329,192,77913,1,0,0:0:0:0:
475,192,78371,1,0,0:0:0:0:
402,192,78829,1,0,0:0:0:0:
329,192,79287,1,0,0:0:0:0:
256,192,79745,1,0,0:0:0:0:
182,192,80203,1,0,0:0:0:0:
36,192,80661,1,0,0:0:0:0:
109,192,81119,1,0,0:0:0:0:
256,192,81577,1,0,0:0:0:0:
329,192,82035,1,0,0:0:0:0:
475,192,82493,1,0,0:0:0:0:
402,192,82951,1,0,0:0:0:0:
109,192,83409,1,0,0:0:0:0:
36,192,83867,1,0,0:0:0:0:
