osu file format v14

[General]
AudioFilename: Undertale OST - Nyeh Heh Heh! Bonetrousle.mp3
AudioLeadIn: 0
PreviewTime: 64362
Countdown: 0
SampleSet: Soft
StackLeniency: 0.7
Mode: 0
LetterboxInBreaks: 0
WidescreenStoryboard: 0

[Editor]
DistanceSpacing: 1.2
BeatDivisor: 4
GridSize: 4
TimelineZoom: 1.9

[Metadata]
Title:Nyeh Heh Heh! & Bonetrousle
TitleUnicode:Nyeh Heh Heh! & Bonetrousle
Artist:toby fox
ArtistUnicode:toby fox
Creator:DaxMasterix
Version:NORMAL
Source:UNDERTALE
Tags:chiptune radiation papyrus
BeatmapID:823840
BeatmapSetID:375994

[Difficulty]
HPDrainRate:4
CircleSize:3
OverallDifficulty:4
ApproachRate:5
SliderMultiplier:1.2
SliderTickRate:1

[Events]
//Background and Video events
0,0,"BG.jpg",0,0
//Break Periods
//Storyboard Layer 0 (Background)
//Storyboard Layer 1 (Fail)
//Storyboard Layer 2 (Pass)
//Storyboard Layer 3 (Foreground)
//Storyboard Sound Samples

[TimingPoints]
362,400,4,2,0,25,1,0
32362,-100,4,1,1,45,0,0
63962,-100,4,1,1,30,0,0
64362,-100,4,1,1,45,0,1
83562,-100,4,2,0,25,0,0
89562,-100,4,1,2,45,0,0

[Colours]
Combo1 : 0,64,128
Combo2 : 192,192,192
Combo3 : 96,96,96
Combo4 : 0,128,192

[HitObjects]
36,136,362,6,0,L|48:256,1,120,0|2,0:0|0:0,0:0:0:0:
192,236,1162,2,0,L|180:116,1,120,0|2,0:0|0:0,0:0:0:0:
320,148,1962,2,0,L|332:268,1,120,0|2,0:0|0:0,0:0:0:0:
476,248,2762,2,0,L|464:128,1,120,0|2,0:0|0:0,0:0:0:0:
360,40,3562,6,0,L|240:52,1,120,0|2,0:0|0:0,0:0:0:0:
124,136,4362,2,0,L|244:148,1,120,0|2,0:0|0:0,0:0:0:0:
360,232,5162,2,0,L|240:244,1,120,0|2,0:0|0:0,0:0:0:0:
124,328,5962,2,0,L|244:340,1,120,0|2,0:0|0:0,0:0:0:0:
384,320,6762,38,0,L|492:264,1,120,0|2,0:0|0:0,0:0:0:0:
490,119,7562,2,0,L|384:64,1,120,0|2,0:0|0:0,0:0:0:0:
256,128,8362,2,0,L|256:192,2,60,0|0|2,0:0|0:0|0:0,0:0:0:0:
128,64,9162,2,0,L|21:119,1,120,0|2,0:0|0:0,0:0:0:0:
144,192,9962,6,0,L|84:192,2,60,0|0|2,0:0|0:0|0:0,0:0:0:0:
21,265,10762,2,0,L|128:320,1,120,0|2,0:0|0:0,0:0:0:0:
256,256,11562,2,0,L|256:192,2,60,0|0|2,0:0|0:0|0:0,0:0:0:0:
384,320,12362,2,0,L|491:265,2,120,0|2|0,0:0|0:0|0:0,0:0:0:0:
352,176,13562,37,2,0:0:0:0:
320,32,13962,2,0,L|192:28,1,120,0|2,0:0|0:0,0:0:0:0:
100,132,14762,2,0,L|28:128,2,60,0|0|2,0:0|0:0|0:0,0:0:0:0:
192,240,15562,2,0,L|320:236,1,120,0|2,0:0|0:0,0:0:0:0:
412,344,16362,6,0,L|484:340,2,60,0|0|2,0:0|0:0|0:0,0:0:0:0:
312,248,17162,2,0,L|192:251,1,120,0|2,0:0|0:0,0:0:0:0:
108,136,17962,2,0,L|36:132,2,60,0|0|2,0:0|0:0|0:0,0:0:0:0:
252,160,18762,1,0,0:0:0:0:
196,28,19162,1,2,0:0:0:0:
336,68,19562,38,0,L|460:104,1,120,0|2,0:0|0:0,0:0:0:0:
452,244,20362,2,0,L|328:280,1,120,0|2,0:0|0:0,0:0:0:0:
212,348,21162,1,0,0:0:0:0:
212,204,21562,1,2,0:0:0:0:
112,308,21962,2,0,L|80:360,2,60,0|0|2,0:0|0:0|0:0,0:0:0:0:
28,192,22762,6,0,L|36:64,1,120,0|2,0:0|0:0,0:0:0:0:
176,108,23562,2,0,L|183:227,1,120,0|2,0:0|0:0,0:0:0:0:
256,240,24162,1,0,0:0:0:0:
328,227,24362,2,0,L|336:108,1,120,0|2,0:0|0:0,0:0:0:0:
480,128,25162,2,0,L|487:247,2,120,0|2|0,0:0|0:0|0:0,0:0:0:0:
336,107,26362,37,2,0:0:0:0:
192,88,26762,2,0,L|76:116,1,120,0|2,0:0|0:0,0:0:0:0:
144,244,27562,2,0,L|28:216,2,120,0|2|0,0:0|0:0|0:0,0:0:0:0:
256,336,28762,1,2,0:0:0:0:
368,244,29162,6,0,L|484:216,1,120,0|2,0:0|0:0,0:0:0:0:
496,144,29762,1,0,0:0:0:0:
484,72,29962,2,0,L|368:44,1,120,0|2,0:0|0:0,0:0:0:0:
256,136,30762,1,0,0:0:0:0:
124,192,31162,1,2,0:0:0:0:
69,320,31562,2,0,L|188:336,1,120,0|2,0:0|0:0,0:0:0:0:
256,352,32162,1,0,0:0:0:0:
324,336,32362,6,0,L|444:320,1,120,0|2,0:0|0:0,0:0:0:0:
480,180,33162,2,0,L|361:195,1,120,0|2,0:0|0:0,0:0:0:0:
288,204,33762,1,0,2:0:0:0:
216,212,33962,6,0,L|97:227,1,120,0|2,0:0|0:0,0:0:0:0:
20,104,34762,2,0,L|139:89,1,120,0|2,0:0|0:0,0:0:0:0:
212,80,35362,1,0,2:0:0:0:
284,72,35562,38,0,L|403:57,1,120,0|2,0:0|0:0,0:0:0:0:
352,192,36362,2,0,L|320:308,1,120,0|2,0:0|0:0,0:0:0:0:
256,340,36962,1,0,2:0:0:0:
192,308,37162,6,0,L|160:192,1,120,0|2,0:0|0:0,0:0:0:0:
196,52,37962,2,0,L|316:52,1,120,0|2,0:0|0:0,0:0:0:0:
352,192,38762,38,0,L|320:308,1,120,0|2,0:0|0:0,0:0:0:0:
384,344,39362,1,0,0:0:0:0:
456,336,39562,2,0,L|464:216,1,120,0|2,0:0|0:0,0:0:0:0:
396,88,40362,6,0,L|444:52,2,60,0|0|2,0:0|0:0|0:0,0:0:0:0:
256,52,41162,1,0,0:0:0:0:
116,88,41562,1,2,0:0:0:0:
116,232,41962,38,0,L|68:268,2,60,0|0|2,0:0|0:0|0:0,0:0:0:0:
256,268,42762,1,0,0:0:0:0:
396,232,43162,1,2,0:0:0:0:
396,88,43562,6,0,L|444:52,2,60,0|0|2,0:0|0:0|0:0,0:0:0:0:
256,52,44362,1,0,0:0:0:0:
116,88,44762,2,0,L|68:52,2,60,2|0|0,0:0|0:0|0:0,0:0:0:0:
232,172,45562,37,2,0:0:0:0:
116,256,45962,1,0,0:0:0:0:
244,324,46362,2,0,B|356:328|356:328|400:312,1,120,2|0,0:0|0:0,0:0:0:0:
484,248,47162,5,2,0:0:0:0:
384,144,47562,2,0,B|408:24,2,120,0|2|0,0:0|0:0|0:0,0:0:0:0:
256,208,48762,37,2,0:0:0:0:
128,144,49162,2,0,B|104:24,2,120,0|2|0,0:0|0:0|0:0,0:0:0:0:
256,208,50362,6,0,L|256:140,2,60,2|0|0,0:0|0:0|0:0,0:0:0:0:
328,332,51162,1,2,0:0:0:0:
184,332,51562,38,0,L|64:316,1,120,0|2,0:0|0:0,0:0:0:0:
148,196,52362,2,0,L|268:180,1,120,0|2,0:0|0:0,0:0:0:0:
184,60,53162,6,0,L|112:48,2,60,0|0|2,0:0|0:0|0:0,0:0:0:0:
328,60,53962,2,0,L|446:44,2,120,0|2|0,0:0|0:0|0:0,0:0:0:0:
408,180,55162,37,2,0:0:0:0:
488,300,55562,2,0,L|369:315,2,120,0|2|0,0:0|0:0|0:0,0:0:0:0:
408,180,56762,5,2,0:0:0:0:
328,60,57162,2,0,L|192:60,1,120,0|2,0:0|0:0,0:0:0:0:
80,128,57962,38,0,L|44:252,1,120,0|2,0:0|0:0,0:0:0:0:
144,348,58762,1,0,0:0:0:0:
256,260,59162,1,2,0:0:0:0:
368,348,59562,6,0,L|428:360,2,60,0|0|2,0:0|0:0|0:0,0:0:0:0:
256,260,60362,1,0,0:0:0:0:
368,172,60762,2,0,L|428:160,2,60,2|0|0,0:0|0:0|0:0,0:0:0:0:
256,260,61562,37,2,0:0:0:0:
144,172,61962,2,0,L|24:148,1,120,0|2,0:0|0:0,0:0:0:0:
128,48,62762,6,0,L|200:56,1,60
256,80,63162,2,0,L|328:88,1,60,2|0,0:0|0:0,0:0:0:0:
384,112,63562,1,0,0:0:0:0:
508,188,63962,1,0,0:0:0:0:
436,304,64362,38,0,B|376:344|376:344|324:352,1,120,4|10,0:0|0:0,0:0:0:0:
256,356,64962,1,0,0:0:0:0:
183,351,65162,2,0,B|136:344|136:344|76:304,1,120,0|10,0:0|0:0,0:0:0:0:
104,164,65962,6,0,L|184:72,1,120,0|10,0:0|0:0,0:0:0:0:
329,73,66762,2,0,L|408:164,1,120,0|10,0:0|0:0,0:0:0:0:
452,220,67362,1,0,0:0:0:0:
500,276,67562,38,0,B|420:312|420:312|376:316,1,120,0|10,0:0|0:0,0:0:0:0:
252,272,68362,2,0,B|332:236|332:236|376:232,1,120,0|10,0:0|0:0,0:0:0:0:
424,192,68962,1,0,0:0:0:0:
364,150,69162,6,0,B|332:148|332:148|252:112,1,120,0|10,0:0|0:0,0:0:0:0:
387,69,69962,2,0,B|420:72|420:72|500:108,2,120,0|10|0,0:0|0:0|0:0,0:0:0:0:
256,132,71162,38,0,L|257:202,2,60,10|0|0,0:0|0:0|0:0,0:0:0:0:
125,69,71962,1,10,0:0:0:0:
28,176,72362,6,0,L|54:298,1,120,0|10,0:0|0:0,0:0:0:0:
188,344,73162,2,0,L|213:226,1,120,0|10,0:0|0:0,0:0:0:0:
256,168,73762,1,0,0:0:0:0:
298,226,73962,38,0,L|324:344,1,120,0|10,0:0|0:0,0:0:0:0:
458,293,74762,2,0,L|484:176,1,120,0|10,0:0|0:0,0:0:0:0:
496,104,75362,1,0,0:0:0:0:
444,56,75562,6,0,L|372:64,1,60
316,88,75962,2,0,L|244:96,1,60,10|0,0:0|0:0,0:0:0:0:
256,168,76362,2,0,L|328:176,1,60
384,200,76762,2,0,L|456:208,1,60,10|0,0:0|0:0,0:0:0:0:
444,280,77162,38,0,L|324:308,1,120,4|10,0:0|0:0,0:0:0:0:
256,324,77762,1,0,0:0:0:0:
184,307,77962,2,0,L|68:280,1,120,0|10,0:0|0:0,0:0:0:0:
68,136,78762,6,0,L|184:163,1,120,0|10,0:0|0:0,0:0:0:0:
328,163,79562,2,0,L|444:136,1,120,0|10,0:0|0:0,0:0:0:0:
472,68,80162,1,0,0:0:0:0:
408,32,80362,38,0,L|280:80,1,120,0|10,0:0|0:0,0:0:0:0:
256,136,80962,1,0,0:0:0:0:
216,197,81162,2,0,L|344:245,1,120,0|10,0:0|0:0,0:0:0:0:
412,360,81962,6,0,L|480:252,1,120,0|10,0:0|0:0,0:0:0:0:
500,192,82562,1,0,0:0:0:0:
475,125,82762,2,0,L|412:24,2,120,0|10|0,0:0|0:0|0:0,0:0:0:0:
332,124,83962,5,2,0:0:0:0:
188,124,84362,1,0,0:0:0:0:
256,252,84762,1,2,0:0:0:0:
384,320,85162,6,0,L|448:308,2,60,0|0|2,0:0|0:0|0:0,0:0:0:0:
256,252,85962,1,0,0:0:0:0:
128,320,86362,2,0,L|69:308,1,60,2|0,0:0|0:0,0:0:0:0:
32,248,86762,38,0,L|24:184,2,60,0|0|2,0:0|0:0|0:0,0:0:0:0:
172,208,87562,1,2,0:0:0:0:
312,168,87962,1,0,0:0:0:0:
452,128,88362,6,0,L|460:192,2,60,0|0|2,0:0|0:0|0:0,0:0:0:0:
348,28,89162,1,0,0:0:0:0:
312,168,89562,1,2,0:0:0:0:
