osu file format v14

[General]
AudioFilename: Undertale OST - Nyeh Heh Heh! Bonetrousle.mp3
AudioLeadIn: 0
PreviewTime: 64362
Countdown: 0
SampleSet: Normal
StackLeniency: 0.7
Mode: 0
LetterboxInBreaks: 0
WidescreenStoryboard: 0

[Editor]
DistanceSpacing: 1.2
BeatDivisor: 4
GridSize: 4
TimelineZoom: 1.8

[Metadata]
Title:Nyeh Heh Heh! & Bonetrousle
TitleUnicode:Nyeh Heh Heh! & Bonetrousle
Artist:toby fox
ArtistUnicode:toby fox
Creator:DaxMasterix
Version:HARD
Source:UNDERTALE
Tags:chiptune radiation papyrus
BeatmapID:912442
BeatmapSetID:375994

[Difficulty]
HPDrainRate:6
CircleSize:3.5
OverallDifficulty:6
ApproachRate:7.5
SliderMultiplier:1.5
SliderTickRate:1

[Events]
//Background and Video events
0,0,"BG.jpg",0,0
//Break Periods
//Storyboard Layer 0 (Background)
//Storyboard Layer 1 (Fail)
//Storyboard Layer 2 (Pass)
//Storyboard Layer 3 (Foreground)
//Storyboard Sound Samples

[TimingPoints]
362,400,4,2,0,25,1,0
14662,-100,4,2,0,10,0,0
14762,-100,4,2,0,25,0,0
32362,-100,4,1,1,45,0,0
46662,-100,4,2,0,10,0,0
46762,-100,4,1,1,45,0,0
59462,-100,4,2,0,10,0,0
59562,-100,4,1,1,45,0,0
63762,-100,4,1,1,40,0,0
63962,-100,4,1,1,35,0,0
64062,-100,4,1,1,30,0,0
64162,-100,4,1,1,25,0,0
64362,-100,4,1,1,45,0,1
83562,-100,4,2,0,25,0,0
85062,-100,4,2,0,10,0,0
85162,-100,4,2,0,25,0,0
89562,-100,4,1,2,45,0,0

[Colours]
Combo1 : 0,64,128
Combo2 : 192,192,192
Combo3 : 96,96,96
Combo4 : 0,128,192

[HitObjects]
44,40,362,6,0,L|120:28,1,75,0|2,0:0|0:0,0:0:0:0:
207,56,762,2,0,L|283:44,1,75,0|2,0:0|0:0,0:0:0:0:
369,28,1162,2,0,L|445:16,1,75,0|2,0:0|0:0,0:0:0:0:
512,76,1562,2,0,L|500:152,1,75,2|2,0:0|0:0,0:0:0:0:
468,236,1962,6,0,L|392:224,1,75,0|2,0:0|0:0,0:0:0:0:
305,252,2362,2,0,L|229:240,1,75,0|2,0:0|0:0,0:0:0:0:
143,224,2762,2,0,L|67:212,1,75,0|2,0:0|0:0,0:0:0:0:
48,300,3162,1,2,0:0:0:0:
48,300,3262,1,2,0:0:0:0:
48,300,3362,1,2,0:0:0:0:
100,372,3562,38,0,L|176:360,1,75,0|2,0:0|0:0,0:0:0:0:
256,320,3962,2,0,L|330:308,1,75,0|2,0:0|0:0,0:0:0:0:
384,236,4362,2,0,L|309:224,1,75,0|2,0:0|0:0,0:0:0:0:
228,184,4762,2,0,L|152:172,1,75,2|2,0:0|0:0,0:0:0:0:
100,100,5162,6,0,L|176:88,1,75,0|2,0:0|0:0,0:0:0:0:
256,48,5562,2,0,L|332:36,1,75,0|2,0:0|0:0,0:0:0:0:
420,52,5962,2,0,L|496:40,1,75,0|2,0:0|0:0,0:0:0:0:
500,132,6362,1,2,0:0:0:0:
500,132,6462,1,2,0:0:0:0:
500,132,6562,1,2,0:0:0:0:
506,224,6762,38,0,L|480:296,1,75,0|2,0:0|0:0,0:0:0:0:
404,340,7162,1,0,0:0:0:0:
316,340,7362,1,2,0:0:0:0:
256,272,7562,2,0,P|200:264|100:304,2,150
256,184,8562,5,2,0:0:0:0:
256,96,8762,2,0,P|324:68|398:74,1,150
464,136,9362,1,2,0:0:0:0:
464,224,9562,1,2,0:0:0:0:
464,224,9662,1,2,0:0:0:0:
464,224,9762,1,2,0:0:0:0:
396,284,9962,38,0,L|324:308,1,75,0|2,0:0|0:0,0:0:0:0:
236,328,10362,2,0,P|140:332|72:300,1,150
60,228,10962,1,2,0:0:0:0:
72,140,11162,2,0,L|109:75,1,75,2|2,0:0|0:0,0:0:0:0:
196,44,11562,5,0,0:0:0:0:
256,112,11762,1,2,0:0:0:0:
316,44,11962,2,0,P|376:48|484:104,1,150
508,156,12562,1,2,0:0:0:0:
460,232,12762,1,2,0:0:0:0:
460,232,12862,1,2,0:0:0:0:
460,232,12962,1,2,0:0:0:0:
508,308,13162,38,0,L|440:344,1,75,0|2,0:0|0:0,0:0:0:0:
376,280,13562,1,0,0:0:0:0:
292,316,13762,1,2,0:0:0:0:
199,337,13962,2,0,P|143:331|93:307,1,112.5
68,288,14362,2,0,P|73:231|102:168,1,112.5
128,180,14762,1,0,0:0:0:0:
212,212,14962,5,2,0:0:0:0:
300,208,15162,2,0,P|359:163|408:104,1,150
356,28,15762,1,2,0:0:0:0:
272,64,15962,1,2,0:0:0:0:
272,64,16062,1,2,0:0:0:0:
272,64,16162,1,2,0:0:0:0:
184,36,16362,38,0,L|148:104,1,75,0|2,0:0|0:0,0:0:0:0:
108,184,16762,2,0,P|88:272|100:340,1,150
184,352,17362,1,2,0:0:0:0:
264,316,17562,2,0,L|340:320,1,75,2|2,0:0|0:0,0:0:0:0:
428,304,17962,6,0,L|500:280,1,75,0|2,0:0|0:0,0:0:0:0:
435,216,18362,1,0,0:0:0:0:
399,228,18462,1,0,0:0:0:0:
364,240,18562,1,0,0:0:0:0:
300,176,18762,2,0,L|372:152,1,75,0|2,0:0|0:0,0:0:0:0:
308,88,19162,1,0,0:0:0:0:
272,99,19262,1,0,0:0:0:0:
236,111,19362,1,0,0:0:0:0:
148,96,19562,38,0,L|120:168,1,75,0|2,0:0|0:0,0:0:0:0:
92,252,19962,1,0,0:0:0:0:
164,304,20162,1,2,0:0:0:0:
252,328,20362,2,0,P|325:341|400:335,2,150,0|2|0,0:0|0:0|0:0,0:0:0:0:
256,236,21362,5,2,0:0:0:0:
252,148,21562,2,0,P|312:136|400:140,1,150
464,204,22162,1,2,0:0:0:0:
404,272,22362,2,0,L|328:280,1,75,2|2,0:0|0:0,0:0:0:0:
256,332,22762,38,0,P|196:328|140:312,1,112.5
116,296,23162,1,0,0:0:0:0:
60,224,23362,1,2,0:0:0:0:
148,212,23562,2,0,P|232:204|304:168,1,150,0|2,0:0|0:0,0:0:0:0:
344,104,24162,1,2,0:0:0:0:
257,93,24362,6,0,P|197:97|141:113,1,112.5
117,129,24762,1,0,0:0:0:0:
60,200,24962,1,2,0:0:0:0:
148,212,25162,2,0,P|222:217|291:246,1,150,0|2,0:0|0:0,0:0:0:0:
344,320,25762,1,2,0:0:0:0:
384,240,25962,38,0,L|452:208,1,75,0|2,0:0|0:0,0:0:0:0:
468,120,26362,1,0,0:0:0:0:
412,48,26562,1,2,0:0:0:0:
324,28,26762,2,0,P|220:24|140:32,2,150,0|2|0,0:0|0:0|0:0,0:0:0:0:
348,116,27762,5,2,0:0:0:0:
372,204,27962,2,0,P|396:300|400:360,1,150
312,344,28562,1,2,0:0:0:0:
224,336,28762,2,0,L|148:352,1,75,2|2,0:0|0:0,0:0:0:0:
60,356,29162,38,0,P|24:288|20:220,1,112.5
44,240,29562,1,0,0:0:0:0:
116,188,29762,1,0,0:0:0:0:
197,223,29962,2,0,P|233:155|237:75,1,150,0|2,0:0|0:0,0:0:0:0:
149,87,30562,1,2,0:0:0:0:
59,90,30762,6,0,L|72:164,1,75,0|2,0:0|0:0,0:0:0:0:
152,208,31162,2,0,L|165:282,1,75,0|2,0:0|0:0,0:0:0:0:
245,326,31562,1,2,0:0:0:0:
324,284,31762,1,2,0:0:0:0:
376,212,31962,1,0,0:0:0:0:
396,124,32162,1,2,0:0:0:0:
376,36,32362,6,0,L|300:48,1,75
396,124,32762,2,0,L|472:112,1,75,2|0,0:0|0:0,0:0:0:0:
416,212,33162,2,0,L|340:224,1,75
348,316,33562,1,2,0:0:0:0:
436,300,33762,1,0,0:0:0:0:
260,332,33962,6,0,L|185:343,1,75
91,267,34362,2,0,L|165:255,1,75,2|0,0:0|0:0,0:0:0:0:
220,156,34762,2,0,L|145:167,1,75
48,152,35162,1,2,0:0:0:0:
40,52,35362,1,0,0:0:0:0:
227,59,35562,38,0,L|302:48,1,75
392,36,35962,2,0,L|403:111,1,75,2|0,0:0|0:0,0:0:0:0:
415,201,36362,2,0,L|340:212,1,75
240,244,36762,1,2,0:0:0:0:
258,145,36962,1,0,0:0:0:0:
88,144,37162,6,0,L|13:155,1,75
25,245,37562,2,0,L|36:320,1,75,2|0,0:0|0:0,0:0:0:0:
126,308,37962,2,0,L|201:297,1,75
189,207,38362,2,0,L|178:132,2,75,2|0|0,0:0|0:0|0:0,0:0:0:0:
272,244,38962,37,0,0:0:0:0:
355,281,39162,1,2,0:0:0:0:
428,228,39362,1,0,0:0:0:0:
511,265,39562,2,0,L|492:116,2,150,0|2|0,0:0|0:0|0:0,0:0:0:0:
438,318,40562,5,0,0:0:0:0:
365,371,40762,2,0,P|296:376|212:360,1,150,2|0,0:0|0:0,0:0:0:0:
144,308,41362,1,0,0:0:0:0:
116,224,41562,2,0,L|44:244,1,75,2|0,0:0|0:0,0:0:0:0:
204,240,41962,37,0,0:0:0:0:
276,186,42162,1,0,0:0:0:0:
304,102,42362,2,0,P|373:97|457:113,1,150,2|0,0:0|0:0,0:0:0:0:
468,200,42962,1,0,0:0:0:0:
424,276,43162,2,0,L|490:311,1,75,2|0,0:0|0:0,0:0:0:0:
376,200,43562,5,0,0:0:0:0:
328,276,43762,1,0,0:0:0:0:
256,328,43962,2,0,P|208:344|108:348,2,150,2|0|2,0:0|0:0|0:0,0:0:0:0:
256,240,44962,1,0,0:0:0:0:
256,152,45162,1,0,0:0:0:0:
176,196,45362,37,0,0:0:0:0:
96,152,45562,2,0,L|26:179,1,75,2|0,0:0|0:0,0:0:0:0:
68,64,45962,2,0,P|124:44|196:48,1,112.5,0|0,0:0|2:0,0:0:0:0:
204,52,46362,2,0,P|259:51|312:31,1,112.5,2|0,0:0|2:0,0:0:0:0:
340,20,46762,5,0,0:0:0:0:
424,48,46962,1,0,0:0:0:0:
464,128,47162,2,0,P|480:200|488:288,1,150,2|0,0:0|0:0,0:0:0:0:
412,324,47762,1,0,0:0:0:0:
324,320,47962,2,0,L|250:335,1,75,2|0,0:0|0:0,0:0:0:0:
368,240,48362,37,0,0:0:0:0:
340,156,48562,1,0,0:0:0:0:
384,76,48762,2,0,P|320:48|232:40,1,150,2|0,0:0|0:0,0:0:0:0:
160,76,49362,1,0,0:0:0:0:
72,60,49562,2,0,L|36:128,1,75,2|0,0:0|0:0,0:0:0:0:
155,226,49962,6,0,L|120:160,1,75
256,117,50362,1,2,0:0:0:0:
256,154,50462,1,0,0:0:0:0:
256,192,50562,1,0,0:0:0:0:
356,226,50762,2,0,L|392:160,1,75
416,288,51162,2,0,L|488:266,1,75,2|0,0:0|0:0,0:0:0:0:
414,374,51562,38,0,L|341:352,1,75
256,324,51962,1,2,0:0:0:0:
169,352,52162,1,0,0:0:0:0:
96,300,52362,2,0,P|72:264|56:208,1,75
80,98,52762,2,0,P|102:129|116:163,1,75,2|0,0:0|0:0,0:0:0:0:
16,36,53162,5,0,0:0:0:0:
104,12,53362,1,0,0:0:0:0:
172,72,53562,2,0,P|220:88|340:72,1,150,2|0,0:0|0:0,0:0:0:0:
400,40,54162,1,0,0:0:0:0:
472,92,54362,2,0,L|512:156,1,75,2|0,0:0|0:0,0:0:0:0:
389,133,54762,37,0,0:0:0:0:
344,212,54962,1,0,0:0:0:0:
384,292,55162,2,0,P|320:328|244:344,1,150,2|0,0:0|0:0,0:0:0:0:
172,292,55762,1,0,0:0:0:0:
84,308,55962,2,0,L|11:327,1,75,2|0,0:0|0:0,0:0:0:0:
112,220,56362,5,0,0:0:0:0:
92,132,56562,1,0,0:0:0:0:
132,52,56762,2,0,P|208:52|280:24,2,150,2|0|2,0:0|0:0|0:0,0:0:0:0:
92,132,57762,1,0,0:0:0:0:
112,220,57962,38,0,L|184:239,1,75
272,264,58362,1,2,0:0:0:0:
364,292,58562,1,0,0:0:0:0:
452,317,58762,2,0,P|472:261|468:189,1,112.5,0|0,0:0|2:0,0:0:0:0:
464,181,59162,2,0,P|465:126|485:73,1,112.5,2|0,0:0|2:0,0:0:0:0:
496,45,59562,5,0,0:0:0:0:
408,32,59762,1,0,0:0:0:0:
320,28,59962,2,0,P|240:44|160:84,1,150,2|0,0:0|0:0,0:0:0:0:
136,152,60562,1,0,0:0:0:0:
104,236,60762,2,0,L|40:276,1,75,2|0,0:0|0:0,0:0:0:0:
196,220,61162,37,0,0:0:0:0:
252,292,61362,1,0,0:0:0:0:
340,312,61562,2,0,P|386:320|487:294,1,150,2|0,0:0|0:0,0:0:0:0:
512,208,62162,1,0,0:0:0:0:
444,152,62362,2,0,L|490:93,1,75,2|0,0:0|0:0,0:0:0:0:
364,192,62762,6,0,L|288:176,1,75
146,220,63162,1,2,0:0:0:0:
183,228,63262,1,0,0:0:0:0:
220,236,63362,1,0,0:0:0:0:
76,280,63562,2,0,L|0:264,1,75
146,220,63962,1,2,0:0:0:0:
146,220,64062,1,0,0:0:0:0:
146,220,64162,1,0,0:0:0:0:
8,136,64362,37,4,0:0:0:0:
100,88,64562,1,0,0:0:0:0:
200,120,64762,2,0,P|224:84|236:48,1,75,10|0,0:0|0:0,0:0:0:0:
100,88,65162,2,0,L|132:160,1,75
272,204,65562,2,0,P|229:197|191:201,1,75,10|0,0:0|0:0,0:0:0:0:
352,272,65962,5,0,0:0:0:0:
416,188,66162,1,0,0:0:0:0:
424,84,66362,2,0,P|356:68|276:68,1,150,10|0,0:0|0:0,0:0:0:0:
204,144,66962,1,0,0:0:0:0:
180,232,67162,1,10,0:0:0:0:
192,320,67362,1,0,0:0:0:0:
344,328,67562,38,0,P|408:308|456:268,1,112.5,0|0,0:0|2:0,0:0:0:0:
456,260,67962,2,0,P|472:200|472:152,1,75,10|0,0:0|0:0,0:0:0:0:
432,48,68362,2,0,P|375:48|320:57,1,112.5,0|0,0:0|2:0,0:0:0:0:
296,64,68762,2,0,P|242:95|208:129,1,75,10|0,0:0|0:0,0:0:0:0:
238,255,69162,6,0,P|182:256|127:245,1,112.5,0|0,0:0|2:0,0:0:0:0:
104,239,69562,2,0,P|70:222|40:199,1,75,10|0,0:0|0:0,0:0:0:0:
40,96,69962,2,0,P|71:75|105:60,1,75
196,112,70362,2,0,P|198:149|193:186,1,75,10|0,0:0|0:0,0:0:0:0:
106,313,70762,38,0,P|101:276|104:239,1,75
200,276,71162,1,10,0:0:0:0:
296,232,71362,1,0,0:0:0:0:
392,268,71562,2,0,P|449:223|497:159,2,150,0|10|0,0:0|0:0|0:0,0:0:0:0:
380,164,72562,5,0,0:0:0:0:
368,60,72762,2,0,P|311:105|263:169,1,150,10|0,0:0|0:0,0:0:0:0:
224,248,73362,1,0,0:0:0:0:
136,196,73562,1,10,0:0:0:0:
32,204,73762,1,0,0:0:0:0:
108,336,73962,38,0,P|160:352|224:356,1,112.5,0|0,0:0|2:0,0:0:0:0:
244,352,74362,2,0,P|280:344|316:328,1,75,10|0,0:0|0:0,0:0:0:0:
456,244,74762,2,0,P|404:228|340:224,1,112.5,0|0,0:0|2:0,0:0:0:0:
320,228,75162,2,0,P|284:236|248:252,1,75,10|0,0:0|0:0,0:0:0:0:
314,328,75562,6,0,P|348:343|384:351,1,75
249,251,75962,2,0,P|214:235|178:227,1,75,10|0,0:0|0:0,0:0:0:0:
352,232,76362,2,0,P|367:198|375:162,1,75
211,347,76762,1,10,0:0:0:0:
178,227,76962,1,0,0:0:0:0:
144,104,77162,37,4,0:0:0:0:
240,148,77362,1,0,0:0:0:0:
344,156,77562,2,0,P|388:136|420:128,1,75,10|0,0:0|0:0,0:0:0:0:
286,206,77962,2,0,P|260:179|240:148,1,75
360,236,78362,2,0,P|356:273|346:309,1,75,10|0,0:0|0:0,0:0:0:0:
256,364,78762,5,0,0:0:0:0:
166,309,78962,1,0,0:0:0:0:
104,224,79162,2,0,P|88:156|88:76,1,150,10|0,0:0|0:0,0:0:0:0:
192,60,79762,1,0,0:0:0:0:
292,92,79962,1,10,0:0:0:0:
380,36,80162,1,0,0:0:0:0:
376,200,80362,38,0,P|356:264|316:312,1,112.5,0|0,0:0|2:0,0:0:0:0:
312,320,80762,2,0,P|276:344|240:356,1,75,10|0,0:0|0:0,0:0:0:0:
296,208,81162,2,0,P|236:239|174:244,1,112.5,0|0,0:0|2:0,0:0:0:0:
165,247,81562,2,0,P|122:238|88:221,1,75,10|0,0:0|0:0,0:0:0:0:
233,157,81962,6,0,P|169:137|121:97,1,112.5,0|0,0:0|2:0,0:0:0:0:
113,92,82362,2,0,P|88:55|77:19,1,75,10|0,0:0|0:0,0:0:0:0:
225,77,82762,2,0,P|264:84|312:100,1,75
440,189,83162,2,0,P|403:182|368:172,1,75,10|0,0:0|0:0,0:0:0:0:
312,244,83562,5,0,0:0:0:0:
256,316,83762,1,2,0:0:0:0:
200,244,83962,2,0,L|128:264,1,75,0|2,0:0|0:0,0:0:0:0:
40,276,84362,2,0,P|28:228|32:156,1,112.5,0|0,0:0|2:0,0:0:0:0:
48,144,84762,2,0,P|50:87|37:33,1,112.5,2|0,0:0|0:0,0:0:0:0:
64,24,85162,5,0,0:0:0:0:
148,56,85362,1,2,0:0:0:0:
236,44,85562,2,0,P|276:40|392:60,1,150
464,168,86262,1,0,0:0:0:0:
464,168,86362,2,0,L|392:192,1,75,0|2,0:0|0:0,0:0:0:0:
304,216,86762,38,0,P|260:232|224:248,1,75,0|2,0:0|0:0,0:0:0:0:
268,328,87162,2,0,P|312:312|348:296,1,75,0|2,0:0|0:0,0:0:0:0:
304,216,87562,2,0,P|288:152|240:72,2,150
256,292,88562,1,2,0:0:0:0:
168,300,88762,1,0,0:0:0:0:
344,300,89162,1,0,0:0:0:0:
256,144,89562,5,2,0:0:0:0:
